#TITLE:Chik Habit;
#SUBTITLE:;
#ARTIST:The Flashbulb;
#TITLETRANSLIT:;
#SUBTITLETRANSLIT:;
#ARTISTTRANSLIT:;
#CRChallenge:;
#BANNER:chik-banner.avi;
#BACKGROUND:chik-bg.jpg;
#LYRICSPATH:;
#CDTITLE:!cdtitle.png;
#MUSIC:chik.ogg;
#OFFSET:0.000;
#SAMPLESTART:27.309;
#SAMPLELENGTH:12.000;
#SELECTABLE:YES;
#BPMS:0.000=105.000,48.000=210.000,240.000=105.000,242.000=120.000,274.000=240.000;
#STOPS:;
#BGCHANGES:;
#NOTES:
     dance-single:
     Renard:
     Medium:
     9:
     0.765,0.892,0.338,0.228,0.304:
0000
0000
0000
0000
,
0000
0000
0000
0000
,
0000
0000
0000
0000
,
0000
0000
0000
0000
,
1000
0000
1000
0001
0010
0000
0100
1000
0000
0001
0100
0010
1000
0100
0010
0001
,
0010
0000
0100
1000
0001
0100
0010
1000
0001
0000
M00M
0000
1001
0000
M00M
0000
,
1000
0000
0100
1000
0001
0000
0100
0010
0000
1000
0100
0010
0001
0010
0100
1000
,
0001
0000
0100
0010
1000
0001
0010
0100
1000
0000
M00M
0000
1001
0000
M00M
0000
,
0001
0000
0100
0010
1000
0100
0010
0001
1000
0000
0001
0010
0100
1000
0001
0100
,
0010
0000
1000
0100
0010
0001
0010
0100
1000
0000
M00M
0000
1001
0000
M00M
0000
,
1000
0000
0010
0100
0001
0100
0010
1000
0100
0000
1000
0100
0010
0001
1000
0001
,
0100
0000
0001
0100
0010
1000
0100
1000
0001
0000
M00M
0000
1001
0000
M00M
0000
,
0001
0000
0001
0100
0010
1000
0100
0010
,
0000
0010
0001
0010
0100
1000
0001
0100
,
0010
0000
0010
1000
0100
0010
0001
1000
,
2002
0010
0010
3013
,
0101
0000
0001
0100
0010
0000
1000
0100
,
0000
1000
0100
0010
0001
1000
0010
0100
,
0001
0000
0010
0100
1000
0001
0100
0001
,
2002
0010
0010
3013
,
1001
0000
0001
0100
0010
1000
0100
1000
,
1001
0000
0001
0100
0010
1000
0100
1000
,
1001
0000
0001
0010
0100
1000
0001
0001
,
2002
0010
0010
3013
,
0101
0000
0100
0010
1000
0100
0010
0001
,
0011
0000
0010
0100
1000
0001
1000
1000
,
1010
0000
1000
0010
0100
0001
0010
0001
,
2002
0010
0010
3013
,
1001
0000
0001
0100
0010
1000
0100
1000
,
1100
0000
1000
0100
0010
0001
1000
0001
,
0101
0000
0001
0100
0010
1000
0001
2000
,
0002
0010
0010
3013
,
0001
0000
0010
0100
1000
0001
0100
0010
,
1000
0000
1000
0010
0100
0001
0010
0100
,
1000
0000
0010
0010
0100
0100
0001
0001
,
0010
0010
0010
0010
,
0011
0000
0010
0100
1000
0010
0100
0001
,
0100
0000
0100
0010
1000
0100
0010
0001
,
1000
0000
0100
1000
0001
0100
0010
1000
,
2002
0010
0010
3013
,
1001
0000
1000
0010
0100
0001
0010
0100
,
1000
0000
1000
0100
0010
0001
1000
0010
,
0100
0000
0100
0010
1000
0100
1000
0001
,
2002
0010
0010
3013
,
0002
0000
0100
0000
0000
0013
0000
0000
,
2000
0000
0100
0000
0000
3010
0000
0000
,
0020
0000
1000
0000
0000
0130
0000
0000
,
0200
0000
0001
0000
0000
0310
0000
0000
,
0002
0000
1000
0000
0000
0103
0000
0000
,
2000
0000
0100
0000
0000
3001
0000
0000
,
0002
0000
0010
0000
0000
1003
0000
0000
,
0001
0000
0100
0000
0010
1000
0001
0100
,
0010
1000
0100
0010
0001
0010
0100
1000
,
0001
0100
0010
1000
0100
1000
0001
0010
,
0001
0100
0001
0100
0010
1000
0100
0010
,
0001
0010
0100
1000
0001
0100
0010
1000
,
0100
1000
0100
1000
0001
1000
0001
1000
,
0001
0100
0001
0100
0001
0010
0001
0010
,
0001
0010
0100
1000
0010
0100
0001
1000
,
0010
1000
0100
0010
1001
0000
0000
0000
,
0110
0000
0000
0000
0000
0000
0000
0000
0001
0000
0001
1000
0100
0000
0010
0001
,
0000
1000
0010
0100
0001
0010
0100
1000
0100
0000
0010
0001
1000
0010
0100
0001
,
1000
0000
M00M
0000
1001
0000
M00M
0000
0001
0000
0010
0001
1000
0000
0010
0100
,
0000
0001
0010
0100
1000
0100
0010
0001
1000
0000
0010
0100
0001
1000
0100
0010
,
0001
0000
M00M
0000
1001
0000
M00M
0000
1000
0000
0010
0100
0001
0010
0100
1000
,
0001
0000
1000
0100
0010
0001
1000
0010
0100
0000
0001
0010
0100
1000
0100
0010
,
0001
0000
M00M
0000
1001
0000
M00M
0000
0001
0000
0100
0010
1000
0010
0100
0001
,
0010
0000
0001
0010
0100
1000
0001
1000
0010
0000
1000
0010
0100
0001
0010
0001
,
1000
M00M
1001
M00M
1000
0000
1000
0010
,
0100
0001
0010
0100
0000
0100
1000
0100
,
0010
0001
1000
0010
0100
0000
0100
0001
,
0010
0100
1000
0001
2002
0000
0010
0000
,
0010
0000
3013
0000
1010
0000
1000
0010
,
0100
0000
0001
0010
0000
0001
0010
0100
,
1000
0001
0100
0010
1000
0000
0100
0010
,
0001
1000
0010
1000
2002
0000
0010
0000
,
0010
0000
3013
0000
1000
0000
0001
0100
,
0010
1000
0100
0010
0001
0000
0010
0100
,
1000
0001
0100
0010
1000
0000
0001
0100
,
0010
1000
0001
0000
2002
0000
0010
0000
,
0010
0000
3013
0000
1010
0000
0010
0100
,
0001
0010
0100
1000
1100
0000
0100
0010
,
0001
1000
0001
0100
0101
0000
0001
0100
,
0010
1000
0100
1000
1001
0000
0110
0000
,
1001
0110
1001
0000
;
#NOTES:
     dance-single:
     Renard:
     Hard:
     12:
     0.876,0.963,0.549,0.236,0.629:
0000
0000
0000
0000
,
0000
0000
0000
0000
,
0000
0000
0000
0000
,
0000
0000
0000
0000
,
1001
0010
1001
0100
1001
0010
1001
0100
,
1000
0000
0100
0010
0001
0010
0100
1000
0001
0000
0000
0000
1001
0000
0000
0000
,
1001
0100
1001
0010
1001
0100
1001
0010
,
1001
0000
0001
0010
0100
1000
0100
0010
0001
0000
0000
0000
1001
0000
0000
0000
,
1010
0000
0100
0001
0010
0100
1000
0001
0010
0000
0001
0010
0100
1000
0001
0100
,
0010
0000
1000
0010
0100
0001
0010
0100
1000
0000
0000
0000
1100
0000
0000
0000
,
0011
0000
0010
0001
0010
0100
1000
0001
0100
0000
0010
1000
0001
0100
0010
1000
,
0100
0000
0010
0001
0010
0100
1000
0001
0100
0000
0000
0000
1001
0000
0000
0000
,
1000
0000
0100
0000
1000
0000
0001
0010
0001
0000
1000
0000
0010
0000
0100
0000
,
0001
0000
0001
0000
0100
0000
0010
1000
0010
0100
0001
0000
2000
0000
0000
0000
,
3001
0010
0100
1000
0001
0000
1000
0001
1000
0000
0001
1000
0001
0000
0100
0000
,
0010
1001
1001
1001
,
0001
1000
0001
0100
0001
0000
1000
0000
0100
0000
0010
0000
0002
0000
0000
0000
,
1003
0000
0100
0000
0010
0000
0001
0010
0100
1000
0100
1000
0100
0000
1000
0100
,
1000
0000
0001
1000
0001
0000
0100
0000
0001
0100
0001
0100
0001
0000
0001
0000
,
0100
1001
1001
1001
,
0100
0000
0100
0000
0010
0000
0000
0000
1000
0010
1000
0001
0100
0000
0001
0000
,
1000
0000
0100
0010
0001
0000
0010
0100
1000
0001
1000
0001
1000
0001
1000
0000
,
0001
0000
0000
0100
0000
0000
0001
0000
0000
0100
0000
0000
0001
0000
0000
0000
1000
0000
0000
0000
0100
0000
0000
0000
0010
0000
0000
0000
0001
0000
0000
0000
1000
0000
0000
0000
0001
0000
0000
0000
0000
0000
0100
0000
0000
0000
0000
0000
,
0010
1001
1001
1001
,
0001
0000
1000
0100
0010
0000
0001
0000
1000
0000
0010
1000
0010
0000
0100
0000
,
0001
0000
0001
0000
0100
0000
0010
0000
1000
0010
0100
0001
1000
0000
0001
0000
,
2000
0000
0000
0000
3100
0000
0010
0001
0010
0100
1000
0000
0001
0000
1000
0000
,
0010
1001
1001
1001
,
0002
0000
0000
0000
1003
0100
0010
0001
2000
0000
0000
0000
3002
0000
0000
0000
,
2003
0000
3200
0000
0320
0000
0032
0000
0013
0100
1000
0000
0002
0000
0000
0000
,
2003
0000
0000
0000
0000
0000
0000
0000
0000
0000
0000
0000
3001
0000
0000
0010
0000
0000
0100
0000
0000
1000
0000
0000
0001
0000
0000
0000
0010
0000
0000
0000
0100
0000
0000
0000
1000
0000
0000
0000
0001
0000
0000
0000
0010
0000
0000
0000
,
0100
0000
1000
0100
1000
0000
0000
0000
1001
0000
0000
0000
1001
0000
0000
0000
,
0110
0000
0010
1000
0100
0010
0001
0010
,
0100
0000
0100
1000
0010
0100
0001
0010
,
0100
0000
1000
0001
0010
0100
1000
0001
,
0100
0110
1001
0110
,
1010
0000
0000
0000
0100
0000
0001
0100
0001
1000
0001
0010
0001
0000
0001
0000
,
1000
0100
0010
0001
1000
0000
0001
0010
0100
1000
0001
1000
0002
0000
0000
0000
,
1003
0000
0100
0000
1000
0000
0001
0010
0002
0000
2003
0000
3010
0000
0200
0000
,
0310
0000
1001
0000
2002
3003
1001
0000
,
1010
0000
0000
0101
0000
0000
0011
0000
0000
1100
0000
0000
1001
0000
0000
0000
,
0001
0000
0100
0000
0010
0000
1000
0000
0100
0000
0010
0000
0001
0010
0100
0000
,
1000
0100
1000
0000
0010
0000
0100
0000
0001
0000
0010
0000
0100
1000
0100
1000
,
0100
1001
1001
1001
,
0002
0000
0000
0000
,
0203
0000
0000
0000
,
0320
0000
0000
0000
,
2030
0000
0000
0000
,
3200
0000
0000
0000
,
0320
0000
0000
0000
,
0032
0000
0000
0000
,
2003
0000
0000
0000
,
3010
1000
0001
0010
0100
1000
0100
0001
,
0100
0010
0001
0010
1000
0010
0100
0001
,
0100
1000
0010
0001
0010
0100
1000
0100
,
0001
0010
0100
1000
0001
0010
0100
1000
0001
0000
0100
0000
0010
0000
1000
0000
,
0001
0100
1000
0100
0001
0010
0100
1000
,
0010
0001
0010
0100
1000
0100
0001
0010
,
0100
1000
0100
0010
0001
0010
0100
1000
,
0001
0100
0010
1000
0100
0010
0001
0010
0001
0000
0000
0000
0000
0000
0000
0000
,
1001
0000
0000
0000
0000
0000
0000
0000
0001
0000
0001
1000
0100
0000
0010
0001
,
0000
0010
0100
1000
0001
0100
0010
1000
0100
0000
0010
0001
0010
0100
1000
0001
,
0100
0000
M00M
0000
1001
0000
M00M
0000
1000
0000
0100
0010
0001
0000
0010
0100
,
0000
1000
0001
0100
0010
1000
0100
0010
0001
0000
0010
0100
1000
0001
0100
0010
,
1000
0000
M00M
0000
1001
0000
M00M
0000
1000
0000
1000
0100
0010
0001
0010
0100
,
1000
0000
1000
0100
0010
0001
0010
0100
1000
0000
1000
0100
0010
0001
0010
0100
,
1000
0000
M00M
0000
1001
0000
M00M
0000
0001
0000
0001
0010
0100
1000
0100
0010
,
0001
0000
0001
0010
0100
1000
0100
0010
0001
0000
0001
0010
0100
1000
0100
0010
,
0001
0000
M00M
0000
1001
0000
M00M
0000
0001
0000
0010
0000
0001
0000
1000
0100
,
1000
0000
0001
0000
0100
0000
0010
0000
1000
0000
1000
0000
0010
0000
0100
0001
,
0100
0010
1000
0000
0002
0000
0000
0000
1003
0100
0010
0001
1000
0000
0001
1000
,
0001
0000
1000
0001
1000
0000
0010
0000
0100
0000
0000
0000
1001
0000
0000
0000
,
1001
0000
0000
0000
1001
0000
0000
0000
1000
0001
1000
0010
1000
0000
0001
0000
,
0010
0000
0100
0000
2000
0000
0000
0000
3001
0000
0010
0000
0100
0000
1000
0100
,
0010
0001
0010
0001
0010
0000
0001
0010
0001
0000
1000
0001
1000
0000
0010
0000
,
1000
0010
1000
0010
1000
0000
0001
0000
0010
0000
0000
0000
1001
0000
0000
0000
,
1001
0000
0000
0000
1001
0000
0000
0000
1001
0000
0000
0000
1000
0010
1000
0000
,
0001
0000
0110
0000
0010
1000
0001
0100
,
0001
0010
0100
1000
0001
0000
0000
0000
0100
0000
0000
0000
0010
1000
0001
0100
,
0010
0000
0100
0010
1000
0000
0101
0000
,
1010
0000
1001
0000
1000
0000
0010
0100
,
0100
0001
0010
0100
1000
0000
0100
0010
,
0001
0001
0100
0010
1000
0000
0010
0010
,
0100
0100
0001
0001
0010
0000
1001
0000
,
0110
1001
0110
0000
;
#NOTES:
     dance-single:
     Renard:
     Easy:
     7:
     0.509,0.535,0.363,0.068,0.000:
0000
0000
0000
0000
,
0000
0000
0000
0000
,
0000
0000
0000
0000
,
0000
0000
0000
0000
,
0001
0010
0100
1000
0000
0100
0010
0001
,
1000
0100
1000
0001
0010
0000
1001
0000
,
0001
0010
0100
1000
0000
0100
1000
0100
,
0010
0001
1000
0100
0010
0000
0110
0000
,
0100
1000
0001
0100
0001
0000
1000
0100
,
1000
0000
0001
0100
0001
0000
1001
0000
,
1000
0001
0010
0001
1000
0000
0010
1000
,
0010
0000
1000
0001
1000
0000
1001
0000
,
1000
0000
0100
0000
1000
0000
0001
1000
,
0000
0001
0100
0000
0001
0000
1000
0000
,
0100
0000
1000
0000
0001
0000
0010
0001
,
0010
0011
0011
0011
,
0001
0000
1000
0000
0100
0000
1000
0100
,
0000
1000
0001
0000
0100
0000
0001
0000
,
1000
0000
0010
0000
0100
0000
0001
1000
,
0001
1100
1100
1100
,
1000
0000
0001
0000
0100
0000
0010
0100
,
0010
0000
1000
0000
0100
0000
0010
0001
,
0010
0000
0100
0000
1000
0000
0001
0100
,
0001
0101
0101
0101
,
0100
0000
0010
0000
1000
0000
0100
1000
,
0100
0000
1000
0000
0100
0000
0010
0001
,
0010
0000
0001
0000
0100
0000
0010
1000
,
0010
1010
0101
1010
,
1000
0000
0100
0000
0010
0000
0001
0010
,
0001
0000
0010
0000
0100
0000
1000
0100
,
1000
0000
0001
0000
0100
0000
0010
1000
,
0010
1001
1001
1001
,
1000
0000
0100
0000
0010
0000
0001
0010
,
0001
0000
0010
0000
0100
0000
1000
0100
,
1000
0000
0001
0000
0100
0000
0010
0100
,
0010
1001
1001
1001
,
1000
0000
0100
0000
0010
0000
0001
1000
,
0001
0000
0010
0000
0100
0000
1000
0001
,
1000
0000
0100
0000
0010
0000
0001
1000
,
0001
1001
0110
1001
,
0001
0000
1000
0000
0100
0000
0010
0001
,
0010
0000
0100
0000
1000
0000
0001
1000
,
0001
0000
1000
0000
0100
0000
0010
0001
,
0010
0100
1000
0001
,
2000
0000
0000
0000
,
3200
0000
0000
0000
,
0320
0000
0000
0000
,
0032
0000
0000
0000
,
2003
0000
0000
0000
,
3020
0000
0000
0000
,
0230
0000
0000
0000
,
0302
0000
0000
0000
,
0103
0000
0001
0000
1000
0000
0100
1000
,
0100
1000
0001
0100
,
0001
0000
1000
0000
0100
0000
0010
0001
,
0010
0100
1000
0001
,
0100
0000
0010
0000
1000
0000
0010
1000
,
0010
0000
0100
0000
0001
0000
0010
0100
,
0010
0100
1000
0001
,
0100
0001
0100
0001
0100
0000
0000
0000
,
1001
0000
0000
0000
1000
0100
0010
0001
,
0000
0010
0100
1000
0001
0010
0001
1000
,
0100
0000
1001
0000
1000
0100
0010
0001
,
0000
0010
0001
0010
0100
1000
0001
0010
,
0100
0000
0110
0000
0010
0001
1000
0010
,
1000
0000
0001
0010
0001
0000
1000
0010
,
1000
0000
1001
0000
0001
1000
0100
1000
,
0001
0000
0100
0001
0100
0000
0001
1000
,
0001
1001
0001
0010
,
0001
0000
1000
0001
0000
1000
0010
0000
,
1000
0001
0010
0001
,
1000
0000
0100
1000
0100
0000
1100
0000
,
1100
1100
1000
0001
,
0010
0000
0001
0010
0000
0001
1000
0000
,
0010
1000
0001
0100
,
0010
0000
1000
0001
1000
0000
0011
0000
,
0011
0011
0001
1000
,
0010
0000
0100
0010
0100
0000
0001
0000
,
0010
0000
0100
1000
0100
0000
0010
0000
,
0001
0000
1000
0010
1000
0000
1010
0000
,
1010
1010
0010
0100
,
0001
0000
0010
0001
0010
0000
0001
0000
,
0010
0000
0100
1000
0100
0000
1000
0000
,
0010
0000
0100
0001
0100
0000
0101
0000
,
1010
0101
1001
0000
;
#NOTES:
     dance-single:
     Renard:
     Beginner:
     3:
     0.402,0.464,0.270,0.076,0.000:
0000
0000
0000
0000
,
0000
0000
0000
0000
,
0000
0000
0000
0000
,
0000
0000
0000
0000
,
1000
0000
0001
1000
0000
0001
0100
0000
,
0001
0000
1000
0100
0010
0000
0000
0000
,
0001
0000
1000
0100
0000
1000
0001
0000
,
0100
0000
0001
0010
0100
0000
1000
0000
,
0001
0000
0100
0001
0100
0000
0010
1000
,
0010
0000
1000
0100
1000
0000
0001
0000
,
0010
0000
0001
0100
0001
0000
1000
0010
,
1000
0000
0001
0100
0001
0000
1001
0000
,
1000
0000
0100
0000
1000
0000
0100
1000
,
0000
0100
1000
0001
,
0010
0000
0010
0001
,
0100
0101
0101
0101
,
0001
0000
0010
0000
0001
0000
0100
0001
,
0000
0100
0010
1000
,
0100
0000
1000
0100
,
1000
1001
1001
1001
,
0001
0000
0100
0010
,
1000
0000
0010
0100
,
0001
0000
1000
0100
,
0010
1001
1001
1001
,
0010
0000
1000
0010
,
0100
0000
0001
0100
,
0010
0000
1000
0100
,
0010
1001
1001
1001
,
0001
0000
0010
0100
,
1000
0000
0100
0010
,
0001
0000
1000
0010
,
0100
1001
1001
1001
,
0010
0000
1000
0100
,
0010
0000
0001
0100
,
0010
0000
1000
0100
,
0010
1001
1001
1001
,
0001
0100
0010
1000
,
0100
1000
0001
0010
,
0100
1000
0001
0100
,
0010
0200
0010
0310
,
0010
1000
0100
0010
,
0001
0010
0100
1000
,
0001
0100
0010
1000
,
0010
1010
1010
1010
,
2000
0000
0000
0000
,
3002
0000
0000
0000
,
0203
0000
0000
0000
,
0302
0000
0000
0000
,
2003
0000
0000
0000
,
3002
0000
0000
0000
,
0023
0000
0000
0000
,
0032
0000
0000
0000
,
1003
1000
1000
0100
,
0010
0010
0010
0001
,
0100
0100
0100
0010
,
1000
0100
0010
0001
,
1000
1000
1000
0010
,
0100
0100
0100
0001
,
0010
0010
0010
0001
,
0010
0100
1001
0000
,
0110
0000
0000
0000
0010
0000
0010
1000
,
0000
0100
0010
0000
0001
0010
0100
1000
,
0100
0000
1100
0000
1000
0000
0001
1000
,
0000
0001
0100
0000
0010
0000
1000
0010
,
0100
0000
1001
0000
0001
0000
0100
0001
,
0100
0000
0010
1000
0010
0000
1000
0100
,
1000
0000
0001
0000
0010
0000
0001
1000
,
0001
0000
0100
0010
0100
0000
0010
1000
,
0010
1000
0001
0100
,
0010
1000
0000
0010
,
1000
0100
0010
0000
,
0001
1000
0010
0110
,
0110
0110
0010
0000
,
1000
0100
0000
0010
,
0001
0010
0100
0000
,
1000
0001
0100
0010
,
0010
0010
1000
0000
,
0010
0100
0001
0000
,
0100
0001
1000
0000
,
0100
1000
0001
0010
,
0010
0010
0001
0000
,
1000
0100
0010
0000
,
0001
0010
0100
0000
,
1000
0010
0100
0001
,
1001
0110
1001
0000
;
