#TITLE:Check the Penis;
#SUBTITLE:;
#ARTIST:Interstate;
#TITLETRANSLIT:;
#SUBTITLETRANSLIT:;
#ARTISTTRANSLIT:;
#CRChallenge:;
#BANNER:penis-banner.avi;
#BACKGROUND:penis-bg.jpg;
#LYRICSPATH:;
#CDTITLE:;
#MUSIC:penis.ogg;
#OFFSET:0.020;
#SAMPLESTART:70.428;
#SAMPLELENGTH:12.000;
#SELECTABLE:YES;
#BPMS:0.000=163.570;
#STOPS:0.000=0.020
;
#BGCHANGES:;
#NOTES:
     dance-single:
     Renard:
     Medium:
     9:
     0.780,0.838,0.124,0.124,1.000:
0000
0000
0000
0000
,
0000
0000
0000
0000
,
0000
0000
0000
0000
,
0000
0000
0000
0000
,
0000
0000
0000
0000
0000
1000
1000
0000
0001
0100
0000
0010
,
0000
0000
0000
0000
0000
1000
1000
0000
0001
0100
0000
0010
,
0000
0000
0000
0000
0000
1000
1000
0000
0001
0100
0000
0010
,
2000
0000
0000
0000
,
3010
0000
0000
0110
0000
0000
0100
0000
0001
0010
0000
0100
,
1000
0000
0000
1100
0000
0000
1000
0000
0100
0010
0000
0001
,
1000
0000
0000
0101
0000
0000
0001
0000
0100
0010
0000
1000
,
0100
0000
0000
1000
0000
0000
0100
0000
0010
0001
0010
0001
,
0010
0000
0000
0110
0000
0000
0100
0000
1000
0010
0000
0100
,
0001
0000
0000
0101
0000
0000
0100
0000
0010
1000
0000
0100
,
0010
0000
0000
0011
0000
0000
0010
0000
0100
1000
0000
0001
,
0200
0000
0000
0000
0000
0000
0000
0000
0310
1000
0010
1000
,
0020
0000
0100
1000
,
0100
0000
0000
1000
0000
0000
0130
0000
0010
1000
0000
1000
,
0020
0100
1000
0100
,
1000
0000
0000
0100
0000
0000
1030
0000
0010
1000
0000
1000
,
0020
0100
1000
0100
,
1000
0000
0000
0100
0000
0000
1030
0000
0010
1000
0000
1000
,
0020
0100
1000
0100
,
0200
0000
0000
0330
,
0110
0000
0000
1001
0000
0100
0010
0100
0010
0100
0000
0000
,
0010
1000
0001
0100
0000
0010
0000
1000
0001
0010
0100
1000
,
0100
0000
0000
1100
0000
0000
1000
0100
0010
0001
0000
0000
,
1000
0001
0100
0010
0000
1000
0001
0000
0100
0010
0000
0000
,
1001
0000
0000
0110
0000
0010
0100
1000
0001
0100
0000
0000
,
0010
1000
0001
0100
0000
0010
0000
1000
0001
0100
0010
1000
,
0001
0000
0000
0011
0000
0001
0010
0100
1000
0001
0000
0000
,
1000
0010
0100
0001
0000
1000
0001
0000
0001
0001
0000
0001
,
2000
0000
0000
0000
,
3010
0000
0010
0100
0000
0100
0010
0000
0010
0100
0000
0100
,
0001
0000
0001
1000
0000
1000
0001
0000
0001
1000
0000
1000
,
0010
0000
0010
0100
0000
0100
0010
0000
0010
0100
0000
0100
,
0001
0000
0001
0100
0000
0100
0001
0000
0001
0100
0000
0100
,
0010
0000
0010
1000
0000
1000
0010
0000
0010
1000
0000
1000
,
0001
0000
0001
0100
0000
0100
0001
0000
0001
0100
0000
0100
,
0010
0000
0010
1000
0000
1000
0010
0000
0010
1000
0000
1000
,
0100
0000
0100
1000
0000
1000
0100
0000
0100
1000
0000
1000
,
0100
0000
0100
1000
0000
1000
0100
0000
0100
1000
0000
1000
,
0001
0000
0001
0010
0000
0010
0001
0000
0001
0010
0000
0010
,
0001
0000
0001
0010
0000
0010
0001
0000
0001
0010
0000
0010
,
0100
0000
0100
0010
0000
0010
0100
0000
0100
0010
0000
0010
,
0100
0000
0100
1000
0000
1000
0100
0000
0100
1000
0000
1000
,
0001
0000
0001
1000
0000
1000
0001
0000
0001
1000
0000
1000
,
0020
0000
0000
0030
,
0010
0000
1000
0001
0000
0100
0010
0000
1000
0001
0000
0100
,
0010
0000
1000
0001
0000
0100
0010
0000
1000
0001
0000
0100
,
0001
0000
0010
0100
0000
1000
0001
0000
0010
0100
0000
1000
,
0001
0000
0010
0100
0000
1000
0001
0000
0010
0100
0000
0100
,
1000
0000
0100
0010
0000
0001
1000
0000
0100
0010
0000
0001
,
1000
0000
0100
0010
0000
0001
1000
0000
0100
0010
0000
0001
,
1000
0000
0010
0100
0000
0001
0100
0000
0010
1000
0000
0010
,
0100
0000
0001
0100
0000
0010
2000
0000
0000
0000
0000
0000
,
3000
0000
0001
1000
0001
1000
0001
0000
0100
0010
0100
0010
,
0100
0000
0001
1000
0001
1000
0001
0000
0100
0010
0100
0010
,
0100
0000
0001
1000
0001
1000
0001
0000
0100
0010
0100
0010
,
0100
0000
0001
1000
0001
1000
0001
0000
0100
0010
0100
0010
,
0100
0000
0001
1000
0001
1000
0001
0000
0100
0010
0100
0010
,
0100
0000
0001
1000
0001
1000
0001
0000
0100
0010
0100
0010
,
0200
0000
0000
0000
,
0020
0000
0000
0330
,
0110
0000
0001
1000
0001
1000
0001
0000
0100
0010
0100
0010
,
0100
0000
0001
1000
0001
1000
0001
0000
1000
0010
1000
0010
,
1000
0000
0001
0100
0001
0100
0001
0000
1000
0100
1000
0100
,
1000
0000
0001
0010
0001
0010
0001
0000
0001
1000
0000
1000
,
0010
0000
0010
0100
0010
0100
0010
0000
0100
0001
0100
0001
,
0100
0000
0001
1000
0001
1000
0001
0000
1000
0100
1000
0100
,
1000
0000
0001
0010
0001
0010
0001
0000
1000
0010
1000
0010
,
1000
0000
0001
0100
0001
0100
0001
0000
1000
0001
0000
1000
,
0001
0000
1000
0100
1000
0100
1000
0000
0001
0010
0001
0010
,
0001
0000
1000
0010
1000
0010
1000
0000
0001
0100
0001
0100
,
0001
0000
1000
0100
1000
0100
1000
0000
0001
0010
0001
0010
,
0001
0000
1000
0100
1000
0100
1000
0000
0010
0100
0010
0100
,
0010
0000
1000
0010
0100
0001
0100
0000
0001
0100
0010
1000
,
0010
0000
1000
0010
0100
0001
0100
0000
0001
0100
0010
1000
,
0010
0000
1000
0100
0010
0001
0010
0000
0001
0010
0100
1000
,
0200
0000
0000
0000
,
0300
0000
0000
0000
;
#NOTES:
     dance-single:
     Renard:
     Hard:
     10:
     0.856,0.990,0.657,0.124,1.000:
0000
0000
0000
0000
,
0000
0000
0000
0000
,
0000
0000
0000
0000
,
0000
0000
0000
0000
,
0000
0000
0000
0000
0000
0001
0001
0000
1000
0010
0000
0100
,
0000
0000
0000
0000
0000
0001
0001
0000
1000
0010
0000
0100
,
0000
0000
0000
0000
0000
0001
0001
0000
1000
0010
0000
0100
,
0002
0000
0000
0000
,
0103
0000
0000
0110
0000
0000
0010
0000
1000
0100
0000
0010
,
0001
0000
0000
0011
0000
0000
0001
0000
0010
0100
0000
1000
,
0001
0000
0000
1010
0000
0000
1000
0000
0010
0100
0000
0001
,
0010
0000
0000
0001
0000
0000
0010
0000
0100
1000
0100
1000
,
1100
0000
0000
0110
0000
0000
0010
0000
0001
0100
0000
0010
,
1000
0000
0000
1010
0000
0000
0010
0000
0100
0001
0000
0010
,
0100
0000
0000
1100
0000
0000
0100
0000
0010
0001
0000
1000
,
0020
0000
0000
0000
0000
0000
0000
0000
0130
0001
0100
0001
,
0201
0000
0010
0001
,
0010
0000
0000
0001
0000
0000
0310
0000
0100
0001
0000
0001
,
0200
0010
0001
0010
,
0001
0000
0000
0010
0000
0000
0301
0000
0100
0001
0000
0001
,
0200
0010
0001
0010
,
0001
0000
0000
0010
0000
0000
0301
0000
0100
0001
0000
0001
,
0200
0010
0001
0010
,
0020
0000
0000
0330
,
0110
0000
0000
1001
0000
0010
0100
0010
0100
0110
0000
0000
,
0100
0001
1000
0010
0000
0100
0000
0001
1000
0100
0010
0001
,
0010
0000
0000
0011
0000
0000
0001
0010
0100
1001
0000
0000
,
0001
1000
0010
0100
0000
0001
1000
0000
0010
0101
0000
0000
,
1001
0000
0000
0110
0000
0100
0010
0001
1000
1001
0000
0000
,
0100
0001
1000
0010
0000
0100
0000
0001
1000
0010
0100
0001
,
1001
0000
0000
1100
0000
1000
0100
0010
0001
1001
0000
0000
,
0001
0100
0010
1010
0000
0001
1001
0000
1000
1000
0000
1000
,
0002
0000
0000
0000
,
0103
0000
0100
0010
0000
0010
0100
0000
0100
0010
0000
0010
,
1000
0000
1000
0001
0000
0001
1000
0000
1000
0001
0000
0001
,
0100
0000
0100
0010
0000
0010
0100
0000
0100
0010
0000
0010
,
1000
0000
1000
0010
0000
0010
1000
0000
1000
0010
0000
0010
,
0100
0000
0100
0001
0000
0001
0100
0000
0100
0001
0000
0001
,
1000
0000
1000
0010
0000
0010
1000
0000
1000
0010
0000
0010
,
0100
0000
0100
0001
0000
0001
0100
0000
0100
0001
0000
0001
,
0010
0000
0010
0001
0000
0001
0010
0000
0010
0001
0000
0001
,
0010
0000
0010
0001
0000
0001
0010
0000
0010
0001
0000
0001
,
1000
0000
1000
0100
0000
0100
1000
0000
1000
0100
0000
0100
,
1000
0000
1000
0100
0000
0100
1000
0000
1000
0100
0000
0100
,
0010
0000
0010
0100
0000
0100
0010
0000
0010
0100
0000
0100
,
0010
0000
0010
0001
0000
0001
0010
0000
0010
0001
0000
0001
,
1000
0000
1000
0001
0000
0001
1000
0000
1000
0001
0000
0001
,
0200
0000
0000
0300
,
0101
0000
0001
1000
0000
0010
0110
0000
0001
1000
0000
0010
,
0101
0000
0001
1000
0000
0010
0110
0000
0001
1000
0000
0010
,
1010
0000
0100
0010
0000
0001
1100
0000
0100
0010
0000
0001
,
1010
0000
0100
0010
0000
0001
1100
0000
0100
0010
0000
0010
,
0011
0000
0010
0100
0000
1000
0101
0000
0010
0100
0000
1000
,
0011
0000
0010
0100
0000
1000
0101
0000
0010
0100
0000
1000
,
0011
0000
0100
0010
0000
1000
1010
0000
0100
0001
0000
0100
,
0110
0000
1000
0010
0000
0100
1002
0000
0000
0000
0000
0000
,
0003
0000
1000
0001
1000
0001
1000
0000
0010
0100
0010
0100
,
0010
0000
1000
0001
1000
0001
1000
0000
0010
0100
0010
0100
,
0010
0000
1000
0001
1000
0001
1000
0000
0010
0100
0010
0100
,
0010
0000
1000
0001
1000
0001
1000
0000
0010
0100
0010
0100
,
0010
0000
1000
0001
1000
0001
1000
0000
0010
0100
0010
0100
,
0010
0000
1000
0001
1000
0001
1000
0000
0010
0100
0010
0100
,
0020
0000
0000
0000
,
0200
0000
0000
0330
,
0110
0000
1000
0001
1000
0001
1001
0000
0010
0100
0010
0100
,
0110
0000
1000
0001
1000
0001
1001
0000
0001
0100
0001
0100
,
0101
0000
1000
0010
1000
0010
1010
0000
0001
0010
0001
0010
,
0011
0000
1000
0100
1000
0100
1100
0000
1000
0001
0000
0001
,
0101
0000
0100
0010
0100
0010
0110
0000
0010
1000
0010
1000
,
1010
0000
1000
0001
1000
0001
1001
0000
0001
0010
0001
0010
,
0011
0000
1000
0100
1000
0100
1100
0000
0001
0100
0001
0100
,
0101
0000
1000
0010
1000
0010
1010
0000
0001
1000
0000
0001
,
1001
0000
0001
0010
0001
0010
0011
0000
1000
0100
1000
0100
,
1100
0000
0001
0100
0001
0100
0101
0000
1000
0010
1000
0010
,
1010
0000
0001
0010
0001
0010
0011
0000
1000
0100
1000
0100
,
1100
0000
0001
0010
0001
0010
0011
0000
0100
0010
0100
0010
,
0110
0000
0001
0100
0010
1000
1010
0000
1000
0010
0100
0001
,
0101
0000
0001
0100
0010
1000
1010
0000
1000
0010
0100
0001
,
0101
0000
0001
0010
0100
1000
1100
0000
1000
0100
0010
0001
,
0021
0000
0000
0000
,
0030
0000
0000
0000
;
#NOTES:
     dance-single:
     Renard:
     Easy:
     6:
     0.438,0.527,0.152,0.114,0.210:
0000
0000
0000
0000
,
0000
0000
0000
0000
,
0000
0000
0000
0000
,
0000
0000
0000
0000
,
0000
0000
0000
0000
0000
0001
1000
0000
0000
0001
0000
0000
,
0000
0000
0000
0000
0000
1000
0001
0000
0000
1000
0000
0000
,
0000
0000
0000
0000
0000
0001
1000
0000
0000
0001
0000
0000
,
0200
0000
0000
0000
,
0310
0010
0010
1000
,
0010
0010
0010
1000
,
0001
0001
0001
0100
,
0001
0001
0100
0001
,
1000
0000
0000
1000
0000
0000
1000
0000
1000
0100
0000
0000
,
0010
0010
0010
0011
,
0100
0000
0000
0100
0000
0000
0100
0000
0100
0001
0000
0000
,
1010
0000
0000
1000
,
0002
0000
0000
0000
,
0100
0100
0100
0203
,
0320
0000
0000
0000
,
1000
1000
1000
2030
,
3200
0000
0000
0000
,
0010
0010
0010
0320
,
0032
0000
0000
0000
,
0103
0000
0000
0000
,
0010
0000
0000
0010
0000
0000
1000
0000
0010
1000
0000
0000
,
0010
0000
0000
0100
0000
0001
0000
0000
0000
0010
0000
0000
,
0100
0000
0000
0100
0000
0000
1000
0000
0100
1000
0000
0000
,
0001
0010
0001
0000
,
1000
0000
0000
0010
0000
0000
0100
0000
0010
0100
0000
0000
,
0001
0000
0000
0100
0000
0010
0000
0000
0000
1000
0000
0000
,
0100
0000
0000
0010
0000
0000
0001
0000
0001
0010
0000
0000
,
0100
0000
0000
1000
0000
0001
0000
0000
0000
0000
0000
0000
,
0200
0000
0000
0000
,
0310
0010
0010
0010
,
1000
0001
1000
0001
,
1000
0001
1000
0001
,
1000
0000
1000
0001
0000
0000
1000
0000
1000
0001
0000
0000
,
1000
0000
1000
0001
0000
0000
1000
0000
1000
0001
0000
0000
,
0100
0000
0100
0010
0000
0000
0100
0000
0100
0010
0000
0000
,
0100
0000
0100
0010
0000
0000
0100
0000
0100
0010
0000
0000
,
0010
0010
1000
1000
,
0001
0001
0100
0100
,
0010
0010
1000
1000
,
0001
0001
0100
0100
,
0010
1000
0010
1000
,
0001
0100
0001
0100
,
0010
1000
0100
0010
,
0002
0000
0000
0000
0000
0000
0000
0000
0000
0000
0000
0003
,
1000
0000
1000
0100
0000
0000
1000
0000
0000
0100
0000
0000
,
1000
0100
1000
0100
,
0010
0000
0010
0001
0000
0000
0010
0000
0000
0001
0000
0000
,
0100
0001
1000
0010
,
0100
0000
0100
0001
0000
0000
0100
0000
0000
0010
0000
0000
,
1000
0100
1000
0100
,
1000
0000
1000
0001
0000
0000
1000
0000
0000
0001
0000
0000
,
0010
0010
0002
0000
,
0003
0000
1000
0100
0000
1000
0100
0000
0000
1000
0000
0000
,
1000
0000
0001
0010
0000
0001
0010
0000
0000
0001
0000
0000
,
0001
0000
1000
0001
0000
1000
0001
0000
0000
0001
0000
0000
,
0001
0000
0100
0010
0000
0100
0010
0000
0000
0010
0000
0000
,
0010
0000
1000
0010
0000
1000
0010
0000
0000
1000
0000
0000
,
1000
0000
0001
0100
0000
0001
0100
0000
0000
0001
0000
0000
,
0002
0000
0000
0000
,
0003
0000
0000
0000
,
1000
0000
0000
0100
0000
0100
1000
0000
0000
0001
0000
0000
,
0010
0000
0000
0001
0000
0001
0010
0000
0000
0001
0000
0000
,
0100
0000
0000
0010
0000
0010
1000
0000
0000
0001
0000
0000
,
0100
0000
0000
0001
0000
0001
1000
0000
0000
0000
0000
0000
,
0001
0000
0000
1000
0000
1000
0100
0000
0000
0010
0000
0000
,
0001
0000
0000
1000
0000
1000
0001
0000
0000
0100
0000
0000
,
0010
0000
0000
1000
0000
1000
0001
0000
0000
0010
0000
0000
,
0100
0000
0000
1000
0000
1000
0001
0000
0000
0001
0000
0000
,
0010
0100
1100
0000
,
1001
1000
0101
0000
,
0011
0001
1100
0000
,
1010
0100
1001
0000
,
0011
1000
0101
1000
,
0011
1000
0101
1000
,
0011
1000
0101
1000
,
0011
0000
0000
0000
;
#NOTES:
     dance-single:
     Renard:
     Beginner:
     2:
     0.279,0.339,0.000,0.076,0.000:
0000
0000
0000
0000
,
0000
0000
0000
0000
,
0000
0000
0000
0000
,
0000
0000
0000
0000
,
0000
0000
1000
0001
,
0000
0000
1000
0001
,
0000
0000
1000
0001
,
0020
0000
0000
0000
,
0031
0001
0001
0001
,
0001
0001
0001
0001
,
0001
0001
0001
0001
,
0001
0001
0001
0010
,
0100
0100
0100
0100
,
0100
0100
0100
0100
,
0100
0100
0100
0100
,
2000
0000
0000
0000
,
3020
0000
0000
0000
,
0000
0000
0000
0130
,
0200
0000
0000
0000
,
0000
0000
0000
0301
,
0002
0000
0000
0000
,
0000
0000
0000
1003
,
2000
0000
0000
0000
,
3100
0000
0000
0000
,
1000
1000
0100
1000
,
0001
0001
0010
0001
,
1000
1000
0010
1000
,
0001
0100
0002
0000
,
1003
1000
0100
1000
,
0001
0001
0010
0001
,
1000
1000
0010
1000
,
0001
0001
0200
0000
,
0301
0000
0000
0000
,
1000
0000
1000
0000
,
0001
0000
0001
0000
,
1000
0000
1000
0000
,
0001
0000
0001
0000
,
0010
0000
0010
0000
,
0100
0000
0100
0000
,
1000
0000
1000
0000
,
0001
0001
0001
0001
,
1000
1000
1000
1000
,
0001
0001
0001
0001
,
1000
1000
1000
1000
,
0001
0001
1000
1000
,
0001
0001
1000
1000
,
0001
1000
0001
1000
,
0001
0000
0000
0000
,
1000
0000
1000
0010
,
0100
0000
0100
0001
,
0010
0000
0010
0001
,
1000
0010
0100
0001
,
1000
0000
1000
0001
,
0010
0000
0010
0001
,
1000
0000
0010
1000
,
0001
0100
0010
0000
,
1000
0000
1000
0000
,
0001
0000
0001
0000
,
0010
0000
0010
0000
,
0100
0000
0100
0000
,
1000
1000
0000
1000
,
0001
0001
0000
0001
,
0010
0000
0000
0000
,
0000
0000
0000
0000
,
0100
1000
0000
1000
,
0000
0001
0000
0001
,
0000
0010
0000
0010
,
0000
0100
1000
0001
,
0010
0000
0010
0000
,
0001
0000
0001
0000
,
1000
0000
1000
0000
,
0010
0000
0010
0100
,
0001
0010
0000
0010
,
0000
0100
0000
0100
,
0000
1000
0000
1000
,
0000
0001
0000
0010
,
0001
1000
0000
0001
,
1000
0001
0000
0010
,
0001
1000
0010
0100
,
0001
0000
0000
0000
;
