#TITLE:Chaos Theory;
#SUBTITLE:;
#ARTIST:Gargaj;
#TITLETRANSLIT:;
#SUBTITLETRANSLIT:;
#ARTISTTRANSLIT:;
#CRChallenge:;
#BANNER:chaos.png;
#BACKGROUND:chaos-bg.png;
#LYRICSPATH:;
#CDTITLE:!cdtitle.png;
#MUSIC:chaos.ogg;
#OFFSET:0.040;
#SAMPLESTART:29.498;
#SAMPLELENGTH:12.000;
#SELECTABLE:YES;
#BPMS:0.000=195.000;
#STOPS:0.000=0.040
;
#BGCHANGES:;
#NOTES:
     dance-single:
     Renard:
     Challenge:
     14:
     0.790,1.000,0.596,0.085,0.671:
0000
0000
0000
0000
,
0000
0000
0000
0000
,
0000
0000
0000
0000
,
0000
0000
0000
0000
,
0000
0000
0000
0000
,
0000
0000
0000
0000
,
0000
0000
0000
0000
,
0000
0000
0000
0000
,
0002
0000
0000
0000
,
0000
0000
0000
0000
,
0000
0000
0000
0000
,
0000
0000
0000
0000
,
2003
0000
0000
0000
,
0000
0000
0000
0000
,
3200
0000
0000
0000
,
0000
0000
0000
0000
,
0320
0000
0000
0000
,
0000
0000
0000
0000
,
0000
0000
0000
0000
,
0000
0000
0000
0000
,
0032
0000
0000
0000
,
0000
0000
0000
0000
,
2003
0000
0000
0000
,
3002
0000
0000
0000
,
1003
0000
0100
0000
1100
0000
0010
0001
0010
0100
1000
0000
0011
0000
0100
0000
,
1000
0000
0001
0000
1001
0000
1000
0010
0100
0001
0010
0000
0011
0000
0100
0000
,
1000
0000
0001
0000
0101
0000
0010
1000
0010
0100
0001
0000
0101
0000
0010
0000
,
1000
0000
0100
0000
1100
0000
0010
0001
0010
0100
1000
0000
1100
0000
0010
0000
,
0001
0000
0100
0000
0101
0000
0010
1000
0100
0010
0001
0000
0011
0000
0010
0000
,
0100
0000
1000
0000
1100
0000
1000
0100
0010
0001
1000
0000
1001
0000
0001
0000
,
0100
0000
0010
0000
1010
0000
0010
0100
0001
0010
0100
0000
0110
0000
0100
0000
,
1000
0101
1010
0100
1001
0110
0000
1001
,
0001
0000
0010
0000
0011
0000
0100
1000
0100
0010
0001
0000
1100
0000
0010
0000
,
0001
0000
1000
0000
1001
0000
0001
0100
0010
1000
0100
0000
1100
0000
0010
0000
,
0001
0000
1000
0000
1010
0000
0100
0001
0100
0010
1000
0000
1010
0000
0100
0000
,
0001
0000
0010
0000
0011
0000
0100
1000
0100
0010
0001
0000
0011
0000
0100
0000
,
1000
0000
0010
0000
1010
0000
0100
0001
0010
0100
1000
0000
1100
0000
0100
0000
,
0010
0000
0001
0000
0011
0000
0001
0010
0100
1000
0001
0000
1001
0000
1000
0000
,
0010
0000
0100
0000
0101
0000
0100
0010
1000
0100
0010
0000
0110
0000
0010
0000
,
0001
0001
1000
1000
0010
0010
0100
0100
,
0002
0000
0000
0000
,
0000
0000
0000
0000
,
0000
0000
0000
0000
,
0000
0000
0000
0000
,
2003
0000
0000
0000
,
0000
0000
0000
0000
,
0000
0000
0000
0000
,
0000
0000
0000
0000
,
3001
0001
0001
0000
0001
0000
0010
0010
,
0010
0000
0010
0010
0000
0010
0010
0000
,
0100
0100
0100
0000
0100
0000
0100
1000
,
1000
0000
1000
1000
0000
1000
1000
0000
,
0010
0010
0010
0000
0010
0000
0010
0100
,
0001
0000
0001
0001
0000
0001
0001
0000
,
0100
0100
0010
0000
0010
0000
0000
0000
,
1000
0010
0100
0001
0100
0010
1000
0000
,
0001
0010
0100
1000
0100
0010
0001
1000
0100
0010
0001
0010
0100
1000
0001
1000
,
0001
0010
0100
1000
0100
0010
0001
1000
0001
1000
0001
0010
0100
1000
0001
1000
,
0001
0100
0010
1000
0001
1000
0010
0100
0001
0100
0010
1000
0001
1000
0010
1000
,
0001
0100
0010
1000
0010
1000
0001
0100
0010
1000
0001
1000
0001
0100
0010
1000
,
0001
0010
0100
1000
0001
1000
0100
0010
0001
1000
0001
0010
0100
1000
0001
1000
,
0001
0010
0100
1000
0001
1000
0001
1000
0100
0010
0001
1000
0001
1000
0001
0010
,
0100
1000
0100
1000
0001
1000
0010
1000
0010
1000
0001
1000
0010
1000
0001
0100
,
0001
0010
0001
0010
0100
0010
0001
0010
0001
0010
0100
1000
0001
0010
0100
0010
,
0001
0010
0100
0000
1100
0000
0001
0010
0100
1000
0100
0000
1100
0000
0010
0000
,
0001
0100
0001
0000
1010
0000
0001
0100
0010
1000
0010
0000
1010
0000
0010
0000
,
0100
0001
1000
0000
1001
0000
1000
0100
1000
0001
0010
0000
0011
0000
0001
0000
,
1000
0100
1000
0000
1100
0000
1000
0001
0010
0100
1000
0001
0100
0000
0101
0000
,
1000
0100
0010
0000
0011
0000
1000
0100
0010
0001
0010
0000
0011
0000
0100
0000
,
1000
0010
1000
0000
0101
0000
1000
0010
0100
0001
0100
0000
0101
0000
0100
0000
,
0010
1000
0001
0000
1001
0000
0001
0010
0001
1000
0100
0000
1100
0000
1000
0000
,
0001
0010
0001
0000
0011
0000
0001
1000
0100
0010
0001
1000
0010
0000
1010
0000
,
0100
0001
1000
0000
1010
0000
0100
0001
1000
0010
1000
0000
1010
0000
0001
0000
,
0100
1000
0100
0000
0011
0000
0100
1000
0001
0010
0001
0000
0011
0000
0001
0000
,
1000
0100
0010
0000
0110
0000
0010
1000
0010
0100
0001
0000
0101
0000
0100
0000
,
0010
1000
0010
0000
1010
0000
0010
0100
0001
1000
0010
0100
1000
0000
1100
0000
,
0010
1000
0001
0000
0101
0000
0010
1000
0001
0100
0001
0000
0101
0000
1000
0000
,
0010
0001
0010
0000
1100
0000
0010
0001
1000
0100
1000
0000
1100
0000
1000
0000
,
0001
0010
0100
0000
0110
0000
0100
0001
0100
0010
1000
0000
1010
0000
0010
0000
,
0100
0000
0000
0000
0001
0000
1000
0000
0000
0000
0100
0000
0010
0001
0010
0100
,
1000
0000
0000
0000
;
#NOTES:
     dance-single:
     Renard:
     Medium:
     9:
     0.455,0.718,0.359,0.085,0.009:
0000
0000
0000
0000
,
0000
0000
0000
0000
,
0000
0000
0000
0000
,
0000
0000
0000
0000
,
0000
0000
0000
0000
,
0000
0000
0000
0000
,
0000
0000
0000
0000
,
0000
0000
0000
0000
,
0002
0000
0000
0000
,
0000
0000
0000
0000
,
0000
0000
0000
0000
,
0000
0000
0000
0000
,
2003
0000
0000
0000
,
0000
0000
0000
0000
,
3200
0000
0000
0000
,
0000
0000
0000
0000
,
0320
0000
0000
0000
,
0000
0000
0000
0000
,
0000
0000
0000
0000
,
0000
0000
0000
0000
,
0002
0000
0000
0000
,
0000
0000
0000
0000
,
2000
0000
0000
0000
,
0200
0000
0000
3333
,
0001
0000
0011
0000
0100
1000
0010
0000
,
0100
0000
0110
0000
0010
1000
0100
0000
,
0010
0000
0011
0000
0010
0100
1000
0000
,
0001
0110
1000
0101
,
0100
0000
0110
0000
0010
1000
0100
0000
,
0010
0000
0011
0000
0010
0100
1000
0000
,
0001
0110
1000
0110
,
0010
1000
0100
0010
0001
0100
0010
1000
,
0100
0000
0011
0000
0010
0100
1000
0000
,
0010
0000
0110
0000
0010
1000
0100
0000
,
0010
0000
0011
0000
0001
0010
0100
0000
,
1000
0110
1000
0101
,
0100
0000
0110
0000
0010
1000
0100
0000
,
0010
0000
0011
0000
0010
0100
1000
0000
,
0001
0000
0110
0000
0010
1000
0000
0100
,
0010
0001
0010
0100
1000
0010
0100
0001
,
0020
0000
0000
0000
,
0000
0000
0000
0000
,
0000
0000
0000
0000
,
0000
0000
0000
0000
,
0230
0000
0000
0000
,
0000
0000
0000
0000
,
0000
0000
0000
0000
,
0000
0000
0000
0000
,
1300
0100
0010
0000
0001
0000
0010
0100
,
1000
0000
0001
0010
0000
0100
1000
0100
,
0010
0001
1000
0000
0001
0000
0010
0100
,
1000
0000
0001
0010
0000
0001
0010
0100
,
1000
0100
0010
0000
0001
0000
1000
0100
,
1000
0000
0001
0010
0000
0001
1000
0010
,
0100
0001
0100
0000
0010
0000
0000
0000
,
1000
0010
0100
0001
0100
0010
1000
0100
,
0010
0001
0010
0000
0100
0000
0000
1000
,
0100
0000
0010
0001
0000
1000
0100
0010
,
0001
0010
0100
0000
1000
0000
0000
0001
,
0010
0000
0100
1000
0000
0100
0010
0001
,
1000
0100
0010
0000
0100
0000
0000
1000
,
0001
0000
0010
0100
0000
1000
0001
0100
,
0010
1000
0010
0000
0100
0000
0000
0000
,
0001
0100
0010
1000
0010
0100
0001
0100
,
0010
1000
1100
0000
1000
0100
0010
0000
,
0001
0100
0101
0000
0100
0010
1000
0000
,
0100
0010
0110
0000
0010
0001
0100
0000
,
0010
1000
1010
0000
0100
0001
0101
0000
,
0100
0010
1010
0000
1000
0100
0010
0000
,
0001
0010
0011
0000
0010
0100
1000
0000
,
0001
0100
0110
0000
0010
1000
1010
0000
,
1000
0100
0010
0001
0100
0010
1000
0100
,
0010
0001
0011
0000
0010
0100
0110
0000
,
0100
1000
1100
0000
1000
0010
1010
0000
,
0010
0100
0110
0000
0100
0001
0101
0000
,
0001
0010
0100
1000
0001
0100
0010
1000
,
0100
0010
0110
0000
0010
0001
0011
0000
,
1000
0100
1100
0000
1000
0010
1010
0000
,
0010
0100
0101
0000
0101
0000
0100
0010
,
1000
0000
0100
0000
0010
0000
0001
0000
1000
0000
0001
0000
0010
0100
1000
0001
,
0010
0000
0000
0000
;
#NOTES:
     dance-single:
     Renard:
     Easy:
     6:
     0.340,0.643,0.227,0.113,0.000:
0000
0000
0000
0000
,
0000
0000
0000
0000
,
0000
0000
0000
0000
,
0000
0000
0000
0000
,
0000
0000
0000
0000
,
0000
0000
0000
0000
,
0000
0000
0000
0000
,
0000
0000
0000
0000
,
0002
0000
0000
0000
,
0000
0000
0000
0000
,
0000
0000
0000
0000
,
0000
0000
0000
0000
,
2003
0000
0000
0000
,
0000
0000
0000
0000
,
3020
0000
0000
0000
,
0000
0000
0000
0000
,
0200
0000
0000
0000
,
0000
0000
0000
0000
,
0000
0000
0000
0000
,
0000
0000
0000
0030
,
0002
0000
0000
0000
,
0000
0000
0000
0300
,
2000
0000
0000
0000
,
0020
0000
0000
0000
0000
3033
0000
0000
,
1000
1001
0001
1001
,
0100
0000
0110
0000
0010
0100
0010
0100
,
0010
0110
0100
0101
,
0001
0000
1001
0000
0001
1000
0001
1000
,
0001
1001
1000
1100
,
0001
0000
1001
0000
0001
0100
0001
0100
,
0001
1001
1000
1100
,
0001
0000
0011
0000
0001
1000
0001
1000
,
0001
1001
1000
1001
,
1000
0000
1010
0000
1000
0010
1000
0010
,
1000
1001
1000
1100
,
1000
0000
1001
0000
1000
0100
1000
0100
,
1000
1001
0001
0101
,
0001
0000
0011
0000
0001
0010
0001
0010
,
0001
1001
0001
0011
,
0001
0000
1001
0000
0001
0100
0001
0100
,
0020
0000
0000
0000
,
0000
0000
0000
0000
,
0000
0000
0000
0000
,
0000
0000
0000
0000
,
2030
0000
0000
0000
,
0000
0000
0000
0000
,
0000
0000
0000
0000
,
0000
0000
0000
0000
,
3001
0001
0001
0000
,
0100
0000
0000
0010
0000
0000
0100
0000
,
0010
0010
0010
0000
,
0100
0000
0000
0010
0000
0000
0100
0000
,
1000
1000
1000
0000
,
0100
0000
0000
0010
0000
0000
0100
0000
,
0010
0010
0010
0000
,
0100
0000
0010
0000
0100
0010
0100
0000
,
0002
0000
0000
0000
,
0000
0000
0000
0000
,
0000
0000
0000
0000
,
0000
0000
0000
0000
,
2003
0000
0000
0000
,
0000
0000
0000
0000
,
3020
0000
0000
0000
,
0000
0000
0000
0000
,
1030
0010
1000
0010
1000
0010
1000
0000
,
0010
0010
1000
1000
,
0001
0100
0001
0100
0001
0100
0001
0100
,
0001
0001
0100
0100
,
0001
0010
0001
0010
0001
0010
0001
0000
,
0010
0010
0001
0001
,
1000
0100
1000
0100
1000
0100
1000
0000
,
0100
0100
1000
1000
,
0001
1000
0001
1000
0001
1000
0001
1000
,
0001
0001
1000
1000
,
0010
0100
0010
0100
0010
0100
0010
0100
,
0010
0010
0100
0100
,
0001
1000
0001
1000
0001
0000
0001
0000
,
0100
0010
0100
0010
0100
0000
0100
0000
,
0001
0100
0001
0100
0001
0100
0001
0100
,
0010
1000
0001
0100
0010
1000
0001
0100
,
0010
0000
0000
0000
;
#NOTES:
     dance-single:
     Renard:
     Beginner:
     3:
     0.263,0.416,0.000,0.132,0.000:
0000
0000
0000
0000
,
0000
0000
0000
0000
,
0000
0000
0000
0000
,
0000
0000
0000
0000
,
0000
0000
0000
0000
,
0000
0000
0000
0000
,
0000
0000
0000
0000
,
0000
0000
0000
0000
,
2000
0000
0000
0000
,
0000
0000
0000
0000
,
0000
0000
0000
0000
,
0000
0000
0000
0000
,
3002
0000
0000
0000
,
0000
0000
0000
0000
,
0203
0000
0000
0000
,
0000
0000
0000
0000
,
0302
0000
0000
0000
,
0000
0000
0000
0000
,
0000
0000
0000
0000
,
0000
0000
0000
0000
,
2003
0000
0000
0000
,
0000
0000
0000
0000
,
3200
0000
0000
0000
,
0320
0000
0000
0000
,
0031
0010
0001
0010
,
0100
1000
0100
1000
,
0001
0100
0001
0100
,
0010
1000
0010
1000
,
0001
0010
0001
0010
,
0100
1000
0100
1000
,
0001
0100
0001
0100
,
0010
1000
0010
1000
,
0001
1000
0001
1000
,
0010
0100
0010
0100
,
0001
0100
0001
0100
,
0010
1000
0010
1000
,
0001
1000
0001
1000
,
0010
0100
0010
0100
,
0001
0100
0001
0100
,
0010
1000
0010
1000
,
0002
0000
0000
0000
,
0000
0000
0000
0000
,
0000
0000
0000
0000
,
0000
0000
0000
0000
,
2003
0000
0000
0000
,
0000
0000
0000
0000
,
0000
0000
0000
0000
,
0000
0000
0000
0000
0000
0000
0000
3000
,
0010
0010
0010
0000
,
1000
0000
0000
1000
0000
0000
0000
0000
,
0001
0001
0001
0000
,
0100
0000
0000
0100
0000
0000
0000
0000
,
0010
0010
0010
0000
,
1000
0000
0000
1000
0000
0000
0000
0000
,
0001
0001
0001
0000
,
0100
0000
0100
0000
,
0001
0001
0001
0000
,
1000
0000
0000
1000
0000
0000
0000
0000
,
0001
0001
0001
0000
,
1000
0000
0000
1000
0000
0000
1000
0000
,
0010
0010
0010
0000
,
0100
0000
0000
0100
0000
0000
0100
0000
,
0010
0100
0010
0100
,
0010
0000
0100
0000
,
0001
0100
0010
1000
,
0001
0100
0010
1000
,
0001
0100
0010
1000
,
0001
0200
0310
0100
,
0001
0100
0010
1000
,
0001
0100
0010
1000
,
0001
0100
0010
1000
,
0001
0200
0310
0100
,
0010
1000
0100
0010
,
0001
1000
0100
0010
,
0001
1000
0100
0010
,
0002
0013
0100
1000
,
0001
0010
0100
1000
,
0100
0010
0100
1000
,
0200
0310
0001
0020
,
0130
1000
0010
0001
,
0010
0000
0000
0000
;
