#TITLE:Chainsaw;
#SUBTITLE:;
#ARTIST:Fresh;
#TITLETRANSLIT:;
#SUBTITLETRANSLIT:;
#ARTISTTRANSLIT:;
#CRChallenge:;
#BANNER:chainsaw.png;
#BACKGROUND:chainsaw-bg.png;
#LYRICSPATH:;
#CDTITLE:;
#MUSIC:chainsaw.ogg;
#OFFSET:0.000;
#SAMPLESTART:10.888;
#SAMPLELENGTH:12.000;
#SELECTABLE:YES;
#BPMS:0.000=175.700,97.000=69.872,145.000=146.005,153.000=151.000,161.000=155.000,169.000=160.000,177.000=164.000,185.000=170.000,197.000=174.000,201.000=176.000,208.000=175.700;
#STOPS:96.000=2.390
,207.500=0.341
;
#BGCHANGES:;
#NOTES:
     dance-single:
     Renard:
     Challenge:
     10:
     0.643,1.000,0.508,0.026,0.872:
0000
0000
0000
0000
,
0000
0000
0000
0000
,
0000
0000
0000
0000
,
0000
0000
0000
0000
,
0000
0000
0000
0000
,
0000
0000
0000
0000
,
0000
0000
0000
0000
,
0000
0000
0000
0000
,
1100
0000
0000
0000
0011
0000
0000
1000
0000
0000
0101
0000
0000
0010
0000
0000
,
1001
0000
0000
0000
0110
0000
0000
0001
0000
0000
1010
0000
0000
0100
0000
0000
,
1001
0000
0000
0000
1010
0000
0000
0100
0000
0000
0011
0000
0000
0100
0000
0000
,
1001
0000
0000
0000
0011
0000
0000
0100
0000
0000
1010
0000
0000
0100
0000
0000
,
1001
0000
0000
0000
0100
0000
0000
1010
0000
0000
0100
0000
0000
0011
0000
0000
,
0100
0000
0000
0000
1010
0000
0000
0100
0000
0000
1001
0000
0000
0010
0000
0000
,
1000
0000
0000
1000
0010
0000
0000
0010
0100
0000
0000
0100
0001
0000
0000
0001
,
0100
0000
0000
0000
0001
1000
0000
0001
1000
0000
0001
1000
0000
0001
1000
0000
,
0002
0000
0000
0000
0000
0000
0000
0000
1000
0000
0000
0010
0000
0000
0100
0000
,
0000
0013
0000
0000
0001
0010
0000
0001
0000
0010
0001
0000
0010
0001
0010
0001
,
0010
0000
0000
0000
0101
0000
0000
0010
0000
0000
1100
0000
0000
0010
0000
0000
,
1001
0000
0000
0000
1100
0000
0000
0010
0000
0000
0101
0000
0000
0010
0000
0000
,
1001
0000
0000
0000
0010
0000
0000
0101
0000
0000
0010
0000
0000
1100
0000
0000
,
0010
0000
0000
0000
0101
0000
0000
0010
0000
0000
1001
0000
0000
0100
0000
0000
,
0001
0000
0000
0001
0100
0000
0000
0100
0010
0000
0000
0010
1000
0000
0000
1000
,
0010
0000
0000
0000
1000
0001
0000
1000
0001
0000
1000
0001
0000
1000
0001
0000
,
1000
0000
0000
0000
0000
0000
0000
0000
1000
0000
0000
0000
1000
0000
0001
0000
0000
0000
0100
0000
0000
0100
0000
0000
0010
0000
0000
0000
0010
0000
0000
1000
,
0000
0000
0001
0000
0000
0010
0000
0000
0001
0000
0000
0000
0001
0000
1000
0000
0000
0000
0010
0000
0000
0010
0000
0000
0100
0000
0000
0000
0100
0000
0000
0001
,
0000
0000
1000
0000
0000
0100
0000
0000
1000
0000
0000
0000
1000
0000
0001
0000
0000
0000
0100
0000
0000
0100
0000
0000
0010
0000
0000
0000
0010
0000
0000
1000
,
0000
0000
0001
0000
0000
0010
0000
0000
0001
0000
0000
0000
0001
0000
0000
0000
1000
0000
0000
0000
1000
0000
0000
0000
0010
0000
0000
0000
0010
0000
0000
0000
,
0100
0000
0000
0000
0001
0001
1000
1000
0001
0001
1000
1000
0010
0010
0100
0100
,
0010
0010
0100
0100
0001
0001
1000
1000
0001
0001
1000
1000
0010
0010
0100
0100
,
0010
0010
0100
0100
0001
0001
1000
1000
0001
0001
1000
1000
0010
0010
0100
0100
,
0010
0000
0010
0000
0100
0000
0100
0000
0001
0000
0001
0000
1000
0000
1000
0001
0100
0000
0001
0000
1000
0000
1000
0001
0010
0000
0010
0001
0100
0000
0100
0010
,
1000
0000
0010
0000
0100
0000
0100
0000
0001
0100
0001
0100
0010
1000
0010
1000
0001
0100
0001
0100
0010
1000
0010
1000
0100
1000
0100
1000
0001
0010
0001
0010
,
0100
1000
0100
1000
0001
0010
0001
0010
0001
0100
0001
0100
0010
1000
0010
1000
0001
0100
0001
0100
0010
1000
0010
1000
0100
1000
0100
1000
0001
0010
0001
0010
,
0100
1000
0100
1000
0001
0010
0001
0010
0001
0000
0001
0000
0001
0000
0010
0100
1000
0000
1000
0000
1000
0000
0100
1000
0010
0000
0010
0000
0010
0000
0100
0001
,
0010
0000
0010
0001
0010
0000
0100
1000
0001
0000
0001
0000
0001
0000
0100
0010
1000
0000
1000
0000
1000
0000
0010
0100
0001
0000
0001
0010
0100
0000
0100
1000
,
0010
0000
0010
0100
0001
0000
0001
0000
1000
0000
0000
0000
0000
0000
0000
0000
0001
0000
0000
0000
0000
0000
0001
0000
0100
0000
0000
0000
0100
0000
0000
0000
,
0010
0000
0000
0000
1000
0000
0000
0000
0010
0000
0000
0010
0100
0000
0001
0000
,
0010
0000
0000
0000
0100
0000
0000
0000
0010
0000
0000
0010
0001
0000
1000
0000
,
0010
0000
0000
0000
0100
0000
0000
0000
0001
0000
0000
0001
1000
0000
0010
0000
,
0100
0000
0001
0000
0010
0000
0000
0000
0001
0000
0000
0001
0010
0000
0100
0000
,
1000
0000
0001
0000
0100
0000
0000
0000
0010
0000
0000
0010
1000
0000
0010
0000
,
0100
0000
0001
0000
0010
0000
0000
0000
0001
0000
0000
0001
0010
0000
0100
0000
,
1000
0000
0001
0000
0100
0000
0000
0000
0010
0000
0000
0010
1000
0000
0010
0000
,
0100
0001
1000
0000
1000
0000
0001
0001
,
0001
0001
0100
0000
0100
0000
0010
0010
,
0010
0010
1000
0000
1000
0000
0100
0100
,
0100
0100
0010
0000
0010
0000
0001
0001
,
0001
0001
1000
0000
0010
0010
0100
0000
,
0001
0001
1000
0000
0100
0100
0010
0010
,
0001
0001
1000
0000
0010
0000
0100
0000
,
0001
0000
2002
0000
0000
0000
0000
3003
,
1001
0000
0000
0000
0110
0000
0000
1001
0000
0000
1010
0000
0000
1001
0000
0000
,
0101
0000
0000
0000
0011
0000
0000
0110
0000
0000
1100
0000
0000
1001
0000
0000
,
0110
0000
0000
0000
1010
0000
0000
1001
0000
0000
1010
0000
0000
1100
0000
0000
,
0110
0000
0000
0000
0011
0000
0000
0110
0000
0000
1100
0000
0000
1001
0000
0000
,
0101
0000
0000
0000
0110
0000
0000
1010
0000
0000
1001
0000
0000
1100
0000
0000
,
0110
0000
0000
0000
0011
0000
0000
0110
0000
0000
1100
0000
0000
1001
0000
0000
,
1000
0000
0000
1000
0001
0000
0000
0001
0100
0000
0000
0100
0010
0000
0000
0010
,
1000
0000
0001
0000
0100
0010
0000
1000
0001
0000
0100
0010
0000
1000
0001
0000
;
