#TITLE:Cenotaph;
#SUBTITLE:;
#ARTIST:Sonitus Vir;
#TITLETRANSLIT:;
#SUBTITLETRANSLIT:;
#ARTISTTRANSLIT:;
#CRChallenge:;
#BANNER:;
#BACKGROUND:;
#LYRICSPATH:;
#CDTITLE:!cdtitle.png;
#MUSIC:ceno.ogg;
#OFFSET:0.000;
#SAMPLESTART:13.933;
#SAMPLELENGTH:12.000;
#SELECTABLE:YES;
#DISPLAYBPM:172.000;
#BPMS:0.000=172.000,32.000=86.000,36.000=172.000;
#STOPS:;
#BGCHANGES:;
#NOTES:
     dance-single:
     Renard:
     Hard:
     12:
     0.868,0.908,0.413,0.130,0.826:
0000
0000
0000
0000
,
0000
0000
0000
0000
,
0000
0000
0000
0000
,
0000
0000
0000
0000
,
0000
0000
0000
0000
,
0000
0000
0000
0000
,
0000
0000
0000
0000
,
0000
0000
0000
0000
,
2002
0000
0000
0000
0000
0000
0000
3003
,
1000
0100
1000
0000
0001
0100
0001
0000
1000
0010
1000
0000
0001
0010
0001
0000
,
1000
0100
1000
0000
0001
0100
0001
0000
1000
0010
1000
0000
0001
0010
0001
0000
,
1000
0010
1000
0000
0001
0100
0001
0000
1000
0100
1000
0000
0001
0010
0001
0000
,
1000
0010
1000
0000
0001
0100
0001
0000
1000
0100
1000
0000
0001
0010
0001
0000
,
1000
0100
1000
0000
0001
0010
0001
0000
1000
0010
1000
0000
0001
0100
0001
0000
,
1000
0100
1000
0000
0001
0010
0001
0000
1000
0010
1000
0000
0001
0100
0001
0000
,
1000
0100
1000
0000
0010
1000
0010
0000
0100
0001
0100
0000
0001
0010
0001
0000
,
1000
0100
1000
0000
0010
1000
0010
0000
0100
0001
0100
0000
0001
0010
0001
0000
,
1000
0100
1000
0000
0001
0010
0001
0000
1000
0100
1000
0000
0001
0010
0100
1000
,
0001
0010
0001
0000
1000
0100
1000
0000
0001
0010
0001
0000
1000
0100
0010
0001
,
1000
0010
1000
0000
0001
0100
0001
0000
1000
0010
1000
0000
0001
0100
0010
1000
,
0001
0100
0001
0000
1000
0010
1000
0000
0001
0100
0001
0000
1000
0100
0010
0001
,
1000
0100
1000
0000
0100
1000
0100
0000
0010
0001
0010
0000
0001
0010
0001
0010
,
0001
0000
0010
0000
0001
1000
0001
0000
1000
0100
1000
0000
0100
1000
0100
0000
,
0001
0000
0010
0000
0000
0000
0011
0000
0000
0000
0100
1000
0100
0000
1100
0000
,
0000
0000
1000
0010
1000
0000
0010
0000
0100
0000
0000
0000
0011
0000
0000
0000
,
1000
0000
0100
0000
0000
0000
1100
0000
0000
0000
0010
0001
0010
0000
0011
0000
,
0000
0000
0001
0100
0001
0000
0100
0000
0010
0000
0000
0000
1100
0000
0000
0000
,
0100
0000
0001
0000
0000
0000
0101
0000
0000
0000
1000
0010
1000
0000
1010
0000
,
0000
0000
0010
0001
0010
0000
0001
0000
1000
0000
0000
0000
0101
0000
0000
0000
,
0010
0000
1000
0000
0000
0000
1010
0000
0000
0000
0001
0100
0001
0000
0100
0000
,
0001
0100
0010
1000
0001
0100
0010
1000
0001
0100
0010
1000
0001
0100
0010
1000
,
0001
0000
0000
0000
0011
0000
0000
0000
0100
0000
0000
1000
0000
0000
0001
0000
,
0020
0000
0000
0000
0030
0001
0010
0100
2000
0000
0000
0000
0200
0000
3300
0000
,
1100
0000
0000
0000
1100
0000
0000
0000
0011
0000
0000
0101
0000
0000
1010
0000
,
2002
0000
0000
3003
0220
0000
0000
0330
,
0110
0000
0110
0000
0110
0000
1010
0000
1010
0000
1010
0000
,
0101
0000
0101
0000
0101
0000
0011
0000
0011
0000
0011
0000
,
1100
0000
0011
0000
0101
0000
1010
0000
1100
0000
0011
0000
,
2002
0000
0000
0000
,
0020
0000
0000
3033
,
1000
0100
0010
0001
0010
0100
1000
0100
,
0010
0001
0010
0100
1000
0001
1000
0001
,
0100
0010
1000
0001
0100
0010
1000
0010
,
0100
0001
0100
0010
1000
0001
1000
0001
,
1000
0010
0100
0001
0100
0010
1000
0010
,
0100
0001
0100
0010
1000
0100
1000
0100
,
0010
0001
0010
0100
1000
0100
1000
0010
,
1000
0001
0100
0010
1000
0100
0010
0000
,
0001
0010
0001
0000
1000
0010
1000
0000
0001
0100
0001
0000
1000
0100
1000
0000
,
0001
0010
0001
0000
1000
0010
1000
0000
0001
0100
0001
0000
1000
0100
1000
0000
,
0001
0100
0001
0000
1000
0010
1000
0000
0001
0010
0001
0000
1000
0100
1000
0000
,
0001
0100
0001
0000
1000
0010
1000
0000
0001
0010
0001
0000
1000
0100
1000
0000
,
0001
0010
0001
0000
1000
0100
1000
0000
0001
0100
0001
0000
1000
0010
1000
0000
,
0001
0010
0001
0000
1000
0100
1000
0000
0001
0100
0001
0000
1000
0010
1000
0000
,
0001
0010
0001
0000
0100
0001
0100
0000
0010
1000
0010
0000
1000
0100
1000
0000
,
0001
0010
0001
0000
0100
0001
0100
0000
0010
1000
0010
0000
1000
0100
1000
0000
,
0001
0010
0001
0000
1000
0100
1000
0000
0001
0010
0001
0000
1000
0100
0010
0001
,
1000
0100
1000
0000
0001
0010
0001
0000
1000
0100
1000
0000
0001
0010
0100
1000
,
0001
0100
0001
0000
1000
0010
1000
0000
0001
0100
0001
0000
1000
0010
0100
0001
,
1000
0010
1000
0000
0001
0100
0001
0000
1000
0010
1000
0000
0001
0010
0100
1000
,
0001
0010
0001
0000
0010
0001
0010
0000
0100
1000
0100
0000
1000
0100
1000
0100
,
1000
0000
0100
0000
1000
0001
1000
0000
0001
0010
0001
0000
0010
0001
0010
0001
;
#NOTES:
     dance-single:
     Renard:
     Medium:
     9:
     0.630,0.571,0.272,0.033,0.065:
0000
0000
0000
0000
,
0000
0000
0000
0000
,
0000
0000
0000
0000
,
0000
0000
0000
0000
,
0001
0010
0001
1000
0010
1000
0001
0010
,
0001
1000
0010
1000
0001
0100
0010
1000
,
0100
1000
0100
1000
0001
1000
0001
0100
,
0001
1000
0100
0010
0001
1000
0010
0100
,
0002
0000
0000
0000
,
1003
0000
1100
0000
1000
0010
0100
0001
,
0010
0000
0011
0000
0001
0100
0010
1000
,
0100
0000
1100
0000
1000
0010
0100
0001
,
0010
0000
0011
0000
0001
0100
0010
1000
,
0100
0000
1010
0000
1000
0010
0100
0001
,
0010
0000
0101
0000
0001
0100
0010
1000
,
0100
0000
1010
0000
1000
0010
0100
0001
,
0010
0000
0101
0000
0001
0100
0010
1000
,
0100
0000
1010
0000
1000
0010
0100
0001
,
0010
0000
0101
0000
0001
0100
0010
1000
,
0100
0000
1100
0000
1000
0010
0100
0001
,
0010
0000
0011
0000
0001
0100
0010
1000
,
0100
0010
0001
0010
0100
1000
0010
0100
,
0001
0010
0100
1000
0001
0100
0010
1000
,
0100
0100
0010
0010
0001
0001
1000
1000
,
0000
0001
0100
0010
1000
0000
1010
0000
,
1000
1000
0100
0100
0010
0010
0001
0001
,
0000
1000
0010
0100
0010
0000
0110
0000
,
0010
0100
0100
0001
0001
0010
0010
0100
,
0000
1000
0100
0010
0001
0000
1000
0000
,
0010
0100
0100
0001
0001
1000
1000
0100
,
0010
0001
0010
0001
1000
0100
1000
0001
,
1000
0000
0010
0000
0100
0001
1000
0100
,
0010
0000
0001
0010
0100
0000
1000
0000
,
1100
0000
1001
0000
1000
0010
0100
0001
,
1000
0000
1001
0000
1000
0001
0100
0000
,
0010
0000
1000
0000
0010
0000
0001
0000
0010
0000
1000
0000
,
0100
0000
0001
0000
0100
0000
1000
0000
0010
0000
0001
0000
,
0010
0000
1000
0000
0100
0000
0010
0000
0001
0000
0010
0000
,
0200
0000
0000
0000
,
2000
0000
0000
3300
,
1000
0100
1000
0001
1000
0001
0100
0001
,
0100
0001
1000
0100
0010
0001
0010
0100
,
1000
0010
1000
0001
0010
0001
1000
0010
,
1000
0010
0100
0001
0010
0100
1000
0001
,
1000
0100
1000
0001
1000
0001
0100
0001
,
1000
0100
0010
0001
0010
0100
1000
0001
,
1000
0010
1000
0001
0010
0001
1000
0010
,
1000
0001
0100
0010
1000
0100
0010
0001
,
0010
0000
0011
0000
0010
0100
1000
0001
,
0100
0000
0101
0000
0100
0001
0010
0100
,
1000
0000
0011
0000
0010
0001
0100
0010
,
1000
0000
0101
0000
0001
0100
0010
1000
,
0100
0000
1100
0000
1000
0010
0100
0001
,
0010
0000
1010
0000
1000
0010
0100
0001
,
0010
0000
1100
0000
1000
0010
0100
0001
,
0010
0000
1010
0000
1000
0010
0100
0001
,
0010
0001
0010
0001
0100
0001
0100
0001
,
1000
0010
1000
0010
1000
0100
1000
0100
,
0010
0001
0010
0001
1000
0100
1000
0100
,
1000
0010
1000
0010
0100
0001
0100
0001
,
1000
0100
0010
0001
0010
0100
1000
0010
,
0100
0001
1000
0100
0010
0001
0100
0010
;
#NOTES:
     dance-single:
     Renard:
     Easy:
     6:
     0.376,0.471,0.043,0.185,0.000:
0000
0000
0000
0000
,
0000
0000
0000
0000
,
0000
0000
0000
0000
,
0000
0000
0000
0000
,
1000
0000
0000
0100
0000
0000
0010
0000
,
0000
0001
0000
0000
1000
0000
1000
0000
,
0001
0000
0000
0010
0000
0000
0100
0000
,
1000
0001
1000
0001
,
0200
0000
0000
0000
,
0310
0000
0010
0000
0010
0000
0010
1000
,
0100
0000
0100
0000
0100
0000
0100
1000
,
0010
0000
0010
0000
0010
0000
0010
0100
,
0001
0000
0001
0000
0001
0000
0001
0010
,
0100
0000
0100
0000
0100
0000
0100
0010
,
0001
0000
0001
0000
0001
0000
0001
1000
,
0010
0000
0010
0000
0010
0000
0010
0100
,
0001
0000
0001
0000
0001
0000
0001
1000
,
0100
0000
0100
0000
0100
0000
0100
0010
,
0001
0000
0001
0000
0001
0000
0001
1000
,
0010
0000
0010
0000
0010
0000
0010
0100
,
0001
0000
0001
0000
0001
0000
0001
1000
,
0100
0000
0100
0010
0001
0000
0001
1000
,
0010
0100
0001
1000
,
0001
0000
0001
0000
0001
0100
0010
1000
,
0000
0010
0010
0000
,
1000
0000
1000
0000
0010
1000
0001
0100
,
0000
0001
0001
0000
,
1000
0000
1000
0000
0100
0010
0001
1000
,
0000
0100
1000
0001
,
0010
0000
0010
0000
0001
0010
0100
1000
,
0100
0100
1000
0000
,
0001
0001
1000
0010
,
0200
0000
0001
0010
,
0320
0000
1000
0000
,
0200
0030
0002
0303
,
0101
0000
0110
0000
,
1010
0000
1100
0000
,
0100
1000
0001
0010
0100
1000
0100
0010
,
0002
0000
0000
0000
,
2000
0000
0000
3003
,
0001
0000
0000
0001
0000
0000
0001
0000
,
0000
0001
1000
0100
0010
0001
1000
0000
,
0001
0000
0000
0001
0000
0000
0001
0000
,
0000
0001
0000
1000
0100
0010
0001
0000
,
1000
0000
0000
1000
0000
0000
1000
0000
,
0000
1000
0001
0010
0100
1000
0001
0000
,
1000
0000
0000
1000
0000
0000
1000
0000
,
0001
0010
0100
1000
0100
0010
0001
1000
,
0002
0000
0100
0010
,
2000
0003
0200
3000
,
0020
0000
0000
0300
,
0002
0000
0000
0030
,
2000
0000
0000
0003
,
0020
0000
0000
3000
,
0200
0000
0000
0030
,
0002
0000
0000
0300
,
1000
1000
0100
0100
,
0010
0000
0010
0000
1000
0000
2000
0003
,
0100
0100
0010
0010
,
0001
0000
0001
0000
0100
0000
0100
3000
,
0100
1000
0100
0000
1000
0100
1000
0000
,
0100
1000
0100
0010
0001
1000
0010
0100
;
#NOTES:
     dance-single:
     Renard:
     Beginner:
     3:
     0.245,0.302,0.000,0.098,0.000:
0000
0000
0000
0000
,
0000
0000
0000
0000
,
0000
0000
0000
0000
,
0000
0000
0000
0000
,
0000
0000
0000
0000
,
0000
0000
0000
0000
,
0000
0000
0000
0000
,
0000
0000
0000
0000
,
0020
0000
0000
0000
,
0030
0100
0100
0100
,
0001
0010
0010
0010
,
0001
0100
0100
0100
,
0010
1000
1000
1000
,
0010
0010
0010
0010
,
0100
1000
1000
1000
,
0001
0100
0100
0100
,
0010
1000
1000
1000
,
0001
0010
0010
0010
,
0100
1000
1000
1000
,
0001
0100
0100
0100
,
0010
1000
1000
1000
,
0001
0010
0100
1000
,
0001
0010
1000
0001
,
1000
1000
1000
0010
,
0001
0100
0100
0000
,
0001
0001
0100
0001
,
0010
1000
1000
0000
,
0001
0001
0010
0100
,
0001
0010
0001
1000
,
0100
0100
1000
0010
,
0001
0010
0001
0000
,
1000
1000
0001
0100
,
0020
0000
0000
0000
,
0030
0000
0001
0000
,
0020
0000
0000
0030
,
0010
0000
0010
0000
,
0001
0000
0001
0000
,
0010
0001
0010
0001
,
0100
0000
0000
0000
,
0002
0000
0000
0003
,
1000
0000
1000
1000
,
0000
0001
0010
0001
,
1000
0000
1000
1000
,
0000
1000
0001
0100
,
0001
0000
0001
0001
,
0000
0001
0010
0001
,
0001
0000
0001
0001
,
1000
0010
0001
0100
,
0001
0000
0010
0100
,
0002
0000
0000
0003
,
0200
0000
0000
0000
,
0000
0000
0000
0300
,
0002
0000
0000
0000
,
0000
0000
0000
0003
,
0020
0000
0000
0000
,
0000
0000
0000
0030
,
0001
0001
0010
0010
,
0100
0100
0001
0002
,
0000
0000
0000
0000
,
0000
0000
0000
0000
,
0003
0001
0001
0001
,
0010
0001
0100
0001
;
