#TITLE:Catstep (Vatstep DSP Remix);
#SUBTITLE:;
#ARTIST:Kid 606 remixed by Hrvatski;
#TITLETRANSLIT:;
#SUBTITLETRANSLIT:;
#ARTISTTRANSLIT:;
#CRChallenge:;
#BANNER:vatstep.jpg;
#BACKGROUND:vatstep-bg.jpg;
#LYRICSPATH:;
#CDTITLE:!cdtitle.png;
#MUSIC:vatstep.ogg;
#OFFSET:0.000;
#SAMPLESTART:20.650;
#SAMPLELENGTH:12.000;
#SELECTABLE:YES;
#BPMS:0.000=180.000,192.000=90.000,224.000=180.000;
#STOPS:;
#BGCHANGES:;
#NOTES:
     dance-single:
     Renard:
     Medium:
     9:
     0.641,0.814,0.208,0.018,0.113:
0000
0000
0000
0000
,
0000
0000
0000
0000
,
0000
0000
0000
0000
,
0000
0000
0000
0000
,
1000
0100
1000
0010
1000
0001
1000
0100
,
1000
0010
1000
0001
1000
0000
0001
0000
,
1000
0001
0100
0001
0010
0001
1000
0001
,
0100
0001
0010
0100
1000
0001
0100
0000
,
0001
0100
0010
1000
0100
1000
0001
0000
,
0100
0001
0010
0000
0110
0000
1001
0000
,
1000
0010
0100
0001
1000
1000
0001
0100
,
0010
0000
0000
1000
0000
1000
0000
1000
0000
1000
0000
0000
,
0001
0100
0010
1000
0010
1000
0001
0000
,
1000
0000
0000
0100
0000
0100
0000
0100
0000
0100
0000
0000
,
0010
0000
0001
1000
0010
0100
0001
0100
,
0010
0010
0010
0010
0010
0010
0010
0010
,
1000
0000
0000
0100
1000
0001
0010
0000
,
0001
1000
0010
1000
0100
0000
1000
0001
,
0100
0000
0100
0000
0010
1000
0001
0000
,
1000
0100
0000
1000
0001
0000
1000
0001
,
0100
0000
0001
0000
0010
0000
0001
1000
,
0001
1000
0100
1000
0001
0000
1000
0001
,
0100
0000
0100
0000
0001
0000
0010
0001
,
1000
0010
1000
0001
1000
0100
1000
0100
,
1000
0000
1000
0001
0100
0000
0010
1000
,
0100
1000
0001
1000
0001
0000
0100
0001
,
0010
0000
0001
0000
1000
0010
1000
0001
,
0100
0010
1000
0100
0010
0001
0001
0001
,
0010
0100
1000
0001
0010
0100
0010
0001
,
1000
0100
0010
0100
1000
0000
1000
0001
,
0100
0000
0100
0000
0010
1000
0010
0100
,
0001
0100
0100
0100
0100
0010
1000
0100
,
0010
0000
0010
0001
0000
0001
0010
0100
,
1000
0001
0100
0000
0110
0000
0010
1000
,
0100
1000
0001
0100
0010
1000
0001
1000
,
0100
0010
0001
1000
0001
0000
0101
0000
,
0100
0010
1000
0100
1000
0001
0100
0010
,
1000
0100
0010
0000
0011
0000
0110
0000
,
0100
1000
0010
0100
0001
0100
0010
1000
,
0001
0001
0000
0001
0010
0000
0100
1000
,
0001
0000
0001
0100
0000
0100
0010
0000
,
1000
0100
0000
0010
0001
0000
0011
0000
,
0010
0100
1000
0001
0010
0100
0010
0001
,
1000
0100
0010
0100
1000
0000
0001
0100
,
0010
0000
1000
0010
0000
0100
0001
0000
,
0100
0010
1000
0100
0010
0000
0011
0000
,
0010
0100
1000
0001
0010
0100
0010
0001
,
1000
0100
0010
0000
0100
0000
1001
0000
,
1000
0000
1000
0001
0000
0001
0100
0000
0010
0000
1010
0000
0101
0000
0000
0000
,
0001
0000
0010
0100
0000
1000
0100
0000
1000
0000
0001
0000
0110
0000
0000
0000
,
0010
0000
1000
0010
0000
0100
0001
0000
0100
0000
0010
0000
1000
0000
0100
0000
,
0011
0000
0010
0100
0000
0100
1000
0000
0010
0100
0001
0000
0100
0000
0010
0000
,
1000
0000
1000
0001
0000
0001
0100
0000
0010
0000
1010
0000
0101
0000
0000
0000
,
0001
0000
0010
0100
0000
1000
0100
0000
1000
0000
1000
0000
0001
0000
0001
0000
,
0010
0010
0100
0100
0010
0010
0001
0001
,
1000
0001
1000
0001
1000
0001
1000
0001
0100
0010
0100
0010
0100
0010
0100
0010
,
1000
0010
0100
0001
0010
0100
1000
0100
,
0010
0001
1000
0000
1010
0000
1000
0010
,
0100
0010
1000
0100
0010
0001
0010
0100
,
1000
0001
0100
0010
1000
0000
1000
0001
,
0010
0100
1000
0001
0100
0010
1000
0100
,
0010
0001
1000
0001
0100
0000
0101
0000
,
1001
0000
1000
0100
0010
0001
1000
0010
,
0100
0001
0000
0001
0010
0000
0011
0000
,
0110
0000
0100
1000
0000
1000
0010
0000
,
0010
0100
0000
0100
0001
0000
0011
0000
,
0010
0100
1000
0100
0010
0001
0010
0100
,
1000
0001
0100
0010
1000
0001
0010
0001
,
0010
0100
1000
0001
0100
0000
0100
0010
,
1000
0100
1000
0001
0100
0000
0100
0001
,
1000
0100
1000
0001
0010
0001
1000
0010
,
0100
0001
0010
0000
0110
0000
2002
0000
,
3003
0000
0000
0000
;
#NOTES:
     dance-double:
     freestyle:
     Beginner:
     1:
     0.367,0.713,0.434,0.063,0.009:
10000000
00000000
00010000
00000000
,
10000000
00001000
00010000
00000000
,
00001000
00000000
00010000
00000000
,
00000001
00001000
00000001
00000000
,
00000010
00000000
00100000
00000000
,
00000010
00000000
00100000
00000000
,
00000100
00000000
01000000
00000000
,
00000100
01000000
00000100
00000000
,
10000000
00010000
00001000
00000001
,
00011000
00000000
00000010
00000000
,
01000000
00000000
00000100
00000000
,
00100000
00000000
00000000
00010000
00000000
10000000
00000000
00001000
00000000
00010000
00000000
00000000
,
00001000
00010000
00001000
00100000
,
00000000
00001000
00010000
00000100
,
00000020
00000000
00000000
00000000
,
00000000
00000000
00000000
00000030
,
10000000
00000000
00000010
00000000
,
01000000
00000000
00000001
00000000
,
10000000
00000000
00000100
00000000
,
00100000
00000000
00000001
00000000
,
10000000
00001000
00010000
00000000
,
00000001
00010000
00001000
00000000
,
10000000
00100000
01000000
00001000
,
00010000
00000010
00000100
00000001
,
00011000
00000001
00011000
10000000
,
00010000
10000000
00010000
00000000
,
00011000
10000000
00011000
00000001
,
00001000
00000001
00000020
00000000
,
00000130
00010000
00000100
01000000
00010000
01000000
00001000
00000000
,
00010000
00010000
00100000
10000000
,
01000000
00010000
00001000
00000010
,
00000001
00000000
00000000
00000000
,
00011000
00100000
00011000
00000010
,
00011000
01000000
00011000
00000000
,
01100000
00010000
01100000
00001000
,
01100000
00000100
01000100
00000000
,
00011000
00000100
00011000
01000000
,
00011000
00000010
00011000
00000000
,
00000110
00001000
00000110
00010000
,
00000110
00100000
00100010
00000000
,
00000001
00001000
00010000
10000000
,
00010000
00000000
00100000
00000000
,
10000000
00010000
00001000
00000001
,
00001000
00000000
00000010
00000000
,
00021000
00000000
00031000
00100000
,
00001000
00000010
00001000
00010000
,
00001000
00000000
00010000
00000000
,
00001000
00000000
00010000
00011000
,
10100000
01000000
00110000
01000000
10100000
00000000
10010000
00000000
,
00000011
00000100
00001010
00000100
00000011
00000000
00001001
00000000
,
10010000
00100000
11000000
00100000
10010000
00000000
10100000
00000000
,
00000101
00000010
00001001
00000010
00000101
00000000
00001001
00000000
,
00001000
00100000
00001000
01000000
,
00010000
00000010
00010000
00000100
,
20000000
00000000
30020000
00000000
,
00032000
00000000
00000002
00003003
,
00000001
00011000
10000000
00011000
,
00100000
01000000
10010000
00000000
,
00000001
00011000
10000000
00011000
,
00000010
00000100
00001001
00000000
,
00001100
00100000
00001100
00010000
,
00001000
00010000
00100000
01000000
,
00001000
00010000
00000100
00100000
,
00000010
00000100
00000100
00000000
,
00000001
00000000
00010000
00000000
,
00001000
00000000
10000000
00000000
,
00100000
00000000
00100000
00000000
,
01000000
00001000
00010000
00000000
,
00000010
00000000
00001000
00000000
,
00000010
00000001
00000010
00000000
,
00001000
00000000
00000100
00010000
,
00001000
00000000
00010000
00100010
;
#NOTES:
     dance-single:
     Renard:
     Easy:
     7:
     0.438,0.551,0.127,0.000,0.009:
0000
0000
0000
0000
,
0000
0000
0000
0000
,
0000
0000
0000
0000
,
0000
0000
0000
0000
,
1000
0000
0000
0000
0100
0000
0000
1000
,
0000
0001
0100
0101
,
0001
1000
0100
1000
,
0000
0001
0100
0001
,
1000
0001
1000
0010
,
1000
0010
0000
0010
,
0100
0001
1000
0100
,
1000
0001
0000
0000
,
0001
1000
0100
1000
,
0001
0000
0000
0100
0000
0001
0000
0100
0000
0001
0000
0000
,
0000
1000
0100
1000
,
0100
0000
1000
0000
0100
0000
1000
0001
,
1000
0000
0000
0001
0100
0000
0001
0000
,
1000
0000
0100
1000
0100
0000
0000
0000
,
1000
0000
0001
0000
0100
0001
0000
0000
,
1000
0100
0000
1000
0001
0000
1000
0000
,
0001
0001
0100
0010
,
1000
0000
0010
1000
0010
0000
1000
0000
,
0001
0001
0100
0001
,
1000
0100
1000
0000
0001
0000
1000
0000
,
0001
0000
0010
0001
0010
0000
0001
0000
,
1000
0000
0001
1000
0001
0000
1000
0000
,
0001
0100
0001
1000
,
0001
0000
1000
0000
0100
0010
0001
0010
,
0001
0010
0001
0010
,
0100
1000
0100
1000
,
0001
0001
1000
1000
,
0001
0000
1000
0001
1000
0000
0001
1000
,
0001
0000
0001
0000
1000
0001
1000
0000
,
0100
0010
0001
0000
1000
0000
0001
0000
,
0010
0100
1000
0001
,
1000
0100
0010
0001
1000
0000
0001
0000
,
0010
0001
0010
0001
0010
0000
0001
0000
,
1000
0000
0100
1000
0100
0000
1000
0000
,
0001
1000
0001
0100
,
0001
1000
0001
1000
0001
0000
1000
0000
,
0100
0000
0100
1000
0000
1000
0100
0000
,
0100
1000
0000
1000
0100
0000
1100
0000
,
1000
0000
0100
0000
0010
0001
0010
0000
,
0001
1000
0001
0000
1000
0000
0001
0100
,
0001
1000
0001
1000
,
0100
1000
0010
0000
1000
0000
0001
0000
,
1000
0000
0100
0000
1000
0000
0001
0100
,
0001
0100
0001
0000
0100
0000
0101
0000
,
0100
0000
0101
0000
0001
1000
1001
0000
,
1000
0000
1100
0000
1000
0001
1001
0000
,
0001
0000
0101
0000
0001
0100
0101
0000
,
0001
0000
1001
0000
1000
0100
1100
0000
,
1000
0100
1000
0100
1000
0000
1000
0000
,
0001
0010
0001
0010
0001
0010
0001
0010
,
0001
0001
0001
0001
0001
0001
0001
0001
,
0001
0001
0001
0001
0001
0001
0001
0001
,
1000
0000
1000
0100
0000
0100
1000
0000
,
0100
1000
1100
1000
,
0001
0000
0001
0100
0000
0100
0001
0000
,
0100
0001
0100
0101
,
0001
0010
0001
0010
,
0001
1000
0001
0000
1000
0000
0001
0000
,
1000
0000
0010
1000
0010
0000
1000
0000
,
0100
1000
0100
0000
1000
0000
0001
0000
,
1000
0000
1000
0001
0000
0001
1000
0000
,
1000
0001
0000
0001
1000
0000
0001
0000
,
0100
0000
0001
0000
1000
0100
1000
0000
,
0001
0100
0001
0000
1000
0000
0001
0000
,
0010
0000
0001
0010
0001
0000
1000
0000
,
0010
1000
0010
0000
1000
0000
0001
0000
,
0100
0001
0100
0001
0100
0000
0001
0000
,
1000
0100
1000
0000
0100
0000
1001
0000
;
#NOTES:
     dance-single:
     Renard:
     Beginner:
     3:
     0.291,0.422,0.072,0.072,0.000:
0000
0000
0000
0000
,
0000
0000
0000
0000
,
0000
0000
0000
0000
,
0000
0000
0000
0000
,
1000
0000
1000
0000
,
0100
1000
0100
0000
,
1000
0000
0001
0000
,
1000
0001
1000
0000
,
0001
0000
0100
0001
,
0001
0000
0010
0000
,
0001
0100
0001
0000
,
0010
0000
0001
0000
,
1000
0000
0100
1000
,
0000
0100
0000
1000
,
0000
0001
0000
0001
,
0100
0100
0100
0100
,
0020
0000
1030
0100
,
0010
0001
0010
0000
,
0200
0000
2300
0000
,
3001
0100
0010
1000
,
0010
0010
0010
0000
,
1000
0010
1000
0000
,
0001
0100
0001
0000
,
0010
0010
0010
0000
,
0001
0010
0010
0100
,
1000
1000
1000
0010
,
0100
0100
0100
0100
,
0100
0100
0100
0010
,
1000
0000
0001
0000
,
0100
0001
0100
0000
,
0001
1000
0100
0010
,
0001
1000
0100
1000
,
0001
0001
1000
1000
,
0001
1000
1001
0000
,
0010
0000
0100
0000
,
0010
1000
0010
0000
,
0100
0000
0001
0000
,
0100
0001
1000
0000
,
0100
0010
0001
1000
,
0100
1000
0001
1000
,
0002
0000
0203
0000
,
0310
1000
0010
0000
,
1000
0100
1000
0100
,
1000
0001
0100
0000
,
0001
0010
0001
1000
,
0010
0100
0001
0000
,
0001
0000
0100
0000
,
0010
1000
0001
1001
,
1001
1000
0001
1000
,
0010
0100
0001
0000
,
1001
1000
0001
1000
,
0001
0010
0100
1000
,
1000
1100
1000
1100
,
0010
0011
0010
0011
,
2000
0000
3020
0000
,
0230
0000
0000
0000
,
0310
1000
0010
1000
,
0010
0010
0100
0000
,
0001
0100
0001
0010
,
0001
1000
0100
0000
,
1000
0001
1000
0001
,
0100
0010
0010
0000
,
1000
0010
1000
0001
,
0100
0001
1000
0000
,
0100
0000
1000
0000
,
0001
0010
0001
0000
,
1000
0000
0010
0000
,
0100
0001
0100
0000
,
0001
0000
1000
0000
,
0100
1000
0001
0000
,
0100
0000
0010
0000
,
1000
0100
0001
0010
;
