#TITLE:Caramelldansen (Ryu* Remix);
#SUBTITLE:;
#ARTIST:Caramell;
#TITLETRANSLIT:;
#SUBTITLETRANSLIT:;
#ARTISTTRANSLIT:;
#CRChallenge:;
#BANNER:caramel.png;
#BACKGROUND:caramel-bg.png;
#LYRICSPATH:;
#CDTITLE:;
#MUSIC:caramel.ogg;
#OFFSET:0.000;
#SAMPLESTART:47.495;
#SAMPLELENGTH:12.000;
#SELECTABLE:YES;
#BPMS:0.000=181.000;
#STOPS:14.000=0.331
;
#BGCHANGES:;
#NOTES:
     dance-single:
     Renard:
     Medium:
     9:
     0.697,0.761,0.635,0.304,0.074:
0000
0000
0000
0000
,
0000
0000
0000
0000
,
1001
0000
0010
0000
1001
0100
1001
0010
,
1001
0100
1001
0010
1001
0000
0001
0100
,
1000
0100
0000
0100
0001
0000
0001
0010
,
1000
0010
0000
0010
0001
0000
1000
0100
,
0001
0100
0000
0100
1000
0000
1001
0110
,
1001
0000
1001
0110
1001
0000
0001
0100
,
1000
0100
0000
0100
0001
0000
1000
0100
,
0001
0100
0000
0100
1000
0000
0001
0010
,
1000
0010
0000
0010
0001
0000
1001
0110
,
1001
0110
0000
1001
0000
0110
1002
0000
,
0103
0000
2001
0000
3100
0000
1000
0100
,
0010
0001
0010
0100
1000
0000
2001
0000
,
3010
0000
1002
0000
0013
0000
0001
0010
,
0100
1000
0100
0010
0001
0000
0012
0000
,
0103
0000
0021
0000
0130
0000
0010
0100
,
1000
0001
1000
0100
0010
0000
0021
0000
,
1030
0000
0012
0000
1003
0000
1001
0110
,
1001
0110
0000
1001
0000
0110
0000
0110
,
0110
0000
1001
0000
1001
0000
0000
0000
1011
0000
0000
0000
0001
0000
0000
0001
,
1000
0000
0000
1000
0010
0000
0000
0010
0100
0000
0000
0100
0001
0000
1000
0000
,
0100
0000
0010
0000
0001
0000
0000
0000
1001
0000
0000
0000
1000
0000
0000
1000
,
0001
0000
0000
0001
0100
0000
0000
0100
0010
0000
0000
0010
1000
0000
0001
0000
,
0010
0000
0110
0000
0000
0000
1001
0000
0000
0000
0000
0000
0010
0000
0000
0010
,
0100
0000
0000
0100
0001
0000
0000
0001
1000
0000
0000
1000
0010
0000
0100
0000
,
1000
0000
0001
0000
0010
0000
0000
0000
0110
0000
0000
0000
0100
0000
0000
0100
,
0010
0000
0000
0010
1000
0000
0000
1000
0001
0000
0000
0001
0100
0000
0010
0000
,
0001
1000
0100
0001
1001
0000
0001
0001
,
1000
1000
0001
0001
1000
1000
0010
0010
,
0000
0110
0000
1001
0110
0000
1000
1000
,
0001
0001
1000
1000
0001
0001
0110
1001
,
0000
0110
0000
1001
0110
0000
MM1M
M010
,
0M10
001M
MM1M
001M
0M10
M010
MM1M
M010
,
0M10
001M
MM1M
001M
0M10
M010
MM1M
M010
,
0M10
001M
MM1M
001M
0M10
M010
MMMM
0000
,
1MMM
0000
MMM1
0000
1MMM
0000
0001
1000
,
0010
1000
0100
0000
0100
1000
0000
1000
,
0010
0100
0001
0000
0101
0000
0001
0010
,
0100
1000
0001
0000
1000
0010
0000
0100
,
0001
1000
0010
1010
0101
0000
1000
0001
,
0100
0001
0010
0000
0010
0001
0000
0001
,
0100
0010
1000
0000
1010
0000
1000
0100
,
0010
0001
1000
0000
0001
0100
0101
0101
,
0110
0110
1010
0000
1001
0000
0001
0010
,
1000
0000
0001
0100
1000
0000
0001
0010
,
1000
0000
0001
0100
1000
0000
1000
0010
,
0001
0000
1000
0100
0001
0000
0100
0100
,
0010
0010
0100
0100
0110
0000
0100
1000
,
0001
0000
0100
0010
1000
0000
0001
0100
,
0010
0000
1010
0000
0000
0000
0010
0100
,
0001
0000
1000
0100
0010
0000
0001
0010
,
0100
1000
0001
0000
1001
0000
1000
0100
,
0010
1000
0001
0100
0010
0001
1000
0100
,
0010
1000
0001
0100
0010
0001
1000
0100
,
0010
1000
0001
0100
0010
0001
1000
0100
,
0010
1000
0001
0100
0010
0001
0010
0100
,
0001
1000
0010
0100
1000
0001
0010
0100
,
0001
1000
0010
0100
1000
0001
0010
0100
,
0001
1000
0010
0100
1000
0001
1000
1000
,
0001
0001
1000
0000
0001
0000
2000
0000
,
0010
0000
3002
0000
0000
1000
0000
0000
,
0100
0010
0010
2003
,
0010
0000
0001
0000
0000
3020
0000
0000
,
0100
1000
0230
0001
,
0001
0000
0320
0000
0000
1000
0000
0000
,
0100
1000
0100
2030
,
0001
0000
0010
0000
0000
0001
0000
0000
,
0100
0001
3010
0200
,
0000
0000
0000
0302
,
0000
0000
0000
2003
,
0000
0000
0000
3020
,
0000
0000
0000
2030
,
0000
3020
0000
0230
,
0000
0302
0000
2003
,
3002
0203
0320
2030
,
3200
0000
0320
0000
0032
0000
1003
0110
,
1001
0110
1001
0000
0110
0000
2012
0000
,
0000
0000
0000
3003
;
#NOTES:
     dance-single:
     Renard:
     Hard:
     11:
     0.824,1.000,0.607,0.221,0.414:
0000
0000
0000
0000
,
0000
0000
0000
0000
,
1001
0000
0010
0000
1001
0100
1001
0010
,
1001
0100
1001
0010
1001
0000
0001
0100
,
1000
0100
0000
0100
0001
0000
0001
0010
,
1000
0010
0000
0010
0001
0000
1000
0100
,
0001
0000
0100
0000
0000
0000
0100
0000
1000
0000
0001
1000
0001
0000
0110
0000
,
1001
0000
1001
0110
1001
0000
0001
0100
,
1000
0100
0000
0100
0001
0000
1000
0100
,
0001
0100
0000
0100
1000
0000
0001
0010
,
1000
0000
0010
0000
0000
0000
0010
0000
0001
0000
1000
0001
1000
0000
0110
0000
,
1001
0110
0000
1001
0000
0110
1002
0000
,
0103
0000
2001
0001
3100
0000
1000
0100
,
0010
0001
0010
0100
1000
0000
2001
0000
,
3010
0000
0000
0000
1002
0000
1000
0000
0013
0000
0001
1000
0001
0000
0010
0000
,
0100
1000
0100
0010
0001
0000
0012
0000
,
0103
0000
0021
0001
0130
0000
0010
0100
,
1000
0001
1000
0100
0010
0000
0021
0000
,
1030
0000
0000
0000
0012
0000
0010
0000
1003
0000
0001
1000
0001
0000
0110
0000
,
1001
0110
0000
1001
0000
0110
0000
0110
,
0110
0000
1001
0000
1001
0000
0000
0000
1011
0000
0000
0000
0001
0000
0000
0001
,
1000
0000
0000
1000
0010
0000
0000
0010
0100
0000
0000
0100
0001
0000
1000
0000
,
0100
0000
0010
0000
0001
1000
0001
1000
0001
0000
0000
0000
1000
0000
0000
1000
,
0001
0000
0000
0001
0100
0000
0000
0100
0010
0000
0000
0010
1000
0000
0001
0000
,
0010
0000
0110
0000
0000
0000
1001
0000
0000
0000
0001
1000
0010
0000
0000
0010
,
0100
0000
0000
0100
0001
0000
0000
0001
1000
0000
0000
1000
0010
0000
0100
0000
,
1000
0000
0001
0000
0010
0000
0000
0000
0110
0000
0000
0000
0100
0000
0000
0100
,
0010
0000
0000
0010
1000
0000
0000
1000
0001
0000
0000
0001
0100
0000
0010
0000
,
0001
0000
1000
0000
0100
0000
0001
0000
1001
0000
0000
0000
0001
1000
0001
0000
,
1000
0001
1000
0000
0001
1000
0001
0000
1000
0001
1000
0000
0010
0100
0010
0000
,
0000
0000
0110
0000
0000
0000
1001
0000
0110
0000
0000
0000
1000
0001
1000
0000
,
0001
1000
0001
0000
1000
0001
1000
0000
0001
1000
0001
0000
0110
0000
1001
0000
,
0000
0000
0110
0000
0000
0000
1001
0000
0100
0010
0100
0000
M11M
0000
M010
0000
,
0M10
001M
MM1M
001M
0M10
M010
M11M
M010
,
0M10
001M
MM1M
001M
0M10
M010
M11M
M010
,
0M10
001M
M11M
001M
0110
M010
MMMM
0000
,
1MMM
0000
MMM1
0000
1MMM
0000
0001
1000
,
0010
1000
0100
0000
0100
1000
0000
1000
,
0010
0100
0001
0000
0101
0000
0001
0010
,
0100
1000
0001
0000
1000
0010
0000
0100
,
0001
1000
0010
1010
0101
0000
1000
0001
,
0100
0001
0010
0000
0010
0001
0000
0001
,
0100
0010
1000
0000
1010
0000
1000
0100
,
0010
0000
0001
0000
1000
0000
0000
0000
0001
0000
0100
0001
0100
0000
0101
0000
,
0110
0110
1010
0000
1001
0000
0001
1000
,
0010
0100
0001
0010
1000
0010
0001
0100
,
1000
0000
0100
0000
0001
0000
0010
0000
0100
0000
1000
0000
0100
1000
0100
1000
,
0100
1000
0100
1000
0001
0010
0001
0010
0001
0010
0001
0010
0100
0000
0100
0000
,
0010
0010
0100
0100
0110
0000
0010
0001
,
1000
0000
0010
0100
1000
0000
0100
0010
,
0100
0001
0010
0100
1000
0000
0010
0100
,
0001
0000
0000
0000
1000
0000
0100
0000
0010
0000
0001
1000
0001
0000
1000
0000
,
0010
0000
0100
0000
0001
0000
1000
0000
0001
0000
1000
0001
1000
0000
0100
0000
,
0010
1000
0001
0100
0010
0001
1000
0100
,
0010
1000
0001
0100
0010
0001
1000
0100
,
0010
1000
0001
0100
0010
0001
1000
0100
,
0010
0000
1000
0000
0001
0000
0100
0000
1000
0000
0000
0000
0001
0100
0010
1000
,
0001
0100
0010
1000
0001
0100
0010
1000
0001
0100
0010
1000
0001
0100
0010
1000
,
0001
0100
0010
1000
0001
0100
0010
1000
0001
0100
0010
1000
0001
0100
0010
1000
,
0001
0100
0010
1000
0001
0100
0010
1000
0001
0100
0010
1000
0001
0000
0001
0000
,
1000
2000
0002
0000
3013
0000
2000
0000
,
0010
0000
3002
0000
0000
1000
0000
0000
,
0100
0010
0010
2003
,
0010
0000
0001
0000
0000
3020
0000
0000
,
0100
1000
0230
0001
,
0001
0000
0320
0000
0000
1000
0000
0000
,
0100
1000
0100
2030
,
0001
0000
0010
0000
0000
0001
0000
0000
,
0100
0001
3010
0200
,
0000
0000
0000
0302
,
0000
0000
0000
2003
,
0000
0000
0000
3020
,
0000
0000
0000
0000
2030
0000
0000
0000
0000
0000
0000
0000
3001
0100
0010
0000
,
0000
1000
0000
0000
0010
0000
0000
0100
0000
0000
0001
0000
1000
0010
0100
0000
,
0000
0010
0000
0000
1000
0000
0000
0100
0000
0000
0010
0000
0001
0010
0100
1000
,
0100
0010
0001
0010
0100
1000
0001
1000
0100
0010
0001
0010
0100
1000
0001
0010
,
0100
1000
0100
0010
0001
0010
0100
1000
0001
0010
0100
1000
0001
0000
0110
0000
,
1001
0110
1001
0000
0110
0000
2012
0000
,
0000
0000
0000
3003
;
#NOTES:
     dance-single:
     Renard:
     Easy:
     7:
     0.461,0.616,0.193,0.166,0.000:
0000
0000
0000
0000
,
0000
0000
0000
0000
,
1001
0000
1001
0000
0001
1000
0010
0100
,
0001
1000
0001
1000
0001
0000
1000
0100
,
0000
1100
0000
0100
1000
0000
0001
0010
,
0000
0011
0000
0001
0010
0000
0100
1000
,
0000
1100
0000
1000
0001
0000
1000
1000
,
1000
0000
1000
1000
1000
0000
0001
0100
,
0000
0101
0000
0001
0100
0000
0010
1000
,
0000
1010
0000
1000
0010
0000
1000
0010
,
1000
0000
0001
0100
0001
0000
1000
1000
,
1000
0000
0001
0001
0001
0000
1000
0000
,
0100
0000
1000
0100
1000
0100
0000
0000
,
1000
0100
0010
0001
,
0100
0000
0001
0100
0001
0100
0000
0000
,
0001
0100
0000
0010
,
1000
0000
0010
0000
1000
0010
1000
0000
,
0001
0000
0100
0000
0001
1000
0001
0000
,
1000
0000
0100
0000
0010
0000
0001
1000
,
0001
1000
0001
0000
1000
0000
0001
0000
,
0001
0100
0100
0001
,
0001
0000
1000
0000
1000
0000
0100
0010
,
0000
0110
0000
0000
0000
0000
0010
0000
,
0010
0000
0001
0000
0001
0000
1000
0010
,
0000
1010
0000
0000
1000
0000
0010
0000
,
0010
0100
0000
0000
0001
0000
1000
0000
,
0100
0010
0000
0010
0001
0000
1000
0000
,
1000
0100
0000
0000
1000
0000
0000
0010
,
1000
0001
0100
0000
1001
0000
0001
0000
,
0001
0000
1000
0000
1000
0000
0001
0100
,
0000
0101
0000
0000
0000
0000
1000
0000
,
1000
0000
0001
0000
0001
0000
1000
0100
,
0000
1100
0000
0000
1000
0000
0001
0000
,
0001
0100
0100
0010
,
0010
0000
1000
0001
0100
0001
1000
0000
,
0001
1000
0100
1000
0001
1000
0000
0000
,
1001
0110
1001
0001
,
1000
0100
1000
0000
0000
0001
0000
0001
,
0100
0001
1000
0100
,
0010
0001
0010
0000
0000
0001
0000
0001
,
1000
0010
1000
0001
,
0100
0001
0100
0000
0000
0001
0000
0001
,
1000
0100
0010
0001
,
1000
0010
1000
0000
0000
0001
0000
0001
,
0100
0001
1000
0001
,
0001
0010
0010
0100
,
0100
0000
1000
0001
1000
0001
1000
0000
,
1000
0000
0010
0000
0010
0100
0000
0001
,
0000
1000
0000
0100
0000
0010
0001
0000
,
0001
0000
1000
0000
1000
0000
0010
0100
,
0010
0100
0000
0001
,
0001
0000
1000
0000
1000
0000
0100
0010
,
0100
0010
0100
0000
0010
0000
0001
0000
,
0001
0000
1000
0000
1000
0000
0010
0100
,
0010
0000
0100
0010
0100
0000
0001
1000
,
0001
1000
0001
1000
0001
1000
0001
1000
,
0001
1000
0001
1000
0001
1000
0001
1000
,
0001
1000
0001
1000
0001
1000
0010
0100
,
0010
0100
0010
0100
0010
0100
0001
1000
,
0001
1000
0010
0100
0010
0100
0001
0000
,
0001
1000
1000
0002
,
0000
0000
0000
2003
,
0000
0000
0000
3020
,
0000
0000
0000
0230
,
0000
0000
0000
0302
,
0000
0000
0000
2003
,
0000
0000
0000
3020
,
0000
0000
0000
0230
,
0000
0000
0000
0302
,
0000
0000
0000
2003
,
0000
0000
0000
3002
,
0000
0000
0000
0203
,
0000
0000
0000
0320
,
0000
0000
0000
2030
,
0000
0000
0000
3002
,
0000
0000
0000
0203
,
0000
0000
0000
0000
0000
0000
0300
1001
,
0110
1001
0110
0000
1001
0000
0220
0000
,
0000
0000
0000
0330
;
#NOTES:
     dance-single:
     Renard:
     Beginner:
     4:
     0.317,0.471,0.064,0.175,0.000:
0000
0000
0000
0000
,
0000
0000
0000
0000
,
0001
0001
1000
1000
,
0001
1000
0001
1000
0001
0000
0100
0000
,
0100
0010
0000
1000
,
0010
0100
0001
1000
,
1000
0001
0000
0100
,
0001
1000
0010
0100
,
0100
0001
0001
1000
,
1000
0100
0100
1000
,
0001
0000
0010
0000
0100
0000
1000
0001
,
1000
0001
0000
1000
0000
0001
1000
0000
,
0010
0100
0000
0010
,
0100
0010
0000
1000
,
1000
0010
0000
0100
,
0001
0100
0000
0001
,
0001
1000
1000
0100
,
0100
0010
0010
0001
,
1000
0001
1000
0010
,
0100
0010
1000
0001
,
0100
0100
0100
0001
,
0001
1000
1000
0001
,
0000
0100
0000
0000
0000
0000
0010
0000
,
0010
1000
1000
0100
,
0000
0010
0000
0000
0000
0000
0001
0000
,
0001
1000
0000
0001
,
0000
1000
0000
0010
,
0010
0100
0100
0000
,
0010
0100
0010
0000
0100
0000
0001
0000
,
0001
0000
1000
0000
1000
0000
0001
0100
,
0000
0101
0000
0000
0000
0000
0001
0000
,
0001
0000
1000
0000
1000
0000
0100
1000
,
0000
1100
0000
0000
0000
0000
1000
0000
,
1000
0001
0001
0100
,
0100
0010
0010
1000
,
0001
0100
0010
0000
,
1001
1001
1001
0020
,
0000
0000
0000
0000
,
0000
0000
0000
0000
,
0000
0000
0000
0000
,
0000
0000
0000
0000
,
0000
0000
0000
0000
,
0000
0000
0000
0000
,
0000
0000
0000
0000
,
0000
0000
0000
0030
,
0000
1000
1000
0001
,
0001
1000
1000
0010
,
0010
0100
0100
0010
,
1000
0010
0100
0001
,
0001
1000
1000
0010
,
0010
0010
0000
1000
,
1000
0001
0001
0100
,
0100
0100
0100
0010
,
0010
1000
1000
0001
,
0001
0100
0100
0010
,
1000
0001
0100
0010
,
1000
0001
0100
0001
,
1000
0001
1000
0001
,
1000
0000
0001
0000
1000
0000
0001
1000
,
0001
1000
0001
1000
0001
1000
0001
0000
,
0001
0001
0001
2000
,
0000
0000
0000
3200
,
0000
0000
0000
0320
,
0000
0000
0000
0032
,
0000
0000
0000
2003
,
0000
0000
0000
3020
,
0000
0000
0000
0230
,
0000
0000
0000
0302
,
0000
0000
0000
2003
,
0000
0000
0000
3002
,
0000
0000
0000
0203
,
0000
0000
0000
0302
,
0000
0000
0000
2003
,
0000
0000
0000
3002
,
0000
0000
0000
0023
,
0000
0000
0000
0032
,
0000
0000
0000
0000
0000
0000
0003
1000
,
0001
1000
0001
0000
0110
0000
2002
0000
,
0000
0000
0000
3003
;
