#TITLE:Caleb;
#SUBTITLE:;
#ARTIST:Sonata Arctica;
#TITLETRANSLIT:;
#SUBTITLETRANSLIT:;
#ARTISTTRANSLIT:;
#CRChallenge:;
#BANNER:caleb.png;
#BACKGROUND:caleb-bg.png;
#LYRICSPATH:;
#CDTITLE:;
#MUSIC:caleb.ogg;
#OFFSET:0.000;
#SAMPLESTART:25.910;
#SAMPLELENGTH:12.000;
#SELECTABLE:YES;
#BPMS:0.000=100.000,92.000=133.333,108.000=200.000,236.000=133.333,251.667=200.000;
#STOPS:;
#BGCHANGES:;
#NOTES:
     dance-single:
     Renard:
     Medium:
     9:
     0.601,0.753,0.151,0.027,0.474:
0000
0000
0000
0000
,
0000
0000
0000
0000
,
0000
0000
0000
0000
,
0000
0000
0000
0000
,
0000
0000
0000
0000
,
1000
0000
0100
0000
1000
0100
0000
0000
0010
0000
0001
0000
0010
0001
0000
0000
,
1000
0000
0010
0000
1000
0010
0000
0000
0100
0000
0001
0000
1000
0100
0010
0001
,
1000
0000
0010
0000
1000
0010
0000
0000
0100
0000
0001
0000
0100
0001
0000
0000
,
1000
0000
0100
0000
1000
0100
0000
0000
0010
0000
0001
0000
0001
0010
0100
1000
,
0001
0000
0100
0000
0001
0100
0000
0010
1000
0000
0100
0000
1000
0001
0000
1000
,
0010
0000
0100
0000
0001
1000
0000
0001
0010
0000
0100
0000
1000
0100
0010
0000
,
0001
0010
0100
0000
1000
0100
0000
1000
0010
0100
0001
0000
0100
0010
0000
1000
,
0100
0010
0001
0000
0010
0001
0000
0100
0010
1000
0001
0000
0010
0001
0000
1000
,
0100
0010
0001
0000
0011
0000
0010
0100
1000
0001
0100
0000
0101
0000
0100
0010
,
1000
0100
1000
0000
1100
0000
1000
0001
0100
0010
1000
0000
1010
0000
1000
0000
,
0001
0100
0001
0000
1000
0100
0000
1000
0001
0010
0001
0000
0001
1000
0000
1000
,
0010
0100
0001
0000
1000
0010
0000
0100
0001
1000
0100
0000
0100
1000
0000
1000
,
0001
0100
0001
0000
0101
0000
0100
0010
1000
0100
1000
0000
1100
0000
1000
0010
,
0100
0001
0100
0000
0101
0000
0100
0001
0010
0100
1000
0000
1100
0000
1000
0000
,
0001
1000
0001
0000
0100
0010
0000
1000
0100
0010
0001
0000
1000
0001
0000
0100
,
0010
1000
0001
0000
0100
0001
0000
1000
0100
1000
0001
0000
1000
0001
0000
0100
,
0010
1000
0001
0000
0100
0001
0000
1000
0100
0010
0001
0000
1000
0001
0000
0100
,
0010
1000
0001
0000
0010
0001
0000
1000
0100
0010
0001
1000
0010
0100
0001
0000
,
1000
0000
1000
0000
1000
0000
0100
0000
0100
0000
0100
0000
,
0001
0000
0001
0000
0001
0000
0100
0000
0100
0000
0100
0000
,
1000
0000
1000
0000
1000
0000
0010
0000
0010
0000
0010
0000
,
0001
0000
0001
0000
0001
0000
0010
0000
1000
0000
0001
0000
,
1100
0000
0100
0010
0001
0000
0011
0000
,
0001
0100
0010
0000
0110
0000
0010
1000
,
0100
0000
1100
0000
0100
0010
0001
0000
,
0011
0000
0001
0100
0010
0000
1010
0000
,
1000
0100
0010
0000
0110
0000
0010
0001
,
0100
0000
0101
0000
0100
0010
1000
0000
,
1010
0000
1000
0100
0010
0001
0010
0000
,
0010
0100
1000
0001
0100
0000
0100
0001
,
1000
0100
0010
0000
0010
0100
1000
0001
,
0100
0000
0100
0010
1000
0100
0010
0000
,
0010
0001
1000
0010
0100
0000
0100
0010
,
1000
0100
0010
0001
0010
0100
1000
0001
,
0100
0010
1000
0100
0010
0000
0001
0010
,
0100
1000
0001
0000
0100
0001
1000
0100
,
0010
0000
0100
1000
0010
0100
0001
0000
,
0010
0100
0010
0001
1000
0000
0010
0100
,
0001
0010
0100
0000
1000
0010
0100
0001
,
0010
0100
1000
0001
0100
0010
1000
0100
,
0010
0000
0010
0001
1000
0010
0100
0000
,
0010
1000
0100
0000
0010
0000
0001
0010
,
0100
1000
0001
0000
0100
0010
1000
0000
,
0001
0000
0010
0001
1000
0100
1000
0000
,
0001
0100
0010
0000
1000
0000
0010
1000
,
0001
0000
1000
0000
0100
0010
0001
0000
,
0010
0100
0010
0100
1000
0100
0010
0001
,
0010
0100
1000
0001
0100
0000
0001
0000
,
1000
0100
0010
0001
0010
0100
1000
0001
,
0100
0010
0100
0010
1000
0100
0010
0001
,
0010
0100
1000
0001
0100
0010
0100
0010
,
1000
0100
0010
0001
0010
0100
1000
0001
,
0100
0010
0100
0010
1000
0100
0010
0001
,
0010
0100
1000
0001
0100
0010
1000
0000
,
0100
0000
0100
0000
1000
0000
0100
0000
0100
0000
0001
0000
,
0100
0000
0100
0000
1000
0000
0010
0000
0010
0000
0001
0000
,
0010
0000
0010
0000
1000
0000
0100
0000
0001
0000
0200
0000
,
2000
0000
0000
0000
0000
0000
0000
0000
0000
0002
0000
0000
0000
0000
0000
0000
0000
0000
0000
0000
0000
0000
3303
0000
;
#NOTES:
     dance-single:
     Renard:
     Hard:
     10:
     0.697,0.920,0.213,0.027,0.559:
0000
0000
0000
0000
,
0000
0000
0000
0000
,
0000
0000
0000
0000
,
0000
0000
0000
0000
,
0000
0000
0000
0000
,
1000
0100
0010
0001
0010
0100
1000
0001
1000
0010
0100
0001
0100
0010
1000
0001
,
1000
0100
0010
0001
0010
0100
1000
0001
1000
0100
0010
0001
1000
0010
0100
0010
,
1000
0001
0100
0001
1000
0010
1000
0001
1000
0001
0100
0001
1000
0010
1000
0001
,
0100
0001
0010
0100
1000
0010
1000
0001
0100
0010
1000
0100
0010
0001
0010
0100
,
1000
0100
0010
0001
1000
0001
0010
0100
1000
0001
1000
0010
0100
0001
0010
0100
,
1000
0100
0010
0001
0010
0100
1000
0010
0100
0001
0010
0100
1000
0000
0000
0000
,
0001
0001
0001
0000
1010
0100
0000
0000
1000
1000
1000
0000
0011
0100
0000
0000
,
0001
0001
0001
0000
1010
0100
0000
0000
1000
1000
1000
0000
0011
0100
0000
0000
,
1000
0100
0010
0000
1100
0010
0000
0000
0001
0100
0010
0000
0101
0010
0000
0000
,
1000
0100
0010
0000
1100
0010
0000
0000
0001
0100
0010
0000
0101
0010
0000
0000
,
1000
1000
1000
0000
0101
0010
0000
0000
0001
0001
0001
0000
1100
0010
0000
0000
,
1000
1000
1000
0000
0101
0010
0000
0000
0001
0001
0001
0000
1100
0010
0000
0000
,
0001
0010
0100
0000
0011
0100
0000
0000
1000
0010
0100
0000
1010
0100
0000
0000
,
0001
0010
0100
0000
0011
0100
0000
0000
1000
0010
0100
0000
1010
0100
0000
0000
,
0010
0000
0010
1000
0100
0000
0100
0010
0001
0000
0001
0100
0010
1000
0100
0010
,
0001
0000
0001
0010
0100
0000
0100
1000
0010
0000
0010
0100
0001
0010
0100
1000
,
0001
0000
0001
0100
0010
0000
0010
1000
0100
0000
0100
0010
0100
1000
0001
0100
,
0010
0000
0010
1000
0100
0000
0100
0010
0001
0010
0100
1000
0001
0100
0010
0000
,
1000
0000
0010
0001
0010
0000
1000
0000
0100
0001
0100
0000
,
1000
0000
0010
0001
0010
0000
1000
0000
0100
0001
0100
0000
,
0010
0000
0001
0010
0001
0000
0010
0000
1000
0010
1000
0000
,
0010
0000
0100
0001
0100
0000
1000
0000
0010
1000
0010
0000
,
1010
0100
0001
0010
0100
0000
1100
0010
,
0001
0100
0010
0000
1010
0100
0001
0010
,
0100
0000
1100
0010
0001
0100
0010
0000
,
0101
0010
1000
0100
0010
0000
0011
0100
,
1000
0010
0100
0000
0101
0010
1000
0100
,
0010
0000
0011
0100
1000
0010
0100
0000
,
0001
0100
1000
0100
0001
0010
1000
0010
,
0001
0100
0010
1000
0100
0001
0100
1000
,
0010
0001
0010
1000
0100
0010
0001
0010
,
1000
0010
0100
0001
0100
1000
0010
0100
,
1000
0100
0001
0010
0100
0001
0100
1000
,
0010
0100
1000
0100
0010
1000
0100
0010
,
0001
0010
1000
0010
0100
0001
0100
1000
,
0010
0100
1000
0100
0010
0001
0010
1000
,
0100
0001
0100
0010
0001
0010
1000
0010
,
0100
0001
0100
1000
0010
0100
1000
0100
,
0001
0010
0100
0001
0100
1000
0010
0100
,
1000
0100
0010
1000
0100
0010
0001
0010
,
0100
0000
0100
1000
0010
0100
0010
0000
,
1000
0100
0010
0001
0010
0000
0010
0001
,
1000
0010
0100
0000
0100
0010
1000
0100
,
0010
0000
0010
0001
1000
0010
0100
0000
,
0100
0010
1000
0100
0010
0000
0010
0001
,
0010
0100
1000
0001
0100
0010
1000
0100
,
0010
0010
0001
0100
0010
1000
0100
0100
,
1000
0010
0100
0001
0010
0010
0001
1000
,
0001
0001
1000
1000
0001
0001
1000
1000
,
0010
0100
0001
0010
0100
0100
0010
0010
,
0100
0100
0010
0010
0001
1000
0010
0100
,
0001
0001
1000
1000
0001
0001
1000
1000
,
0010
0100
0001
0010
0100
0100
0010
0010
,
0001
0001
1000
0010
0100
0001
1000
0000
,
0001
0000
0100
1000
0100
0000
0001
0000
0010
1000
0010
0000
,
0001
0000
0100
1000
0100
0000
0001
0000
1000
0100
1000
0000
,
0100
0000
0001
0100
0001
0000
1000
0000
0010
1000
0020
0000
,
0002
0000
0000
2000
0000
0000
0000
3033
;
#NOTES:
     dance-single:
     Renard:
     Easy:
     5:
     0.319,0.362,0.133,0.009,0.000:
0000
0000
0000
0000
,
0000
0000
0000
0000
,
0000
0000
0000
0000
,
0000
0000
0000
0000
,
0000
0000
0000
0000
,
0000
0000
0000
0000
,
0000
0000
0000
0000
,
0000
0000
0000
0000
,
0000
0000
0000
0000
,
0001
1000
0001
1000
0001
1000
0001
1000
,
0010
1000
0010
1000
0100
0000
0100
0000
,
1000
0000
0100
1000
0100
0000
1000
0000
,
0010
0000
0100
0000
0001
0010
0001
0000
,
1000
0000
0001
0000
0100
0100
0100
0000
,
0010
0000
1000
0000
0001
0001
0001
0000
,
1000
0000
0010
0000
1000
0001
1000
0000
,
0001
0000
0100
0000
0001
0010
0001
0000
,
1000
0100
1000
0010
,
0100
0000
0001
0000
1000
0001
1000
0000
,
0010
0110
0001
1001
,
0100
0110
1000
1001
,
0010
0110
0001
1001
,
0100
0110
1000
1001
,
1000
0000
0000
1000
0001
0000
0000
0001
,
0100
0000
0000
0100
0010
0000
0000
0010
,
1000
0000
0000
1000
0001
0000
0000
0001
,
0010
0000
0000
0010
0100
0000
0000
1000
,
0001
0001
0001
1000
,
1000
1000
0010
0010
,
0010
0100
0100
0100
,
0001
0001
0001
1000
,
1000
1000
0100
0100
,
0100
0010
0001
1000
,
0001
0001
0001
0001
,
0001
0100
0001
0000
0001
0000
0001
0000
,
0001
0000
0001
0000
0001
0100
0001
0000
,
0001
0001
0001
0001
,
0001
0100
0001
0000
0001
0100
0001
0000
,
0001
0100
0001
0100
0001
0000
0100
0000
,
0010
1000
0001
0100
,
0010
1000
0010
0000
1000
0000
0100
0000
,
0010
0000
0001
0000
1000
0100
1000
0000
,
0001
0100
0010
1000
,
0001
0010
0001
0000
0010
0000
0100
0000
,
1000
0000
0001
0000
0100
0001
0100
0000
,
0001
1000
0100
0010
,
0001
1000
0010
0100
,
0001
0100
0010
1000
,
1010
0000
0010
0110
,
0000
0100
0101
0000
,
0001
1001
0000
1000
,
1100
0100
1000
1001
,
0001
0100
0101
0001
,
1000
0100
1000
0001
,
0100
0001
0100
0001
0100
0000
0001
0000
,
1000
0100
0010
0001
,
1000
0010
0100
0001
,
1000
0000
0010
1000
0010
0000
1000
0010
,
0000
0100
0001
0000
1000
0100
0000
1000
,
0001
0000
0000
0001
1000
0000
0000
1000
,
0010
0000
0000
0010
0100
0000
0000
0000
,
0100
0000
0000
0100
0001
0000
0000
0001
,
2000
0000
0000
0000
0000
0000
0000
3000
;
#NOTES:
     dance-single:
     Renard:
     Beginner:
     3:
     0.243,0.307,0.000,0.080,0.000:
0000
0000
0000
0000
,
0000
0000
0000
0000
,
0000
0000
0000
0000
,
0000
0000
0000
0000
,
0000
0000
0000
0000
,
0000
0000
0000
0000
,
0000
0000
0000
0000
,
0000
0000
0000
0000
,
0000
0000
0000
0000
,
0002
0000
2003
0000
,
3020
0000
0000
0000
0230
0000
0000
0300
,
0001
1000
0100
1000
,
0001
0100
0010
1000
,
0001
0001
0001
0001
,
1000
1000
1000
1000
,
0010
0100
0001
1000
,
0001
1000
0010
0100
,
0010
0010
0010
0010
,
0100
0100
0100
0100
,
0020
1030
0001
0100
,
0002
0013
0100
1000
,
0020
1030
0001
0100
,
0002
0013
0100
1000
,
0001
0000
1000
0000
,
0010
0000
0000
0100
0001
0000
0000
0000
,
0100
0000
0010
0000
,
1000
0000
0000
0000
0100
0000
0000
0010
,
0001
0000
0001
1000
,
0000
1000
0010
0000
,
0010
0100
0000
0100
,
0001
0000
0001
1000
,
0000
1000
0100
0000
,
0100
0010
0000
0010
,
0001
0001
0001
1000
,
1000
1000
0010
0010
,
0010
0100
0100
0100
,
0001
0001
0001
1000
,
1000
1000
0010
0010
,
0010
0100
0100
0100
,
0001
0100
0000
0100
,
0000
0100
0010
1000
,
0000
1000
0000
1000
,
0100
0010
0000
0010
,
0001
1000
0100
1000
,
0000
1000
0001
0010
,
0001
1000
0000
1000
,
0010
0100
0010
0100
,
0001
0100
0000
0100
,
0010
0000
0010
1000
,
0000
1000
0010
0000
,
0100
0001
1000
0100
,
1000
0001
1000
0010
,
0100
0001
0010
0100
,
1000
0001
0100
0001
,
1000
0000
0001
1000
0000
0000
0010
0000
,
0100
0000
0001
0000
1000
0000
0001
1000
,
0000
0010
0100
0001
,
1000
0000
0100
1000
0000
0000
0001
0000
,
0100
0010
1000
0001
,
1000
0000
0000
0000
1000
0000
0000
0010
,
0100
0001
0000
0100
0010
0000
0000
0000
,
1000
0000
0000
0100
0010
0000
0000
0001
,
2000
0000
0000
0000
0000
0000
0000
3000
;
