#TITLE:Calcutta;
#SUBTITLE:;
#ARTIST:Dr. Bombay;
#TITLETRANSLIT:;
#SUBTITLETRANSLIT:;
#ARTISTTRANSLIT:;
#CRChallenge:;
#BANNER:;
#BACKGROUND:;
#LYRICSPATH:;
#CDTITLE:;
#MUSIC:calcutta.ogg;
#OFFSET:0.000;
#SAMPLESTART:41.739;
#SAMPLELENGTH:12.000;
#SELECTABLE:YES;
#BPMS:0.000=138.000;
#STOPS:;
#BGCHANGES:;
#NOTES:
     dance-single:
     Renard:
     Hard:
     9:
     0.686,0.644,0.205,0.338,0.356:
0000
0000
0000
0000
,
0000
0000
0000
0000
,
0000
0000
0000
0000
,
0000
0000
0000
0000
,
0001
0000
0010
0000
0100
0000
1000
0001
0000
0010
0000
0100
0000
1000
0001
0100
,
0010
0000
1000
0000
0001
0000
0100
0010
0000
1000
0001
0100
0010
1000
0100
0010
,
0001
0000
0010
0000
0100
0000
1000
0001
0000
0010
0000
0100
0000
1000
0001
0100
,
0010
1000
0010
0000
1000
0000
0001
0100
0000
0001
1000
0100
0010
0001
1000
0000
,
0100
1000
1100
0100
0010
0001
0011
0001
,
0100
0001
0101
0100
0010
1000
1010
1000
,
0100
0010
0011
0001
0100
0010
0110
0010
,
1000
0100
1100
1000
0100
0010
0011
0001
,
1000
0010
1010
1000
0010
0100
0101
0001
,
0010
0100
0110
0100
1000
0010
1010
1000
,
0010
0100
0101
0001
0010
0100
0110
0010
,
0100
1000
1001
0000
0110
0000
1001
0000
,
1000
0001
0200
0310
1M00
0100
0020
0031
,
10M0
0001
0200
0310
1M00
0001
0020
0130
,
10M0
0001
0200
0310
1M00
0100
0020
0031
,
10M0
0001
0200
0310
1M00
0001
1001
M00M
,
0001
1000
0020
0130
00M1
0010
0200
1300
,
0M01
1000
0020
0130
00M1
1000
0200
0310
,
0M01
1000
0020
0130
00M1
0010
0200
1300
,
0M01
1000
0020
0130
00M1
0000
1011
0000
,
2000
0000
0200
0000
3310
0000
1000
0100
,
0010
0010
0001
0001
0100
0100
0101
0000
,
0002
0000
0200
0000
0313
0000
0001
0100
,
0010
0010
1000
1000
0100
0010
0100
1000
,
0200
0000
2000
0000
3310
0000
0100
1000
,
0010
0010
0100
0100
0001
0001
0101
0000
,
0002
2000
3013
1000
,
0001
0010
0100
1000
0100
0010
0001
1000
,
0001
0000
1000
0100
1000
0000
0001
0100
0001
0000
1000
0000
0100
0000
0010
0000
,
0001
0000
1000
0010
1000
0000
0001
0010
0001
0000
0010
0000
0100
0000
1000
0000
,
0001
0000
0100
0001
0100
0000
0001
1000
0001
0000
1000
0100
1000
0000
0001
0010
,
0001
0000
1000
0100
0000
0000
0010
0001
0000
0000
1000
0100
0000
0000
0010
0001
,
0010
0001
0010
0001
0010
0000
0001
0000
0010
0000
0100
0000
1000
0000
0001
0000
,
2000
0000
3020
0000
0130
0001
0010
0000
,
0100
0000
1000
0000
0001
0000
0010
0001
0000
1000
0000
0010
0000
0100
0001
0100
,
0010
0000
1000
0000
0001
0000
0100
0010
0000
1000
0001
0100
0010
1000
0100
0010
,
0001
0010
0001
0010
0001
0000
0010
0000
0100
0000
1000
0000
0001
0000
0100
0000
,
0020
0000
2030
0000
3100
0010
0001
0000
,
0010
0000
0100
0000
1000
0000
0001
0100
0000
0010
0000
1000
0000
0001
0100
0010
,
1000
0000
0100
0000
0010
0000
0001
0010
0000
0100
1000
0001
0010
0100
1000
0001
,
1000
0100
1000
0100
1000
0000
0100
0000
1000
0001
1000
0001
1000
0000
0001
0000
,
0010
0001
0010
0001
0010
0000
0001
0000
0010
0000
0100
0000
1000
0000
0001
0000
,
0100
0001
0100
0001
0100
0000
0001
0000
0100
0010
0100
0010
0100
0000
0010
0000
,
1000
0010
1000
0010
1000
0000
0010
0000
1000
0000
0100
0000
0010
0000
0001
0000
,
1000
0100
0010
0001
1000
0000
0001
0000
0100
0000
0010
0000
1000
0000
0001
0000
,
0020
0000
0032
0000
1003
0100
0010
0000
,
0001
0000
0010
0000
0100
0000
1000
0001
0000
0010
0000
0001
0000
1000
0100
0010
,
0001
0000
0010
0000
0100
0000
1000
0001
0000
0010
0100
1000
0001
0010
0100
1000
,
0002
0000
0200
0000
0313
0000
0001
0010
,
0100
0100
1000
1000
0010
0010
1010
0000
,
2000
0000
0200
0000
3310
0000
1000
0010
,
0100
0100
0001
0001
0010
0100
0010
0001
,
0200
0000
0002
0000
0313
0000
0010
0001
,
0100
0100
0010
0010
1000
1000
1010
0000
,
2000
0002
3013
0001
,
1000
0100
0010
0001
0010
0100
1000
0001
,
1000
1000
0100
0100
0010
0010
0001
0001
,
1000
1000
0010
0100
0001
0010
0100
1000
,
0200
0020
0000
0000
0000
0000
0000
0000
,
0330
0000
0000
0000
;
#NOTES:
     dance-single:
     Renard:
     Medium:
     8:
     0.565,0.588,0.151,0.320,0.076:
0000
0000
0000
0000
,
0000
0000
0000
0000
,
0000
0000
0000
0000
,
0000
0000
0000
0000
,
0001
0000
0010
0000
0100
0000
1000
0001
0000
0000
0100
0000
0010
0000
1000
0000
,
0100
0000
0010
0000
0001
0000
0010
0100
0000
0000
1000
0000
0001
0000
0100
0000
,
0010
0000
1000
0000
0001
0000
0010
0100
0000
0000
0010
0000
0100
0000
1000
0000
,
0001
0100
0010
1000
0100
0010
0011
0000
,
0001
0010
0100
0000
1000
0010
0100
0000
,
0001
0010
0100
0000
1000
0010
0100
0000
,
0010
1000
0100
0000
0010
0001
0100
0000
,
0001
0100
0010
1000
0100
0000
1100
0000
,
1000
0100
0010
0000
0001
0100
0010
0000
,
1000
0010
0100
0000
0001
0010
0100
0000
,
1000
0100
0010
0001
0100
0010
1000
0100
,
0010
0001
1000
0000
0101
0000
1010
0000
,
1000
0001
0200
0310
1000
0100
0020
0031
,
1000
0001
0200
0310
1000
0001
0020
0130
,
1000
0001
0200
0310
1000
0100
0020
0031
,
1000
0001
0200
0310
1000
0001
1001
0000
,
0001
1000
0020
0130
0001
0010
0200
1300
,
0001
1000
0020
0130
0001
1000
0200
0310
,
0001
1000
0020
0130
0001
0010
0200
1300
,
0001
1000
0001
2000
0002
0000
3013
0000
,
2000
0000
3100
0000
0011
0000
1000
0100
,
0010
0010
0001
0001
0100
0000
0101
0000
,
0002
0000
0103
0000
1010
0000
0001
0100
,
0010
0010
1000
1000
0100
0010
0100
0000
,
0200
0000
1300
0000
0011
0000
0100
1000
,
0010
0010
0100
0100
0001
0000
0101
0000
,
0002
1003
0110
1000
,
0001
0010
0100
1000
0100
0010
0001
1000
,
0100
0010
0002
0000
0013
0100
1000
0000
,
0001
0100
0010
0000
1000
0100
0010
0000
,
0001
0010
0200
0000
1300
0010
0100
0000
,
0010
1000
0100
0010
0001
1000
0001
0000
,
1000
0000
0000
1000
0100
0000
0010
0000
0001
0000
1000
0000
0001
0000
0100
0000
,
0020
2030
3200
0320
,
0031
0000
0010
0000
0100
0000
1000
0001
0000
0000
0010
0000
0001
0000
1000
0000
,
0100
0010
0001
0100
0010
1000
0010
0100
,
0001
0000
0000
0001
0100
0000
0010
0000
1000
0000
0010
0000
1000
0000
0100
0000
,
0020
0032
0023
0130
,
1000
0000
0010
0000
0100
0000
0001
0100
0000
0000
0010
0000
1000
0000
0100
0000
,
0010
0001
0010
0100
1000
0001
0100
0010
,
1000
0000
0000
1000
0010
0000
1000
0000
0001
0000
0000
0001
0100
0000
0001
0000
,
0010
0000
0000
0010
0001
0000
0010
0000
0100
0000
1000
0000
0001
0000
0100
0000
,
0010
0000
0000
0010
1000
0000
0010
0000
0100
0000
0000
0100
0001
0000
1000
0000
,
0100
0000
0000
0100
1000
0000
0100
0000
0010
0000
0001
0000
1000
0000
0010
0000
,
1000
0000
0000
1000
0001
0000
0100
0000
0010
0000
1000
0000
0100
0000
0010
0000
,
0002
0000
0023
0000
0130
1000
0001
0000
,
1000
0000
0100
0000
0010
0000
0001
1000
0000
0001
0000
0010
0000
0000
0100
0000
,
1000
0001
0010
0100
1000
0001
0100
0000
,
0002
0000
0013
0000
1100
0000
0001
0010
,
0100
0100
1000
1000
0010
0000
1010
0000
,
2000
0000
3010
0000
0101
0000
1000
0010
,
0100
0100
0001
0001
0010
0100
0010
0000
,
0020
0000
0031
0000
1100
0000
0010
0001
,
0100
0100
0010
0010
1000
0000
1010
0000
,
2000
3001
0110
0001
,
1000
0100
0010
0001
0010
0100
1000
0001
,
0010
0100
0010
0100
1000
0100
1000
0100
,
1000
0001
1000
0001
0100
0001
0100
0010
,
2000
0200
0000
0000
0000
0000
0000
0000
,
3300
0000
0000
0000
;
#NOTES:
     dance-single:
     Renard:
     Easy:
     6:
     0.362,0.420,0.196,0.053,0.000:
0000
0000
0000
0000
,
0000
0000
0000
0000
,
0000
0000
0000
0000
,
0000
0000
0000
0000
,
1000
0000
1000
0000
0001
0100
0001
0000
,
1000
1000
0001
0100
,
0001
0000
0001
0000
1000
0100
1000
0000
,
0001
0001
1000
1001
,
0001
0100
0001
0100
0001
0100
0000
0000
,
0010
1000
0010
1000
,
0100
1000
0100
1000
0100
1000
0000
0000
,
0001
0100
0010
1000
,
0001
0100
0001
0100
0001
0000
0100
0000
,
0010
0000
1000
0000
0100
0000
1000
0010
,
1000
0000
0010
1000
0010
0000
0100
0001
,
0100
0001
1000
1001
,
0001
0000
0100
0001
0100
0000
0010
0000
,
1000
0000
0100
1000
0100
0000
1000
0000
,
0010
0000
0100
0001
0100
0000
0001
0010
,
0001
0000
0010
0000
0100
0000
1000
0010
,
1000
0000
0100
0000
1000
0000
0001
0100
,
0001
0000
0100
0000
0010
0000
1000
0010
,
1000
0000
0001
0000
0100
0000
0010
1000
,
0010
1000
0100
0000
,
0011
0011
0011
0000
,
0100
1000
0010
0100
,
0101
0101
0101
0000
,
0010
1000
0100
0010
,
0011
0011
0011
0000
,
0100
1000
0010
0100
,
0101
0101
0110
0000
,
0010
0000
1000
0000
0100
1000
0100
1000
,
0200
0000
1300
0010
,
0100
0000
0001
0010
,
0001
0000
0100
0010
,
1000
0100
0010
0000
,
0001
0010
0001
0010
0001
0010
0001
0010
,
0002
0000
0023
0000
,
0130
0000
0100
0000
,
0100
1000
0100
0000
,
1000
0100
1000
0100
1000
0100
1000
0100
,
2000
0000
3020
0000
,
0130
0000
0001
0000
,
0100
0001
0100
0000
,
0001
1000
0001
1000
0001
1000
0001
1000
,
0001
1000
0001
1000
0001
0000
0001
0000
,
0100
0010
0100
0010
0100
0010
0100
0010
,
0100
0010
0100
0010
0100
0000
0100
0000
,
0001
1000
0001
1000
0001
1000
0001
1000
,
0010
0010
0010
0010
,
1000
0010
0100
0001
,
1000
0100
0010
0001
,
1000
1100
1100
0000
,
0010
0001
0100
0010
,
0100
0101
0101
0000
,
0001
1000
0100
0010
,
0100
1100
1100
0000
,
1000
0010
0100
0001
,
0010
0011
0011
0000
,
0010
0100
1000
0010
,
0100
0001
0100
0000
0000
0000
0000
0000
,
0000
0001
1000
0100
0010
0001
0010
0100
,
2000
0000
0000
0000
,
3000
0000
0000
0000
;
#NOTES:
     dance-single:
     Renard:
     Beginner:
     3:
     0.283,0.386,0.125,0.169,0.000:
0000
0000
0000
0000
,
0000
0000
0000
0000
,
0000
0000
0000
0000
,
0000
0000
0000
0000
,
0000
0000
0000
0000
,
0000
0000
0000
0000
,
0000
0000
0000
0000
,
0000
0000
0000
0000
,
1000
1000
0100
0000
,
0010
0010
0001
0000
,
0100
0100
0010
0000
,
1000
1000
0100
0000
,
0010
0001
0100
0000
,
0010
1000
0100
0000
,
0010
0001
0100
0001
,
0010
0100
1000
1001
,
1000
0100
0100
0000
,
0010
0001
0001
0000
,
1000
0000
0010
0000
,
0100
0001
1000
0000
,
0001
0010
0100
1000
,
0001
0100
0010
0000
,
1000
0010
0100
0001
,
1000
0001
1001
0000
,
2000
3200
0310
0000
,
0001
0010
0100
1000
,
0002
0023
0130
0000
,
1000
0100
0010
0001
,
2000
3200
0310
0000
,
0001
0010
0100
1000
,
0002
0023
0130
0000
,
1000
0100
0010
0001
,
1000
1001
0001
1001
,
1000
1001
0001
1001
,
0100
0110
0010
0110
,
2001
0000
0000
0000
,
0100
0100
0010
0010
,
0001
0010
0100
3100
,
1000
0100
0010
0010
,
0100
0010
0100
0010
,
0002
0010
0010
0100
,
1000
1000
0100
1000
,
1003
0100
0010
0010
,
0001
0010
0100
0000
,
2000
3100
0002
0103
,
2000
3100
1001
1001
,
0002
0013
2000
3010
,
0002
0013
1001
1001
,
0002
0103
2000
3100
,
0002
1000
0100
0013
,
0010
0001
1000
0100
,
0010
0001
1000
1001
,
0001
0100
1000
0000
,
0100
0001
0010
0100
,
0001
0100
1000
0000
,
0010
0100
1000
0100
,
0001
0010
0100
0000
,
0001
0100
1000
0010
,
0100
0100
0010
0000
,
1000
0000
0001
0000
,
1000
0100
0001
0010
,
1000
0100
0001
0010
,
1000
0000
0000
0000
;
