#TITLE:Calculate;
#SUBTITLE:;
#ARTIST:Kitsune?;
#TITLETRANSLIT:;
#SUBTITLETRANSLIT:;
#ARTISTTRANSLIT:;
#CRChallenge:;
#BANNER:calculate-banner.avi;
#BACKGROUND:calculate-bg.png;
#LYRICSPATH:;
#CDTITLE:!cdtitle.png;
#MUSIC:calculate.ogg;
#OFFSET:0.000;
#SAMPLESTART:9.600;
#SAMPLELENGTH:12.000;
#SELECTABLE:YES;
#BPMS:0.000=200.000;
#STOPS:;
#BGCHANGES:;
#NOTES:
     dance-single:
     Renard:
     Medium:
     9:
     0.741,0.722,0.160,0.021,0.000:
0000
0000
0000
0000
,
0000
0000
0000
0000
,
0000
0000
0000
0000
,
0000
0000
0000
0000
,
0001
0010
0001
0000
0010
0000
0001
0010
,
0000
0001
0000
0010
0001
0000
0010
0000
,
0100
1000
0100
0000
1000
0000
0100
1000
,
0000
0100
0000
1000
0100
1000
0100
0010
,
0001
0010
0100
1000
0001
1000
0010
1000
,
0000
1001
0000
1100
0000
1001
0000
1000
,
0100
0010
0001
1000
0001
0100
0001
0010
,
0001
1000
0001
0100
0000
0100
0010
1000
,
0100
0010
0001
0010
0100
1000
0001
0100
,
0000
0101
0000
0011
0000
1001
0000
0001
,
0100
0010
1000
0100
1000
0001
0010
0100
,
1000
0000
1000
0001
0000
0001
0100
0010
,
1000
0100
1000
0001
0010
0100
1000
0001
,
0000
0101
0000
1001
0000
1010
0000
1001
,
0000
1000
0100
0010
0001
0010
0100
1000
,
0001
0100
0001
1000
0000
1000
0100
1000
,
0001
0010
0100
1000
0001
0100
0010
1000
,
0000
1010
0000
0101
0000
1001
0000
1100
,
0000
1000
0100
0010
0001
0010
0100
1000
,
0001
0100
0010
1000
0100
0010
0010
0010
,
0001
0010
0100
1000
0001
0100
0000
0010
,
0000
1000
0000
0010
0000
0100
0001
1000
,
0100
0000
0010
0001
0000
0010
0000
0100
,
1000
0001
0100
0010
1000
0001
0010
0100
,
1000
0000
0001
0100
0010
1000
0001
0010
,
0000
0001
0000
1000
0000
0100
1000
0001
,
0100
0000
0100
0001
1000
0100
0010
0001
,
0000
0010
0100
1000
0001
0100
0010
1000
,
0001
0010
0001
1000
0010
0100
0001
0100
,
0001
0000
1000
0000
0100
1000
0001
0010
,
0001
1000
0010
0100
0001
0100
0001
1000
,
0000
1000
0100
1000
0001
0010
0100
1000
,
0001
0100
0010
1000
0001
0010
0100
1000
,
0001
0000
1000
0000
0001
0100
0010
0000
,
1000
0010
0100
0001
0010
0100
1000
0001
,
0000
0001
1000
0100
0010
0001
1000
0001
,
1000
0100
1000
0000
0001
0100
0001
1000
,
0000
0001
0010
0100
0000
1000
0000
0001
,
0100
0010
1000
0000
0010
1000
0010
0000
,
0100
0001
0100
0000
0001
0010
0001
0000
,
0010
0100
1000
0001
0100
0001
1000
0100
,
0000
1000
0001
0100
0001
1000
0100
1000
,
0001
0000
0010
0000
0001
1000
0001
0000
,
1000
0010
1000
0000
0001
0100
0001
0000
,
1000
0100
0010
0001
0010
0100
1000
0001
,
0000
0001
1000
0100
0000
0010
0000
0001
,
0010
0100
1000
0000
0001
0100
0010
0000
,
1000
0010
1000
0000
0001
0100
0001
0000
,
1000
0100
0010
0001
0010
0100
1000
0001
,
0000
0001
1000
0100
0010
0001
0010
0100
,
1000
0000
0001
0000
0100
0010
1000
0001
,
0010
0000
0100
1000
0001
0001
0001
0001
,
1000
0100
0010
0001
0100
0010
0100
0010
,
0100
0001
0010
0100
1000
0010
0100
0010
,
0100
0001
0010
0100
1000
0100
0010
0001
,
0100
0010
1000
0100
0010
0001
0010
0100
,
1000
0001
0010
0100
1000
0001
0010
0001
,
1000
0100
0010
0001
1000
0100
1000
0001
,
0010
0100
1000
0001
1000
0001
0010
0100
,
0010
0001
0010
0100
1000
0001
0100
0001
,
1000
0001
1000
0100
0010
0001
1000
0001
,
0010
0100
1000
0001
1000
0001
0100
0010
,
1000
0100
1000
0100
0010
0001
1000
0001
,
0100
0010
0100
0010
1000
0100
0010
0001
,
1000
0001
0100
0010
1000
0100
0010
0001
,
0010
0100
1000
0001
0100
0001
1000
0100
,
1000
0001
0010
0001
1000
0010
1000
0001
,
0100
0001
0100
0010
1000
0100
0010
0001
,
2002
0000
0000
0000
,
0000
0000
0000
0000
,
0000
0000
0000
0000
,
3003
0000
0000
0000
;
#NOTES:
     dance-single:
     Renard:
     Hard:
     9:
     0.774,0.722,0.139,0.021,0.000:
0000
0000
0000
0000
,
0000
0000
0000
0000
,
0000
0000
0000
0000
,
0000
0000
0000
0000
,
0001
0010
0001
0000
0010
0000
0001
0010
,
0000
0001
0000
0010
0001
0000
0010
0000
,
0100
1000
0100
0000
1000
0000
0100
1000
,
0000
0100
0000
1000
0001
0000
0001
0000
,
0100
1000
0100
0001
0010
1000
0010
0100
,
0001
0100
1000
0010
0100
1000
0100
0001
,
0010
0100
0001
0100
1000
0010
0100
1000
,
0001
1000
0100
0010
0100
0010
0100
0001
,
0010
0100
0001
1000
0001
0100
1000
0010
,
0100
1000
0100
0010
1000
0100
0010
0001
,
0010
1000
0010
0100
0001
0100
1000
0010
,
0100
1000
0100
0001
0010
0100
0001
0100
,
0001
1000
0001
0100
0001
0100
1000
0010
,
0001
0010
0100
1000
0100
0010
0100
0010
,
1000
0100
0001
0100
0001
0100
0010
0001
,
0010
1000
0010
0100
0001
0100
1000
0010
,
0100
1000
0100
0010
1000
0100
0001
0100
,
0010
0001
0010
1000
0010
0100
0001
0100
,
1000
0010
0100
1000
0100
0010
1000
0001
,
0010
0100
0001
0100
1000
0010
0100
0001
,
1000
0000
1100
0000
1001
0000
0100
0010
,
1000
0000
1001
0000
1100
0000
1000
0100
,
0010
0000
0011
0000
0101
0000
0001
0100
,
0010
1010
1001
1100
,
1000
0000
0001
0100
0010
1000
0100
0000
,
0010
0000
0001
0010
0100
1000
0001
0000
,
0100
1001
0100
1001
,
0010
0000
1001
0000
0001
0100
0010
1000
,
0100
0010
0001
0010
1000
0010
0100
0001
,
0100
1000
0010
0100
1000
0100
0010
0000
,
1000
0100
0001
0100
0010
0001
0010
1000
,
0010
0100
0001
0100
1000
0010
0100
0000
,
0001
0010
0100
0001
0100
1000
0010
0100
,
1000
0100
0010
1000
0100
0010
0001
0000
,
0010
0100
0001
0100
1000
0010
0100
1000
,
0100
0010
1000
0100
0010
0001
1000
0000
,
0001
0100
0010
0000
1000
0100
0010
0000
,
0001
0010
0100
0000
1000
0010
0100
0000
,
0001
0100
1000
0100
0001
0100
1000
0100
,
0001
0010
1000
0010
0001
0010
1000
0010
,
0001
0010
0100
0000
1000
0010
0100
0000
,
0010
1000
0100
0000
0010
0001
0010
0000
,
0100
0001
0100
1000
0100
0001
0100
1000
,
0100
1000
0010
0001
0010
1000
0010
0001
,
0010
0001
0010
0100
1000
0000
0100
0000
,
0010
1000
0100
0001
0100
0000
0001
0000
,
0100
0010
0001
0010
0100
1000
0010
0100
,
1000
0100
0010
0100
0001
0010
0100
0001
,
0100
1000
0001
0100
0010
0000
1000
0000
,
0010
0001
0010
0001
1000
0001
1000
0001
,
0010
0100
1000
0100
0010
0100
0010
0100
,
0001
0100
0001
0100
1000
0100
0010
1000
,
0010
0001
0010
1000
0100
0001
0100
0010
,
1000
0010
0001
0100
0010
0001
0010
1000
,
0100
0010
1000
0010
0001
0100
0010
0001
,
1000
0001
0010
0100
0010
0100
0010
1000
,
0100
0010
1000
0001
1000
0010
0001
0100
,
0010
0001
0010
0100
0001
0010
0100
1000
,
0100
0001
0100
0010
1000
0010
0001
0100
,
0010
0001
0010
1000
0100
0010
1000
0010
,
1000
0001
1000
0010
1000
0010
0001
0100
,
1000
0100
0010
0001
0010
0100
0010
0100
,
0001
0010
1000
0010
1000
0010
0100
1000
,
0100
0001
0100
0010
1000
0010
0001
0100
,
0010
0001
0010
0100
0001
0010
1000
0010
,
0100
1000
0100
0001
0100
0010
1000
0010
,
0001
0100
0010
0001
0010
0100
0001
1000
,
0100
0010
1000
0010
0001
0100
0010
1000
,
2002
0000
0000
0000
,
0000
0000
0000
0000
,
0000
0000
0000
0000
,
3003
0000
0000
0000
;
#NOTES:
     dance-single:
     Renard:
     Easy:
     7:
     0.449,0.682,0.000,0.021,0.000:
0000
0000
0000
0000
,
0000
0000
0000
0000
,
0000
0000
0000
0000
,
0000
0000
0000
0000
,
0000
0000
0000
0000
,
0000
0000
0000
0000
,
0000
0000
0000
0000
,
0000
0000
0000
0000
,
1000
0000
0001
0000
0000
0100
0001
0000
,
0010
0000
0001
0000
0000
1000
0100
0000
,
1000
0000
0001
0000
0000
0010
0001
0000
,
1000
0010
0100
0001
,
1000
0000
0100
0000
0000
1000
0001
0000
,
0010
0000
0001
0000
0000
1000
0001
0000
,
0100
0000
0001
0000
0000
1000
0001
0000
,
1000
0010
0100
0001
,
1000
0000
0100
0000
0000
1000
0010
0000
,
1000
0000
0001
0000
0000
0100
0001
0000
,
0010
0000
0001
0000
0000
1000
0001
0000
,
1000
0010
0100
0001
,
1000
0000
0100
0000
0000
1000
0001
0000
,
0010
0000
0001
0000
0000
1000
0001
0000
,
0100
0001
1000
0100
,
0010
0010
0001
0001
,
1000
0000
0100
0000
1000
0100
0000
1000
,
0000
0010
0000
0100
0000
0000
0001
0000
,
0100
0010
1000
0100
,
0010
0000
0001
0000
1000
0001
1000
0000
,
0001
0000
0100
0000
0010
0000
1000
0010
,
0000
0100
0000
0001
0000
0000
1000
0000
,
0100
0010
0001
1000
,
0001
0000
0100
0001
0100
0000
0001
0000
,
1000
0000
0100
0010
0000
0001
0010
0000
,
0100
0000
1000
0010
,
0100
0000
0100
0000
0001
1000
0100
1000
,
0000
0000
0000
0000
,
1000
0000
0001
0100
0000
0010
1000
0000
,
0001
0000
0100
0001
,
1000
0000
0100
0000
0010
0001
1000
0001
,
0000
0100
0001
1000
,
0100
0100
0010
0001
,
1000
1000
0010
0100
,
0010
1000
0010
1000
0010
1000
0010
1000
,
0010
1000
0010
1000
0010
1000
0010
1000
,
0010
0010
1000
0100
,
0010
0010
0001
0100
,
0001
0010
0001
0010
0001
0010
0001
0010
,
0001
0010
0001
0010
0001
0010
0001
0010
,
0100
0100
1000
0010
,
0100
0100
0010
1000
,
0100
0010
0100
0010
0100
0010
0100
0010
,
0100
0010
0100
0010
0100
0010
0100
0010
,
0100
1000
0001
0100
,
0010
1000
0001
0010
,
0100
0010
0100
0010
0100
0010
0100
0010
,
0100
0010
0100
0010
0100
0000
0100
0000
,
0010
0001
1000
0010
,
0100
0001
1000
0100
,
1000
0010
0100
0001
,
0010
0100
1000
0001
,
0100
0010
1000
0010
,
0100
0001
0010
0100
,
0010
0001
1000
0010
,
1000
0001
0100
0010
,
1000
0100
1000
0001
,
0010
0100
1000
0001
,
0100
0010
1000
0100
,
1000
0001
0010
0001
,
1000
0010
0100
0001
,
1000
0100
0010
0001
,
0010
0100
1000
0100
,
0010
0000
0001
0010
0100
1000
0100
0010
,
0002
0000
0000
0000
,
2000
0000
0000
0000
,
0000
0000
0000
0000
,
3003
0000
0000
0000
;
#NOTES:
     dance-single:
     Renard:
     Beginner:
     3:
     0.318,0.361,0.000,0.192,0.000:
0000
0000
0000
0000
,
0000
0000
0000
0000
,
0000
0000
0000
0000
,
0000
0000
0000
0000
,
0000
0000
0000
0000
,
0000
0000
0000
0000
,
0000
0000
0000
0000
,
0000
0000
0000
0000
,
1000
0100
1000
0100
,
1000
0100
1000
0100
,
0010
0001
0010
0001
,
0010
0001
0010
0001
,
1000
0010
1000
0010
,
1000
0010
1000
0010
,
0100
0001
0100
0001
,
0100
0001
0100
0001
,
1000
0100
1000
0100
,
0010
0001
0010
0001
,
1000
0010
1000
0010
,
0100
0001
0100
0001
,
1000
0100
1000
0010
,
1000
0100
1000
0010
,
0100
0001
0010
0001
,
0100
0001
0010
0001
,
1000
0000
1000
0000
,
0001
0000
0001
0000
,
0100
0100
0100
0100
,
0010
0010
0010
0010
,
0100
0000
0100
0000
,
0010
0000
0010
0000
,
1000
1000
1000
1000
,
0001
0001
0001
0001
,
1000
1000
0100
0100
,
1000
0000
1000
0000
,
0001
0001
0010
0010
,
0001
0000
0001
0000
,
1000
1000
0010
0010
,
1000
0000
1000
0000
,
0001
0001
0100
0100
,
0001
0000
0001
0000
,
2000
0000
0200
0000
,
0010
0000
3300
0000
,
0002
0000
0200
0000
,
0010
0000
0303
0000
,
0002
0000
2000
0000
,
0010
0000
3003
0000
,
2000
0000
0002
0000
,
0010
0000
3003
0000
,
0002
0000
0200
0000
,
0010
0000
0303
0000
,
2000
0000
0200
0000
,
0010
0000
3300
0000
,
2000
0000
0002
0000
,
0010
0000
3003
0000
,
0002
0000
2000
0000
,
0010
0000
3003
0000
,
0001
0100
0001
0100
,
0001
0100
0001
0000
,
1000
0010
1000
0000
,
0010
1000
0010
0000
,
0100
0001
0100
0001
,
0100
0001
0100
0000
,
0010
1000
0010
0000
,
1000
0010
1000
0000
,
0001
1000
0001
1000
,
0001
1000
0001
0000
,
0100
0010
0100
0000
,
0010
0100
0010
0000
,
1000
0001
1000
0001
,
1000
0001
1000
0000
,
0010
0100
0010
0000
,
0100
0010
0100
0000
,
0002
0000
0000
0000
,
2000
0000
0000
0000
,
0000
0000
0000
0000
,
3003
0000
0000
0000
;
