#TITLE:C.C.L.M.M.M.M.P.P.B.N.R.R.;
#SUBTITLE:;
#ARTIST:Maximum the Hormone;
#TITLETRANSLIT:;
#SUBTITLETRANSLIT:;
#ARTISTTRANSLIT:;
#CRChallenge:;
#BANNER:chu.png;
#BACKGROUND:chu-bg.png;
#LYRICSPATH:;
#CDTITLE:!cdtitle.png;
#MUSIC:chu.ogg;
#OFFSET:0.000;
#SAMPLESTART:0.810;
#SAMPLELENGTH:12.000;
#SELECTABLE:YES;
#BPMS:0.000=258.000,68.000=263.000,100.000=265.000,113.500=262.940,124.000=268.160,128.000=259.001,132.000=129.500,148.000=129.000,212.000=258.001,244.000=262.001,260.000=263.001,276.000=265.001,308.000=128.500,324.000=257.001,339.000=258.421,353.000=263.821,356.000=263.441;
#STOPS:;
#BGCHANGES:;
#NOTES:
     dance-single:
     Renard:
     Hard:
     11:
     0.905,1.000,0.262,0.019,0.327:
0000
0000
0000
0000
,
0001
0000
0001
0000
1000
0100
0010
0001
,
1000
0000
1000
0001
0000
0001
1000
0100
,
0010
0001
0010
0100
,
1000
0001
0100
0010
0000
1000
0010
1000
,
0001
0000
0100
0000
0010
1000
0100
0010
,
0001
0000
0001
1000
0000
1000
0001
0100
,
0010
1000
0100
0010
,
0001
0010
0100
1000
0000
1000
0001
0000
,
0100
0000
0010
0000
1000
0100
0010
0001
,
0010
0000
0010
0001
0000
0001
0010
0100
,
1000
0000
0001
0000
0100
0010
1000
0010
,
0100
0000
0100
0001
0000
0001
0100
0000
,
0010
0000
1000
0000
0100
0010
0001
0010
,
0100
0000
0100
1000
0000
1000
0001
0100
,
0010
1000
0010
0100
,
0001
0100
0010
1000
0000
1000
0010
0000
,
1000
0000
0001
0010
0100
0010
0001
0000
,
1000
0000
0001
0010
0100
0010
0001
0000
,
1000
0000
0001
0010
0100
0010
0001
0000
,
1000
0101
1010
0101
,
1001
0000
0001
0100
0010
1000
0010
0000
,
0101
0000
0100
0010
1000
0010
0100
0000
,
0101
0000
0100
0010
1000
0010
0100
0000
,
0001
0000
0100
0010
1000
0000
0100
0000
,
1000
0100
0000
0100
0010
0001
0000
0001
,
0100
0010
0000
0010
1000
0100
0000
0100
,
0010
0001
0000
0001
1000
0010
0000
0010
,
0100
0001
0010
0100
1000
0100
0010
0001
,
1000
0010
0000
0010
0100
0001
0000
0001
,
0010
0100
0000
0100
1000
0100
0000
0100
,
0010
0001
0000
0001
0100
0010
0000
0010
,
0100
0001
0010
0100
1000
0100
0010
0001
,
2000
0001
0010
0001
,
0010
0000
0000
0000
0001
3000
0000
0000
1010
0000
0000
1001
0000
0000
0011
0000
,
0011
0000
0011
0000
1002
0000
0000
0000
0100
0000
0000
0000
1000
0000
0000
0003
,
0011
0000
1001
0000
0001
0000
0000
0000
1010
0000
0000
0110
0000
0000
0101
0000
,
0001
0000
0010
0000
0011
0000
0000
0001
1000
0000
0010
0000
0100
0001
0010
0100
,
1000
0000
0100
0000
1100
0000
0000
1000
0100
0000
0010
0000
0001
0000
1000
0000
,
0010
0000
0100
0000
0101
0000
0000
0100
0001
0000
0010
0000
0100
1000
0100
0010
,
0001
0000
1000
0000
1010
0000
0000
0010
0100
0001
0000
0100
0000
0010
1000
0010
,
0100
0000
0001
0000
0010
0000
0100
1000
0100
0000
0010
0000
0001
0000
1000
0010
,
1000
0000
0010
0000
0100
0001
0000
0010
0001
0000
1000
0100
0010
0001
1000
0000
,
0010
0000
0100
0000
0001
0100
0001
0000
1000
0000
0010
0000
1000
0100
1000
0000
,
0100
0000
0010
0000
0001
0010
0001
0000
1000
0000
0010
0100
0001
0000
1000
0000
,
0010
0000
0010
0100
0001
0000
0001
0010
0100
0000
0100
1000
0100
0000
0100
0010
,
0001
0000
0001
1000
0010
0000
0100
0000
1001
0000
0010
0000
0101
0000
0010
0000
,
1001
0000
0010
1000
0010
0000
0100
0010
0100
0000
0001
0100
0001
0000
0010
0001
,
0010
0000
0001
0010
0100
0000
1000
0100
0010
0000
0001
0000
1000
0010
0100
0001
,
0010
0000
0010
0000
0100
1000
0100
0010
0001
0000
0001
0010
0000
0010
0001
1000
,
0100
0000
0010
0000
0001
0000
1000
0000
0010
0100
0000
0001
0000
0100
0001
0000
,
1000
0000
0010
0000
0100
0001
0100
0001
0100
0000
0010
1000
0000
0010
1000
0010
,
1000
0000
0010
0000
0100
0000
0001
0000
0010
0100
1000
0100
0000
0100
1000
0100
,
0010
0000
0010
0000
0001
1000
0010
0100
,
0001
0000
0001
0100
0000
0100
0010
1000
,
0010
0000
0100
0000
0001
0010
0100
0000
,
1000
0100
0010
0001
0000
0001
1000
0000
,
0010
0000
0100
0000
0001
1000
0010
0100
,
0001
0000
0001
0100
0000
0100
0001
1000
,
0010
0100
0001
0010
,
0100
1000
0100
0010
0000
0010
0001
0000
,
1000
0000
0010
0100
0001
0010
0100
0000
,
1100
0000
0100
0010
0001
1000
0010
0000
,
1010
0000
0010
0100
0001
0010
0100
0000
,
1000
0000
0100
0010
0001
0000
1000
0010
,
0100
0000
0001
0100
0010
1000
0010
0000
,
1010
0000
0010
0100
0001
0010
0100
0000
,
0110
0000
0100
0010
0001
1000
0010
0000
,
1000
0010
0100
0001
,
0010
0001
0010
0001
0010
0001
0010
0001
,
1000
0001
1000
0001
1000
0001
1000
0001
,
1000
0010
1000
0010
1000
0010
1000
0010
,
1000
0100
0010
0001
1000
0100
0010
0001
,
1000
0010
1000
0010
1000
0010
1000
0010
,
1000
0100
1000
0100
1000
0100
1000
0100
,
0010
0001
0010
0001
0010
0001
0010
0001
,
1000
0010
0100
0001
1000
0010
0100
0001
,
1000
0000
1000
0000
0010
1000
0010
1000
0001
0000
0001
1000
0000
1000
0001
0010
,
0001
0000
1000
0000
0010
0000
0100
0000
0001
0000
0001
1000
0000
1000
0010
0000
,
0100
0000
0100
0000
0001
1000
0001
1000
0001
0000
0010
0001
0000
1000
0010
0100
,
0001
0000
1000
0000
0010
0000
1000
0000
0001
0010
0001
1000
0000
0001
1000
0001
,
1000
0010
0100
0001
0010
0100
1000
0100
,
0010
0001
1000
0010
0100
0001
0010
0001
,
1000
0100
0010
0001
1000
0010
0100
0001
,
0010
0100
1000
0100
0000
0100
1000
0000
,
0100
0010
0001
1000
0010
0100
0001
0010
,
0100
1000
0100
0010
0001
1000
0010
0100
,
0001
0010
0100
1000
0100
0010
0001
1000
,
0010
0100
0001
0010
0000
0010
0001
1000
,
0100
0000
0100
0000
1000
0100
0010
0001
,
1000
0000
0100
1000
0000
0001
0010
0100
,
1000
0000
0000
0000
;
#NOTES:
     dance-single:
     Renard:
     Medium:
     9:
     0.594,0.723,0.093,0.037,0.000:
0000
0000
0000
0000
,
0001
0000
1000
0000
0100
0000
0010
0001
,
0010
0000
0000
0100
0000
0000
1000
0000
,
0010
0100
0100
0010
,
1000
0000
0000
0100
0000
0000
0010
0000
,
0001
0000
0010
0000
0100
0000
1000
0100
,
1000
0000
0000
0001
0000
0000
0100
0000
,
0010
1000
0100
0010
,
0001
0000
0001
1000
0000
1000
0010
0000
,
0100
0000
0001
0000
0100
0000
0010
1000
,
0010
0000
1000
0100
0000
0000
0010
0000
,
0001
0010
0100
1000
,
0001
0000
0000
0100
0000
0000
0010
0000
,
1000
0000
0100
0000
0010
0000
0001
1000
,
0001
0000
0100
0010
0000
0000
1000
0000
,
0100
0010
0001
1000
,
0001
0000
0000
0100
0000
0000
0010
0000
,
1000
0000
0100
0000
0010
0000
0001
0010
,
0001
0010
0100
1000
,
1100
0000
0010
0000
0100
0000
0001
0100
,
0001
0100
0010
1000
,
0100
0000
0010
0000
0001
0000
1000
0010
,
1000
0001
0100
0010
,
1100
0000
1000
0000
0100
0000
1000
0001
,
1000
0001
0100
0010
,
1000
0100
0000
0000
0100
0010
0000
0000
,
0010
0001
0000
0000
0001
0100
0000
0000
,
0100
0010
0000
0000
0010
0000
1000
0000
,
1100
0000
1100
0000
,
1000
0100
0000
0000
0100
0010
0000
0000
,
0010
0001
0000
0000
0001
1000
0000
0000
,
1000
0010
0000
0000
0010
0100
0000
0000
,
0202
0000
0000
0000
0000
0303
0000
0000
,
0001
0100
0001
0100
0001
0000
0001
0000
,
0100
0001
0100
0001
0100
0000
0100
0000
,
0001
0100
0001
0100
0001
0000
0001
0000
,
0100
0001
0100
0001
0100
0000
0001
0000
,
0101
0000
1010
0000
1000
0100
0010
0001
,
0100
0000
1001
0000
0001
0010
0100
1000
,
0010
0000
1001
0000
1000
0010
0100
0001
,
0010
0000
1001
0000
0001
0010
0100
1000
,
0010
0100
0010
0100
0001
0100
0001
0100
,
0010
0100
0001
0100
0010
1000
0100
0010
,
0001
0010
0001
0010
0100
0010
0100
0010
,
0001
0010
0100
0010
0001
0010
0100
1000
,
0001
0100
1000
0100
0001
0010
1000
0010
,
0001
0100
1000
0100
0001
0100
0010
1000
,
0100
0001
0100
1000
0010
0001
0010
1000
,
0100
0010
0001
0010
0200
0000
2300
0000
,
3001
0000
0001
0100
0010
0000
0010
1000
,
0100
0000
0100
0000
0010
0001
0010
0100
,
1000
1000
0010
0010
,
0100
0000
0100
0000
0001
1000
0001
1000
,
0001
0000
0100
0000
0001
0000
0100
0001
,
0100
0000
0000
0001
0000
0000
1000
0000
,
0100
0010
0010
0001
,
0010
0000
0000
0100
0000
0000
1000
0000
,
0010
0000
0100
0000
0001
0000
1000
0100
,
1000
0000
0000
0001
0000
0000
0010
0000
,
0100
1000
0001
0100
,
0010
0000
1000
0010
0000
1000
0100
0000
,
1000
0000
0001
0000
0010
0000
0001
0010
,
0001
0000
0010
0000
0100
0000
1000
0100
,
1000
0000
0001
0000
0100
0000
0010
0100
,
0010
1000
0100
0010
,
0001
0000
0010
0000
0100
0000
1000
0100
,
1000
0000
0001
0000
0100
0000
0010
1000
,
0010
0000
1000
0000
0100
0000
0010
0001
,
0010
0100
1000
0001
,
1000
0001
0100
0010
,
1000
0100
0010
0001
,
0010
0100
1000
0001
,
0010
0001
1000
0010
,
0100
0001
1000
0100
,
0010
0001
0010
0100
,
1000
0001
0100
0010
,
1000
0100
0010
0001
,
0010
0000
0010
0001
1000
0000
1000
0100
,
0010
0010
0001
1000
,
0001
0000
0001
0100
0010
0000
0010
1000
,
0100
0000
0100
0010
0001
1000
0001
1000
,
0001
0000
0100
0000
0010
0000
1000
0010
,
1000
0000
1000
0010
0000
0010
1000
0000
,
0100
0010
0001
0010
,
0100
0000
0000
1000
0000
0000
0001
0000
,
0100
0000
0010
0000
1000
0000
0100
1000
,
0100
0000
0100
1000
0000
1000
0001
0000
,
0010
0100
1000
0001
,
0100
0000
0000
0010
0000
0000
1000
0000
,
0100
0000
0010
0000
0001
0010
0100
1000
,
0001
0000
0010
0100
0000
1000
0001
0010
,
0100
0000
0000
0000
;
#NOTES:
     dance-single:
     Renard:
     Easy:
     7:
     0.518,0.765,0.589,0.215,0.000:
0000
0000
0000
0000
,
1000
1000
0001
0100
,
0010
0010
0100
0001
,
1000
0100
0010
0001
,
1000
0000
0001
0000
,
1000
1000
0010
0100
,
0001
0001
0100
0010
,
1000
0001
0001
1000
,
0100
0000
0010
0000
,
0001
0001
0010
0100
,
1000
1000
0001
0100
,
0010
0000
0010
0000
,
1000
0000
1000
0000
,
0001
0001
0010
0100
,
1000
1000
0010
0100
,
0001
0000
0001
0000
,
0100
0000
0100
0000
,
0110
0000
0010
1000
,
1010
0000
0010
0100
,
0110
0000
0100
0001
,
0101
0000
1001
0000
,
1100
0000
1000
0100
,
1100
0000
0100
0010
,
0110
0000
0010
0001
,
0011
0000
1001
0000
,
0001
0100
0001
0100
,
0010
0100
0010
0100
,
0010
1000
0010
1000
,
0100
1000
0100
1000
,
0100
0010
0100
0010
,
0001
0010
0001
0010
,
0001
1000
0001
1000
,
0010
1000
0010
1000
,
0002
0000
0000
0000
,
1000
0000
0000
0000
,
1000
0100
1000
0100
,
1000
0100
1000
0103
,
0101
0110
1001
1010
,
0101
0110
1001
1010
,
0101
0110
1010
1001
,
1100
0110
0011
1001
,
0001
0101
0010
1010
,
2000
0200
0010
3301
,
1001
0110
0001
0110
,
0002
0200
0010
1303
,
0001
0110
0001
0110
,
1000
0110
1000
0110
,
0001
0110
1000
0110
,
1001
1100
1001
0101
,
2002
3003
0220
0330
,
2002
3003
0220
0330
,
0220
0330
2002
3003
,
0220
0330
2002
3003
,
0001
1000
0001
1000
,
0010
0100
0010
0100
,
0001
0100
0010
1000
,
0001
0000
0001
0000
,
1000
0100
1000
0100
,
0010
0001
0010
0001
,
1000
0010
0100
0001
,
1000
0000
0001
0000
,
1000
0100
1000
0100
,
0010
0100
0010
0100
,
0010
0001
0010
0001
,
0100
0010
1000
0100
,
0010
0100
0010
0100
,
0010
0001
0010
0001
,
1000
0100
1000
0100
,
1000
0010
0100
0001
,
1000
0000
1010
0000
,
0010
0000
0110
0000
,
0100
0000
0101
0000
,
2002
0000
3003
0000
,
1001
0000
0101
0000
,
0110
0000
1010
0000
,
1000
0100
0010
0001
,
0010
0100
1000
0001
,
1000
0000
0001
0000
,
0110
0000
1001
0000
,
0001
0001
1000
1000
,
0110
0110
1001
1001
,
0001
0100
0001
0100
,
0010
0100
0010
0100
,
0010
1000
0010
1000
,
0100
1000
0100
1000
,
0100
0010
0100
0010
,
0001
0010
0001
0010
,
0001
1000
0001
1000
,
0010
1000
0001
0100
,
0010
0010
0010
0010
,
0010
0000
0010
0000
,
0010
0000
0000
0000
;
#NOTES:
     dance-single:
     Renard:
     Beginner:
     4:
     0.362,0.510,0.421,0.093,0.000:
0000
0000
0000
0000
,
1000
0000
1000
0000
,
0001
0000
0001
0000
,
0100
0000
0001
1000
,
0001
0000
1000
0000
,
0100
0000
0100
0000
,
0010
0000
0010
0000
,
0001
0000
1000
0001
,
1000
0000
0010
0000
,
0100
0000
0100
0000
,
0001
0000
0001
0000
,
1000
0000
0100
1000
,
0100
0000
1000
0000
,
0010
0000
0010
0000
,
0100
0000
0100
0000
,
0001
0000
1000
0000
,
0001
0010
0001
0000
,
1001
0000
0010
0000
,
1001
0000
0100
0000
,
1001
0000
0010
0000
,
1001
0000
0000
0000
,
1001
0000
0100
0000
,
1001
0000
0010
0000
,
1001
0000
0100
0000
,
1001
0000
0000
0000
,
1001
0000
1010
0000
,
1001
0000
0011
0000
,
1001
0000
1010
0000
,
1001
0000
0000
0000
,
0101
0000
1001
0000
,
1100
0000
1001
0000
,
0101
0000
1001
0000
,
1010
0000
0000
0000
,
0010
0010
0010
0010
,
1010
0010
0010
0010
,
0110
0010
0010
0010
,
1010
0010
0010
0010
,
0101
0110
0000
0010
,
1010
0110
0000
0100
,
0101
0110
0000
0010
,
1010
0110
0000
0100
,
0001
0100
0010
1000
,
0001
0010
1000
0000
,
0001
0100
0010
1000
,
0001
0010
1000
0000
,
0001
0100
1000
0000
,
1000
0100
0001
0000
,
0001
0010
1000
0000
,
1000
0010
0001
0000
,
1010
0000
0101
0000
,
0011
0000
1100
0000
,
0101
0000
1010
0000
,
1100
0000
0011
0000
,
0001
0000
1000
0000
,
0010
0100
0010
0000
,
0100
0000
0001
0000
,
1000
0001
1000
0000
,
0010
0000
0100
0000
,
0001
1000
0001
0000
,
1000
0000
0010
0000
,
0100
0001
0100
0000
,
0001
0000
0001
0000
,
1000
0000
1000
0000
,
0010
0000
0100
0000
,
0110
0000
0000
0000
,
0010
0000
0010
0000
,
1000
0000
1000
0000
,
0001
0000
0001
0000
,
0101
0000
0000
0000
,
0001
0000
1000
0000
,
0010
0000
0100
0000
,
0001
0000
1000
0000
,
1001
0000
0000
0000
,
1000
0000
0100
0000
,
0010
0000
0001
0000
,
1000
0000
0001
0000
,
1001
0000
0000
0000
,
2000
0000
3020
0000
,
0230
0000
0302
0000
,
2003
0000
3200
0000
,
0320
0000
0032
2003
,
3001
1000
0001
1000
,
0001
1000
0001
1000
,
0001
1000
0001
1000
,
0001
1000
0001
1000
,
0001
1000
0001
1000
,
0001
1000
0001
1000
,
0001
1000
0001
1000
,
0001
1000
0001
1000
,
0020
0000
0000
0000
,
0000
0000
0000
0000
,
0030
0000
0000
0000
;
