#TITLE:Brother Madonna;
#SUBTITLE:;
#ARTIST:Kitsune?;
#TITLETRANSLIT:;
#SUBTITLETRANSLIT:;
#ARTISTTRANSLIT:;
#CRChallenge:;
#BANNER:;
#BACKGROUND:;
#LYRICSPATH:;
#CDTITLE:!cdtitle.png;
#MUSIC:brother.ogg;
#OFFSET:0.000;
#SAMPLESTART:60.444;
#SAMPLELENGTH:12.000;
#SELECTABLE:YES;
#BPMS:0.000=135.000;
#STOPS:;
#BGCHANGES:;
#NOTES:
     dance-single:
     Renard:
     Medium:
     9:
     0.630,0.626,0.463,0.000,0.165:
0000
0000
0000
0000
,
0000
0000
0000
0000
,
1000
1000
0100
0010
0001
0001
0010
0100
,
1000
1000
0100
0010
0001
0001
0010
0100
,
1000
0001
0100
0100
0001
1000
0100
0100
,
1000
0001
0010
0010
0001
1000
0010
0010
,
1000
1000
0100
0010
0001
0001
0100
0010
,
1000
1000
0010
0100
0001
0001
0010
0100
,
1000
1000
0100
0010
0001
0001
1000
0010
,
0100
0000
0000
0000
0101
0000
0000
0001
1000
0000
0100
0000
1100
0000
0000
0100
,
1000
0100
0010
0001
1000
0010
0100
0001
,
0000
0000
1000
0000
0100
0010
0001
0000
0000
0000
0011
0000
0110
0000
0000
0000
,
0001
0010
0100
1000
0001
0010
0100
1000
,
0000
0000
0001
0000
0100
0010
1000
0000
0000
0000
1010
0000
0110
0000
0000
0000
,
0010
1000
0100
0010
0001
0010
0000
0010
,
0100
1000
0010
0100
0000
0100
0010
1000
,
0100
0100
0010
0010
0001
0001
1000
0001
,
0000
0110
0110
0110
0110
0110
0110
0110
,
0010
0000
1000
0000
0100
0000
0010
0000
0001
0000
1000
0000
0010
1000
0010
0000
,
1000
0000
0010
0000
0100
0000
0001
0000
0010
0000
0100
0000
1000
0001
1000
0000
,
0001
0100
0010
1000
0001
0100
0001
0010
,
0001
1000
0100
0010
0001
1000
0010
0000
,
0010
0000
0010
0000
1000
0000
1000
0000
0100
0000
0100
0000
0010
0001
0010
0000
,
0000
0000
0100
0000
1000
0000
1000
0000
0010
0000
0010
0000
0100
0001
0100
0000
,
0001
0000
0001
0000
0010
0000
0010
0000
0100
0000
0100
0000
1000
0001
1000
0000
,
0001
0100
0010
1000
0100
0010
0000
0011
,
0100
0000
1000
0000
0010
0000
0100
0000
0001
0000
0010
0000
0100
1000
0100
0000
,
1000
0000
0010
0000
0100
0001
0100
0000
0001
0000
0010
0000
0100
1000
0100
0000
,
1000
0001
0100
0010
1000
0001
0010
0100
,
1000
0000
0001
0000
0100
0010
0100
0000
0000
0000
1010
0000
0101
0000
0000
0000
,
0001
0000
0100
0000
0000
1010
0000
0000
1000
0000
0100
0000
0000
0011
0000
0000
,
0100
0000
1000
0000
0000
0011
0000
0000
0001
0000
0100
0000
0000
1010
0000
0000
,
1000
0000
0100
0000
0000
0011
0000
0000
0100
0000
1000
0000
0000
0101
0000
0000
,
0000
1001
1001
1001
1001
1001
1001
1001
,
0010
0000
1000
0000
0100
0000
0000
0100
1000
0000
0001
0000
0010
0000
0001
0000
,
1000
0000
0010
1000
0000
0000
0101
0000
1010
0000
0000
0000
0000
0000
0000
0000
,
1000
0100
0010
0001
0010
0100
1000
0001
,
0000
0110
0000
1001
0000
1000
0100
0010
,
0001
0000
0010
0000
0100
0000
1000
0001
0000
0010
0000
0000
1000
0000
0000
0000
,
0001
0000
0010
0000
0001
0000
1000
0010
0000
0000
0100
0000
0001
0000
0100
0000
,
0010
1000
0001
0010
0100
1000
0001
0010
,
0000
0011
0011
1100
1100
0011
0011
0000
,
1000
0000
0100
0000
0010
0000
0001
0000
1000
0000
0001
0000
0100
0010
0100
0000
,
0010
0000
1000
0000
0100
0010
0001
0000
0010
0000
0100
0000
1000
0001
1000
0000
,
0001
0100
0010
1000
0001
1000
0100
0010
,
0001
0000
0010
0000
0100
1000
0001
0000
0000
0000
1000
0000
0001
0000
0000
0000
,
0100
0100
0010
1000
0100
0100
0000
0010
,
0001
1000
0010
0100
0000
0001
1000
0010
,
1000
0000
0100
0000
0000
0011
0000
0000
0001
0000
0010
0000
0000
1100
0000
0000
,
1000
0010
0100
0101
0000
0000
0000
0000
;
#NOTES:
     dance-single:
     Renard:
     Hard:
     10:
     0.741,0.735,0.287,0.000,0.386:
0000
0000
0000
0000
,
0000
0000
0000
0000
,
1000
1000
0100
0010
0001
0001
0010
0100
,
1000
1000
0010
0100
0001
0001
0100
0010
,
1000
1000
0100
0010
0001
0001
0010
0100
,
1000
1000
0010
0100
0001
0001
0100
0010
,
1000
1000
0001
0001
0100
0100
0010
0010
,
1000
1000
0001
0001
0100
0100
0010
0010
,
1000
1000
0001
0001
0100
0100
0010
0010
,
1000
0000
0001
0000
0100
0000
0000
0100
0001
0000
1000
0000
1001
0000
0000
0000
,
0001
0000
0100
0001
0100
0000
0001
1000
0001
0000
1000
0100
1000
0000
0001
0010
,
0001
0000
1000
0010
1000
0000
0001
0100
0001
0000
1000
0000
0100
0000
0010
0000
,
0001
0000
1000
0100
1000
0000
0001
0100
0001
0000
1000
0010
1000
0000
0001
0010
,
0001
0010
0100
1000
0001
0100
0010
1000
,
0100
1000
0100
1000
0100
0000
1000
0000
0001
1000
0001
1000
0001
0000
1000
0000
,
0001
0100
0001
0100
0001
0000
0100
0000
0001
0010
0001
0010
0001
0000
0010
0000
,
0100
0010
0100
0000
1000
0100
1000
0000
0001
0010
0001
0000
0010
0100
0010
0000
,
0100
1000
1100
1001
1010
1001
1100
1001
,
1000
0000
0100
0010
0001
0000
0010
0100
1000
0000
0001
0000
0100
0000
0010
0000
,
1000
0000
0100
0010
0001
0000
0010
0100
1000
0000
0001
0000
0100
0000
0010
0000
,
1000
0000
0010
0100
0001
0000
0100
0010
1000
0000
0010
0000
1000
0000
0100
0000
,
1000
0000
0010
1000
0001
0000
0100
0010
1000
0000
0001
0000
1000
0000
0100
0000
,
0010
0000
0001
0010
0100
0000
1000
0000
0001
0000
0100
0000
0010
1000
0100
0000
,
0010
0000
0001
0100
0010
0000
1000
0100
0010
0000
0001
0000
0100
0010
1000
0000
,
0100
0000
1000
0000
0001
0000
0100
0000
0010
0000
1000
0000
0100
0010
0001
0000
,
0110
0010
0011
0010
0110
0010
0011
0000
,
0010
0000
0100
1000
0001
0000
0100
0010
1000
0000
0100
0010
0001
0000
0010
0000
,
0100
0000
1000
0001
1000
0000
0001
0000
0100
0000
0001
1000
0100
0000
1000
0000
,
0001
0000
0100
0010
1000
0000
0001
0010
0100
0000
1000
0000
0001
0000
0100
0000
,
0010
0000
1000
0000
0100
0010
0001
0000
0000
0000
0011
0000
0110
0000
0000
0000
,
0100
0000
1000
0001
0100
0000
0010
0000
1000
0000
0100
0010
0001
0000
0010
0000
,
0100
0000
1000
0001
0100
0000
0010
0000
1000
0000
0100
0010
0001
0000
0010
0000
,
0100
0000
1000
0001
0100
0000
0010
0000
1000
0000
0100
0000
0010
0000
0001
0000
,
0010
0110
0011
0110
1010
0110
0011
0110
,
0010
0000
0001
0010
0100
0000
1000
0001
0100
0000
0010
1000
0100
0000
0010
0001
,
0010
0000
0100
1000
0001
0000
0100
0010
1000
0000
0100
0000
0010
0000
0110
0000
,
0010
0000
0001
0000
0100
0000
0010
1000
0100
0000
0010
0001
0010
0000
0100
1000
,
0001
0000
0100
0010
1000
0000
0100
0000
0010
0000
0001
0000
0010
0000
0011
0000
,
0010
0000
0100
1000
0001
0000
0100
0010
1000
0000
0100
0000
0010
0000
0110
0000
,
0010
0000
0001
0000
0100
0000
0010
1000
0001
0000
0100
0000
0010
0000
1010
0000
,
1000
0000
0100
0000
0010
0000
0001
0010
0100
0000
1000
0000
0001
0000
0101
0000
,
0100
0000
0010
0000
1000
0000
0100
0010
0001
0000
0010
0100
1000
0000
0001
0000
,
0100
0100
0010
1000
0100
0100
0010
0001
,
0100
0100
0010
1000
0100
0100
0010
0001
,
0010
0010
0100
1000
0010
0010
0100
0001
,
0010
0010
0001
0010
0100
1000
0001
0100
,
0010
0000
1000
0000
0100
1000
0100
0000
1000
0000
0001
0000
0100
0001
0100
0000
,
0001
0000
0010
0000
0001
0010
0001
0000
1000
0000
0010
0000
1000
0010
1000
0000
,
0010
0100
0001
0010
0100
1000
0001
0100
,
0010
0000
0010
1001
0000
0000
0000
0000
;
#NOTES:
     dance-single:
     Renard:
     Easy:
     7:
     0.414,0.436,0.121,0.000,0.000:
0000
0000
0000
0000
,
0000
0000
0000
0000
,
1000
0000
0100
1000
0100
0000
1000
0100
,
1000
0000
0100
1000
0100
0000
1000
0100
,
0010
0000
0001
0010
0001
0000
0010
0001
,
0010
0000
0001
0010
0001
0000
0010
0001
,
1000
0001
1000
1001
,
0001
0100
0001
0101
,
0001
1000
0010
1010
,
1001
0101
1001
1100
,
1000
0001
0100
0001
1000
0100
0010
0001
,
1000
0010
0100
0001
0000
0000
1000
0000
,
0001
0010
0100
1000
0100
0010
0001
1000
,
0001
0100
0001
1000
0010
0000
1000
0000
,
0001
0001
0001
0000
,
1000
1000
1000
0000
,
0001
1000
0001
1000
,
0000
0001
0001
0001
0001
0001
0001
0001
,
1000
0000
0100
1000
0100
1000
0100
0000
,
0010
0000
0001
0010
0001
0010
0001
0000
,
1000
0000
0001
1000
0001
1000
0001
0000
,
0101
0110
1010
1001
,
1000
0100
1000
0100
1000
0100
1000
0100
,
0000
0010
0001
0010
0001
0010
0001
0010
,
0000
0001
1000
0001
1000
0001
1000
0001
,
0100
0100
0010
0000
,
1000
0000
0010
0000
0100
0001
0100
0001
,
0000
1000
0001
1000
0000
0001
0001
0000
,
1000
0000
0100
0000
0010
0001
0010
0001
,
0000
1000
0001
1000
0000
0001
0001
0000
,
0100
0010
0100
0010
0100
0010
0000
1000
,
0010
1000
0010
1000
0000
0001
0100
0001
,
1000
0001
0010
0001
1000
0001
0100
0001
,
0000
1000
1000
1000
1000
1000
1000
1000
,
0001
0001
1000
1000
,
0100
1000
0100
1000
,
0001
0001
0100
0100
,
0001
1000
0100
1000
,
0001
0010
0100
1000
,
0001
0001
1000
1000
,
0010
1000
0010
0100
,
0001
1000
1000
1000
1000
1000
1000
1000
,
0001
0001
0100
0100
,
0010
0010
1000
1000
,
0010
0000
1000
0010
1000
0000
0001
0100
,
0001
1000
0100
0010
,
0001
0001
0001
0001
,
1000
1000
1000
1000
,
0001
0001
1000
1000
,
0001
0100
0010
1000
0000
0000
0000
0000
;
#NOTES:
     dance-single:
     Renard:
     Beginner:
     2:
     0.221,0.272,0.000,0.055,0.000:
0000
0000
0000
0000
,
0000
0000
0000
0000
,
0000
0000
0000
0000
,
0000
0000
0000
0000
,
0000
0000
0000
0000
,
0000
0000
0000
0000
,
1000
0100
0010
0000
,
1000
0100
0010
0000
,
0001
0100
0010
0000
,
0001
0100
0010
0000
,
1000
0000
1000
0000
,
0001
0100
0010
1000
,
0001
0000
0001
0000
,
1000
0100
0010
0001
,
1000
0000
1000
0000
,
0001
0010
0100
1000
,
0001
0000
0001
0000
,
1000
0010
0100
0001
,
1000
0100
0000
0100
,
0001
0100
0000
0100
,
0001
0010
0000
0010
,
1000
0010
0000
0010
,
0100
1000
0100
1000
,
0000
0001
0010
0000
,
0001
1000
0001
1000
,
0000
0010
0010
0000
,
2000
0010
0000
0100
,
0000
0001
0000
0010
,
3002
0100
0000
0010
,
0000
1000
0000
0013
,
0010
0001
0010
0001
,
0010
0001
0010
0001
,
1000
0100
1000
0100
,
0020
0100
0100
0100
,
0130
0010
0000
0010
,
0001
1000
0000
1000
,
0001
0100
0000
0100
,
0010
1000
0000
1000
,
0010
0100
0000
0100
,
0001
0010
0000
0010
,
0100
1000
0000
1000
,
0020
0100
1000
0100
,
1030
1000
0010
0100
,
0000
0001
0100
0000
,
0001
0001
0010
0100
,
0000
0010
0001
0000
,
1000
1000
1000
0000
,
0001
0001
0001
0000
,
0100
0100
0010
0010
,
2000
0000
0000
3010
0000
0000
0000
0000
;
