#TITLE:Brother Goes Away;
#SUBTITLE:;
#ARTIST:Hideki Naganuma;
#TITLETRANSLIT:;
#SUBTITLETRANSLIT:;
#ARTISTTRANSLIT:;
#CRChallenge:;
#BANNER:brother.png;
#BACKGROUND:brother-bg.png;
#LYRICSPATH:;
#CDTITLE:;
#MUSIC:brother.ogg;
#OFFSET:0.000;
#SAMPLESTART:27.389;
#SAMPLELENGTH:12.000;
#SELECTABLE:YES;
#BPMS:0.000=140.000;
#STOPS:;
#BGCHANGES:;
#NOTES:
     dance-single:
     Renard:
     Hard:
     10:
     0.674,0.757,0.241,0.121,0.410:
0000
0000
0000
0000
,
0000
0000
0000
0000
,
0000
0000
0000
0000
,
0000
0000
0000
0000
,
0001
1000
0100
0000
1001
0000
1000
0001
0100
0000
0001
0000
1000
0001
0100
0000
,
0001
1000
0100
0000
1001
0000
1000
0001
0100
0000
0001
0000
1001
0000
0000
0000
,
1000
0001
0010
0000
1001
0000
1000
0001
0010
0000
0001
0000
1000
0010
1000
0000
,
0001
1000
0001
0100
0010
0000
1001
0000
,
1000
0000
0100
0000
0101
0000
0000
0000
0100
1000
0010
0000
0001
0000
0000
0000
,
0010
0000
1000
0000
1010
0000
0000
0000
1000
0000
0010
0000
0001
0010
1000
0000
,
1000
0000
0100
0000
0101
0000
0000
0000
0001
0100
1000
0000
0001
0000
0100
0000
,
1000
0100
0001
0010
0100
1000
0001
0000
,
0001
0000
0010
0000
1010
0000
0000
0000
1000
0010
0001
0000
0010
0000
0100
0000
,
0001
0000
0100
0000
1100
0000
0000
0000
1000
0100
0001
0000
0100
0000
1000
0000
,
0010
0000
0001
0000
0011
0000
0000
0000
0001
0010
1000
0000
0010
0000
0100
0000
,
0001
0100
0010
1000
0100
0010
0001
1000
,
1001
0000
0000
0100
0000
0000
1001
0000
0000
0000
1000
0000
0010
0000
0100
0001
,
1000
0100
1100
1000
0000
0001
0100
0010
,
1000
0010
0000
0010
0001
0000
0001
0010
0000
0000
0100
0000
0001
0000
0010
0000
,
0100
0001
0100
1000
0001
0000
1001
0000
,
1000
0000
0000
1001
0000
0000
0100
0000
0000
0000
1001
0000
0000
0000
1000
0010
,
0100
0001
0101
0010
0000
1000
0010
0100
,
0001
1000
0000
0000
0101
0000
0010
1000
0000
0000
0010
0000
1000
0000
0100
0000
,
0010
0001
0000
0000
1100
0000
1000
0001
0000
0000
0100
0000
0010
0000
1000
0000
,
0001
0010
0000
0001
1000
0000
0001
0100
0000
0000
0001
0000
1000
0000
0100
0000
,
1000
0001
0000
1000
0010
0000
1000
0100
0000
0000
1000
0000
0001
0000
0100
0000
,
0001
0010
0000
0001
1000
0000
0001
0100
0000
0000
0001
0000
0100
0000
0010
0000
,
1000
0001
0000
1000
0010
0000
1000
0100
0000
0000
1000
0000
0001
0000
0100
0000
,
0001
1000
0000
0001
0010
0000
0001
1000
0000
0000
0001
0000
0100
0000
0010
0000
,
1000
0001
0000
1000
0100
0000
1000
0010
0000
0000
1000
0000
0001
0000
0100
0000
,
0001
1000
0000
0001
0010
0000
0001
0100
0000
0000
0001
0000
0100
0000
0010
0000
,
1000
0100
0001
0100
0000
2002
3013
0000
,
1000
0001
0000
0100
0010
0000
1000
0010
0000
0000
0100
0000
0001
0000
0010
0000
,
0100
1000
0000
0001
0010
0000
0100
1000
0000
0000
0001
0000
0100
0000
0010
0000
,
1000
0010
0000
0100
0001
0000
1000
0100
0000
0000
1000
0000
0001
0000
0010
0000
,
0100
1000
0000
0001
0010
0000
0100
1000
0001
0000
0100
0000
0010
0000
1000
0000
,
0001
0100
0000
0010
1000
0000
0001
0100
0000
0000
0001
0000
1000
0000
0100
0000
,
0010
0001
0000
1000
0100
0000
0010
0001
0000
0000
1000
0000
0010
0000
0100
0000
,
0001
1000
0000
0100
1000
0000
0001
0010
0000
0000
0100
1000
0001
0000
0100
0000
,
0010
1000
0000
0001
0100
0000
0010
1000
0001
0000
0100
0000
1001
0000
0000
0000
,
1000
1000
2000
0000
0001
0010
0001
3010
,
1000
1000
2000
0000
0001
0010
0001
3010
,
1000
1000
2000
0000
0001
0010
0001
3010
,
1000
1000
0001
0000
0100
0100
0010
1000
,
0001
0001
0002
0000
1000
0100
1000
0103
,
0001
0001
0002
0000
1000
0100
1000
0103
,
0001
0001
0002
0000
1000
0100
1000
0103
,
0001
0001
1000
0000
0010
0010
0100
0001
,
1000
0000
0000
0100
0000
0000
0001
0000
0000
0000
0100
0000
1001
0000
0000
0000
,
1000
0010
0000
0100
0001
0000
1000
0010
0000
0000
1000
0000
0100
0000
0010
0000
,
0001
0010
0000
0100
0010
0000
0100
1000
0000
0000
0001
1000
0100
0000
1000
0000
,
0001
0100
0010
2000
0000
0200
3310
0000
,
0001
0100
0001
1000
0001
0100
0001
1000
0001
0100
0001
1000
0001
0000
0000
0000
,
1000
0100
1000
0001
1000
0100
1000
0001
1000
0100
1000
0001
1000
0000
0000
0000
,
0001
0010
0001
1000
0001
0010
0001
1000
0001
0010
0001
1000
0001
0000
0000
0000
,
1000
0010
1000
0001
1000
0000
0010
0000
0000
0000
2002
0000
3013
0000
0000
0000
;
#NOTES:
     dance-single:
     Renard:
     Medium:
     9:
     0.542,0.561,0.040,0.111,0.252:
0000
0000
0000
0000
,
0000
0000
0000
0000
,
0000
0000
0000
0000
,
0000
0000
0000
0000
,
0001
0100
0000
0000
0000
0000
0010
0100
0000
0000
0010
0000
1000
0000
0000
0000
,
0100
1000
0000
0000
0000
0000
0001
0010
0000
0000
0100
0000
1000
0000
0000
0000
,
0001
0100
0000
0000
0000
0000
0010
1000
0000
0000
0000
0000
0001
0000
1000
0000
,
0100
0001
0100
1000
0000
1001
1001
0000
,
1000
0000
0001
0000
0100
0000
0000
0000
0001
1000
0001
0000
1000
0000
0000
0000
,
0001
0000
1000
0000
0100
0000
0000
0000
1000
0001
1000
0000
0001
0000
0000
0000
,
1000
0000
0001
0000
0010
0000
0000
0000
0001
1000
0001
0000
1000
0000
0010
0000
,
0200
1000
0010
0001
,
0301
0000
1000
0000
0100
0000
0000
0000
1000
0001
1000
0000
0001
0000
0010
0000
,
0001
0000
1000
0000
0010
0000
0000
0000
1000
0001
1000
0000
0001
0000
0100
0000
,
0001
0000
1000
0000
0100
0000
0000
0000
1000
0001
1000
0000
0001
0000
0010
0000
,
2000
0000
0000
0000
0000
0000
3010
0001
,
0100
0000
0000
0010
0000
0000
1000
0000
0000
0000
0001
1000
0001
0000
1000
0000
,
0100
0000
0010
0000
0001
1000
0001
0000
0000
0000
1000
0001
1000
0000
0001
0000
,
0100
0010
1000
0100
0000
0010
0001
1000
,
0010
0100
0001
1000
0000
0001
1001
0000
,
0100
0000
0000
0010
0000
0000
1000
0000
0100
0000
0010
0000
0001
0000
1000
0000
,
0010
0000
0100
0000
0001
0000
1000
0000
0000
0000
0001
0010
0100
0000
0000
0000
,
1000
0001
0100
0010
0000
1000
0010
0100
,
0001
0000
0001
1000
0100
0010
0001
0000
,
1000
0000
0000
1000
0001
0000
0100
0000
0010
0000
0000
0010
1000
0000
0100
0000
,
0010
0000
0001
0000
0010
0000
0100
0000
1000
0001
1000
0000
0001
1000
0001
0000
,
1000
0000
0000
1000
0001
0000
0100
0000
0010
0000
0000
0010
1000
0000
0100
0000
,
0010
0000
0001
0000
1000
0000
0100
1000
0100
0000
1000
0001
1000
0000
0001
0100
,
0001
0000
0100
0000
0010
0000
1000
0000
0100
0000
0010
0000
0001
0000
1000
0001
,
1000
0000
0001
0000
0100
0000
0010
0000
1000
0000
0001
0000
0010
0000
0100
0010
,
0100
0010
0100
1000
0001
0100
0010
1000
,
0001
0001
0001
0002
0000
2000
3013
0000
,
0001
0100
0000
0000
0000
0000
0010
1000
0000
0000
1000
0000
0100
0000
0000
0000
,
1000
0100
0000
0000
0010
0000
0001
0000
0000
0000
1000
0000
0010
0000
0100
0000
,
0001
0100
0000
0000
0000
0000
0010
1000
0000
0000
0001
0000
0100
0000
0010
0000
,
1000
0100
0000
0010
0000
0000
0001
1000
0001
0000
0000
0000
1000
0000
0000
0000
,
0010
0100
0000
0000
0001
0000
0100
0010
0000
0000
1000
0000
0010
0000
0000
0000
,
0100
0010
0000
0000
1000
0000
0010
0000
0000
0000
0100
0000
0010
0000
1000
0000
,
0100
0010
0000
0000
0001
0000
0010
0100
0000
0000
0010
0000
0100
0000
1000
0000
,
0001
0100
0000
0010
0000
0000
1000
0001
1000
0000
0001
0000
0100
0000
0000
0000
,
0010
1000
0100
0000
0010
0010
0010
0010
,
0001
0100
0010
0000
0100
0100
0100
0000
,
0010
1000
0100
0000
0010
0010
0010
0010
,
0002
2003
3002
2003
,
3001
0100
0010
0000
0100
0100
0100
0100
,
0010
1000
0100
0000
0010
0010
0010
0000
,
0001
0100
0010
0000
1000
1000
1000
0010
,
0100
0000
0001
0010
0100
1000
0001
0100
,
0010
0000
0000
1000
0000
0000
0100
0000
0000
0000
0001
0000
0100
0000
0000
0000
,
1000
0001
0000
0000
0100
0000
0010
1000
0000
0000
0000
0000
0001
0000
0000
0000
,
0100
0001
1000
0100
0010
0001
1000
0010
,
0100
0100
0010
0020
0000
1030
0010
0000
,
1000
0100
0010
0001
0000
1000
0010
0100
,
0001
0000
0000
1000
0000
0000
0100
0000
0000
0000
0010
0000
0001
0000
1000
0000
,
0010
0000
0100
0000
0001
0000
1000
0000
0000
0000
0100
0010
0001
0000
1000
0000
,
0001
0100
0010
1000
0000
2002
3013
0000
;
#NOTES:
     dance-single:
     Renard:
     Easy:
     5:
     0.300,0.309,0.191,0.171,0.000:
0000
0000
0000
0000
,
0000
0000
0000
0000
,
0000
0000
0000
0000
,
0000
0000
0000
0000
,
0001
0000
0000
1000
0000
0000
0010
0000
,
1000
0000
0000
0001
0000
0000
0010
0000
,
0001
0000
0000
1000
0000
0000
0010
0000
,
1000
0001
1000
0001
0000
1000
0001
0000
,
1000
1000
1000
0000
0001
0000
0001
0000
,
0100
0100
0100
0000
0010
0000
0010
0000
,
1000
1000
1000
0000
0001
0000
0001
0000
,
0220
0000
0000
0330
,
0001
0001
0001
0000
1000
0000
1000
0000
,
0010
0010
0010
0000
0100
0000
0100
0000
,
0001
0001
0001
0000
1000
0000
1000
0000
,
0220
0000
0000
0330
,
0010
0000
0100
0010
0000
0000
0110
0000
,
0001
0000
1000
0001
0000
0000
1001
0000
,
1000
0100
0010
0001
,
2000
0000
0000
0002
0000
0000
3003
0000
,
1000
0000
0000
1010
0000
0000
0010
0000
,
0100
0000
0000
0101
0000
0000
0001
0000
,
1000
0000
0100
0010
0000
0000
0001
0000
,
1000
0000
0001
0100
0001
0000
0100
0001
,
0100
0100
0010
0010
,
1000
1000
0001
0001
,
1000
1000
0100
0100
,
0010
0010
0001
0001
,
1000
1000
0010
0010
,
0100
0100
0001
0001
,
1000
0100
1001
0000
,
2002
0000
0000
3013
,
1000
0000
0000
0001
0000
0000
0110
0000
,
0001
0000
0000
1000
0000
0000
0110
0000
,
1000
0000
0000
0001
0000
0000
0110
0000
,
0001
0000
0000
1000
0000
0000
0110
0000
,
0010
0000
0000
0100
0000
0000
1001
0000
,
0100
0000
0000
0010
0000
0000
1001
0000
,
0010
0000
0000
0100
0000
0000
1001
0000
,
0100
0000
0000
0010
0000
0000
1001
0000
,
2000
0000
0010
0010
,
3002
0000
0010
0010
,
2003
0000
0010
0000
,
0002
0000
0000
0000
,
3000
0000
0010
0010
,
2003
0000
0010
0010
,
0002
0000
0010
0000
,
0200
0000
0000
3303
,
1000
0000
0000
0001
0000
0000
0000
0000
,
0110
0000
0000
1001
0000
0000
0010
0000
,
0100
0000
0000
1001
0000
0000
0010
0000
,
1000
0000
0000
0001
0000
0100
0010
0000
,
1000
1000
0010
0010
,
0100
0100
0001
0001
,
1000
0100
0010
0000
,
0002
0000
0000
2000
0000
0000
3013
0000
;
#NOTES:
     dance-single:
     Renard:
     Beginner:
     3:
     0.223,0.252,0.091,0.151,0.000:
0000
0000
0000
0000
,
0000
0000
0000
0000
,
0000
0000
0000
0000
,
0000
0000
0000
0000
,
0001
0000
0001
1000
,
0010
0000
0010
0000
,
0010
0000
0010
0100
,
0002
0000
0000
1003
,
1000
1000
0010
0000
,
0100
0100
0001
0000
,
0010
0010
0100
0000
,
2002
0000
0000
3003
,
1000
1000
0001
0000
,
0100
0100
0010
0000
,
1000
1000
0001
0000
,
0220
0000
0000
0330
,
1000
0000
0100
0000
,
0001
0000
0010
0000
,
1000
0100
0001
0010
,
2000
0000
0002
0003
,
3001
0000
0100
0000
,
1000
0000
0010
0000
,
0001
0100
1000
0010
,
0002
0000
2000
0003
,
3001
1000
0000
1000
,
0001
1000
0000
1000
,
0010
0100
0000
0100
,
0010
0100
0000
0100
,
0001
1000
0000
1000
,
0001
1000
0000
1000
,
0010
0100
0000
0100
,
0002
0000
0000
0013
,
0001
0000
0001
1000
,
0010
0000
0010
0100
,
0001
0000
0001
1000
,
0100
1000
0001
0000
,
1000
0000
1000
0001
,
0010
0000
0010
0001
,
1000
0000
1000
0010
,
1000
0001
0100
0000
,
0110
0000
0000
0000
,
1001
0000
0000
0000
,
0110
0000
0000
0000
,
2002
0000
0000
3003
,
0010
0010
0000
0000
,
0100
0100
0000
0000
,
0001
0001
0000
0000
,
2000
0000
0000
0000
,
3010
0000
0000
1001
,
0110
0000
1000
0001
,
0100
0000
0100
0000
,
0010
0000
0000
1001
,
1000
0001
0100
0010
,
1000
0100
0010
0001
,
0100
0010
1000
0002
,
2000
0000
0000
3013
;
