#TITLE:Breakneck Bombing Run (3mix);
#SUBTITLE:;
#ARTIST:MGD-Crew;
#TITLETRANSLIT:;
#SUBTITLETRANSLIT:;
#ARTISTTRANSLIT:;
#CRChallenge:;
#BANNER:capacity-banner.avi;
#BACKGROUND:capacity-bg.png;
#LYRICSPATH:;
#CDTITLE:!cdtitle.png;
#MUSIC:capacity.ogg.ogg;
#OFFSET:0.005;
#SAMPLESTART:10.647;
#SAMPLELENGTH:12.000;
#SELECTABLE:YES;
#DISPLAYBPM:180.000;
#BPMS:0.000=180.000,256.000=200.000;
#STOPS:;
#BGCHANGES:;
#NOTES:
     dance-single:
     Renard:
     Medium:
     9:
     0.594,0.593,0.305,0.016,0.012:
0000
0000
0000
0000
,
0000
0000
0000
0000
,
0000
0000
0000
0000
,
0000
0000
0000
0000
,
1000
1000
0100
0010
0001
1000
0001
1000
,
0001
0000
1000
0001
0010
0100
1000
0000
,
0001
0001
0010
0100
1000
0001
0100
0010
,
1000
0000
0010
1000
0001
0100
0001
0000
,
1000
0000
1000
0100
0000
0100
0010
0000
,
0001
0010
0100
1000
0001
0000
1001
0000
,
0001
0100
0010
1000
0000
1000
0010
0000
,
0100
0010
1000
0100
0010
0000
0110
0000
,
0010
0000
0010
0001
0000
0001
1000
0000
,
0001
0010
0100
1000
0001
0000
1001
0000
,
1000
0010
0100
0001
0000
0001
0100
0000
,
0001
0100
0010
1000
0001
0000
1001
0000
,
1000
0100
0010
0100
1000
0001
0010
0000
,
0001
0010
0100
1000
0001
0000
0100
0000
,
0001
0100
0010
0100
0001
1000
0010
0000
,
1000
0010
0100
0001
1000
0000
1001
0000
,
1000
0100
0010
0100
1000
0001
0010
0000
,
0001
0010
0100
1000
0001
0000
0101
0000
,
0001
0100
0010
1000
0100
0010
0001
0000
,
0010
0100
1000
0001
0100
0000
0110
0000
,
0010
0000
0010
1000
0000
1000
0010
0000
,
1000
0010
0100
0001
0010
0100
1000
0000
,
0001
0000
0001
0010
0000
0010
0001
0000
,
0010
0100
1000
0001
0100
0010
1000
0000
,
0001
0000
0001
1000
0000
1000
0100
0000
,
0010
0001
0010
0100
1000
0001
0100
0000
,
0001
0000
0001
1000
0000
1000
0100
0000
,
0010
0001
0010
0100
1000
0000
1001
0000
,
1000
0000
1000
0000
0001
0000
0000
0100
,
0010
1000
0001
0000
0101
0000
1001
0000
,
1100
0000
0011
0000
1100
0000
0000
1000
,
0100
0010
0001
0000
1000
0000
1000
0000
,
0001
0000
0001
0000
0100
0010
0000
1000
,
0010
0100
0001
0000
1001
0000
0000
0000
,
1100
0000
0011
0000
1001
0000
0000
0001
,
0100
0010
1000
0000
1001
0000
1001
0000
,
0001
0010
0100
1000
0001
0010
0100
0000
,
0000
0010
0100
0010
0001
0000
0010
0000
,
0100
1000
0100
0010
0100
0000
1000
0000
,
0010
1000
0001
0100
0010
0000
1000
0000
,
0010
0100
0010
1000
0001
0100
0010
0000
,
0000
0100
0010
1000
0010
0000
0100
0000
,
0010
1000
0100
0010
0001
0000
0010
0000
,
0001
0010
0100
1000
0001
0000
1001
0000
,
1000
0100
0010
0001
1000
0001
0100
0000
,
0001
0100
0010
1000
0001
0000
1001
0000
,
1000
0100
1000
0010
1000
0000
1010
0000
,
1000
0010
0100
0001
0010
0000
0011
0000
,
0001
0010
0100
1000
0001
0100
0001
0000
,
0100
0001
1000
0100
1000
0000
1100
0000
,
1000
0100
0010
0001
1000
0000
1001
0000
,
0001
0010
0100
1000
0001
0000
1001
0000
,
1000
0000
0000
0000
1000
0000
0000
0000
0001
0000
0100
0000
0000
0000
0001
1000
,
0001
1000
0100
0000
1001
0000
0000
0000
,
0001
0000
0000
0000
0001
0000
0000
0000
1000
0000
0010
0000
0000
0000
1000
0001
,
1000
0001
0010
0000
1001
0000
0000
0000
,
1000
0000
0000
0000
1000
0000
0000
0000
0001
0000
0100
0000
0000
0000
0001
1000
,
0001
1000
0100
0000
2002
0000
0000
0000
,
3013
MMMM
1001
MMMM
,
1001
0000
MMMM
0000
0001
1000
0000
1000
,
0001
0100
0010
1000
0100
0010
0001
0010
,
0100
1000
0001
0100
0010
1000
1010
0000
,
1000
0100
0010
0001
0010
0100
1000
0001
,
0100
0010
1000
0001
0100
0001
0101
0000
,
0001
0100
0010
1000
0100
0010
0001
0010
,
0100
1000
0001
0100
0010
1000
1010
0000
,
1000
0010
0100
0001
0010
0100
1000
0100
,
0010
0001
0100
0001
0010
0000
1001
0000
,
0001
0010
0100
1000
0001
0100
0010
1000
,
0100
0010
0100
1000
0001
0010
0100
0010
,
0001
0100
0010
1000
0100
0010
0001
0100
,
0010
1000
0100
0010
0100
1000
0001
0010
,
0100
1000
0001
0100
0010
1000
0100
0010
,
0100
1000
0001
0100
0010
1000
0100
0010
,
0100
1000
0001
0100
0010
1000
0010
0100
,
0001
0010
0100
1000
0001
0100
1010
0000
,
1001
0000
0000
0000
;
#NOTES:
     dance-single:
     Renard:
     Hard:
     10:
     0.633,0.791,0.264,0.016,0.161:
0000
0000
0000
0000
,
0000
0000
0000
0000
,
0000
0000
0000
0000
,
0000
0000
0000
0000
,
0001
0001
0010
0100
1000
0001
1000
0001
,
1000
0000
0001
1000
0100
0010
0001
0000
,
1000
1000
0100
0010
0001
1000
0010
0100
,
0001
0000
0100
0001
1000
0010
1000
0000
,
0001
0000
0001
0010
0000
0010
0100
0000
,
1000
0100
0010
0001
1000
0000
1001
0000
,
1000
0010
0100
0001
0000
0001
0100
0000
,
0010
0100
0001
0010
0100
0000
0110
0000
,
0100
0000
0100
1000
0000
1000
0001
0000
,
1000
0100
0010
0001
1000
0000
1001
0000
,
0001
0100
0010
1000
0000
1000
0010
0000
,
1000
0010
0100
0001
1000
0000
1001
0000
,
0001
0010
0100
0010
0001
1000
0100
0000
,
1000
0100
0010
0001
1000
0000
0010
0000
,
1000
0010
0100
0010
1000
0001
0100
0000
,
0001
0100
0010
1000
0001
0000
1001
0000
,
0001
0010
0100
0010
0001
1000
0100
0000
,
1000
0100
0010
0001
1000
0000
1010
0000
,
1000
0010
0100
0001
0010
0100
1000
0000
,
0100
0010
0001
1000
0010
0000
0110
0000
,
0100
0000
0100
0001
0000
0001
0100
0000
,
0001
0100
0010
1000
0100
0010
0001
0000
,
1000
0000
1000
0100
0000
0100
1000
0000
,
0100
0010
0001
1000
0010
0100
0001
0000
,
1000
0000
1000
0001
0000
0001
0010
0000
,
0100
1000
0100
0010
0001
1000
0010
0000
,
1000
0000
1000
0001
0000
0001
0010
0000
,
0100
1000
0100
0010
0001
0000
1001
0000
,
0001
0000
0001
0000
1000
0000
0000
0010
,
0100
0001
1000
0000
1010
0000
1001
0000
,
0011
0000
1100
0000
0011
0000
0000
0001
,
0010
0100
1000
0000
0001
0000
0001
0000
,
1000
0000
1000
0000
0010
0100
0000
0001
,
0100
0010
1000
0000
1001
0000
0000
0000
,
0011
0000
1100
0000
1001
0000
0000
1000
,
0010
0100
0001
0000
1001
0000
1001
0000
,
1000
0100
0010
0001
1000
0100
0010
0000
,
0000
0100
0010
0100
1000
0000
0100
0000
,
0010
0001
0010
0100
0010
0000
0001
0000
,
0100
0001
1000
0010
0100
0000
0001
0000
,
0100
0010
0100
0001
1000
0010
0100
0000
,
0000
0010
0100
0001
0100
0000
0010
0000
,
0100
0001
0010
0100
1000
0000
0100
0000
,
1000
0100
0010
0001
1000
0000
1001
0000
,
0001
0010
0100
1000
0001
1000
0010
0000
,
1000
0010
0100
0001
1000
0000
1001
0000
,
0001
0010
0001
0100
0001
0000
0101
0000
,
0001
0100
0010
1000
0100
0000
1100
0000
,
1000
0100
0010
0001
1000
0010
1000
0000
,
0010
1000
0001
0010
0001
0000
0011
0000
,
0001
0010
0100
1000
0001
0000
1001
0000
,
1000
0100
0010
0001
1000
0000
1001
0000
,
0001
0000
0000
0000
0001
0000
0000
0000
1000
0000
0010
0000
0000
0000
1000
0001
,
1000
0001
0010
0000
1001
0000
0000
0000
,
1000
0000
0000
0000
1000
0000
0000
0000
0001
0000
0100
0000
0000
0000
0001
1000
,
0001
1000
0100
0000
1001
0000
0000
0000
,
0001
0000
0000
0000
0001
0000
0000
0000
1000
0000
0010
0000
0000
0000
1000
0001
,
1000
0001
0010
0000
2002
0000
0000
0000
,
3103
MMMM
1001
MMMM
,
1001
0000
MMMM
0000
1000
0001
0000
0001
,
1000
0000
0100
1000
0100
0000
1000
0001
1000
0000
0001
0100
0001
0000
0100
0000
,
0010
1000
0100
0010
0001
1000
0001
0000
,
1000
0000
0001
0010
0001
0000
1000
0010
1000
0000
0001
0100
0001
0000
1000
0000
,
0100
0010
0001
1000
0010
0100
0001
0000
,
1000
0000
0100
1000
0100
0000
1000
0001
1000
0000
0001
0100
0001
0000
0100
0000
,
0010
1000
0100
0010
0001
1000
0001
0000
,
1000
0000
0001
0010
0001
0000
1000
0010
1000
0000
0001
0100
0001
0000
1000
0000
,
0100
0010
0001
1000
0010
0100
0001
0000
,
1000
0000
0001
0100
0001
0000
1000
0100
1000
0000
0001
0010
0001
0000
1000
0010
,
1000
0000
0001
0100
0001
0000
1000
0100
1000
0000
0100
0000
0010
0000
0001
0000
,
1000
0000
0010
1000
0010
0000
1000
0001
1000
0000
0001
0010
0001
0000
1000
0100
,
1000
0000
0001
0100
0001
0000
1000
0010
1000
0000
0001
0000
0010
0000
0100
0000
,
1000
0000
0010
1000
0010
0000
1000
0001
1000
0000
0001
0010
0001
0000
1000
0100
,
1000
0000
0001
0100
0001
0000
1000
0010
1000
0000
0001
0000
0010
0000
0100
0000
,
1000
0000
0001
0100
0001
0000
1000
0100
1000
0000
0001
0010
0001
0000
1000
0010
,
1000
0000
0001
0100
0001
0000
1000
0100
0010
0000
0001
0000
1000
0000
0010
0000
,
1001
0000
0000
0000
;
#NOTES:
     dance-single:
     Renard:
     Easy:
     6:
     0.400,0.395,0.016,0.000,0.000:
0000
0000
0000
0000
,
0000
0000
0000
0000
,
0000
0000
0000
0000
,
0000
0000
0000
0000
,
1100
0000
0000
1000
,
0001
0000
0000
0100
,
0001
0000
0010
0001
,
1000
0010
1000
1000
,
0001
0000
0001
0100
0000
0100
0001
0000
,
1000
0100
0010
0001
,
1000
0000
1000
0010
0000
0010
1000
0000
,
0001
0100
0010
1000
,
0100
0000
0100
0010
0000
0010
0100
0000
,
0010
0001
1000
0010
,
0100
0000
0100
0001
0000
0001
1000
0000
,
0100
0010
0001
1000
,
0001
0000
0100
0001
0000
0001
0100
0000
,
0001
1000
0100
1000
,
0010
0000
0010
1000
0000
1000
0010
0000
,
0100
0001
0010
0100
,
1000
0000
1000
0001
0000
0001
1000
0000
,
0001
0100
0010
1000
,
0001
0000
0010
0000
0001
1000
0001
0000
,
1000
0100
1000
1000
,
0001
0000
0100
0000
0001
0100
0001
0000
,
1000
0000
0100
0000
1000
0100
1000
0000
,
0001
0000
0010
0000
0001
0010
0001
0000
,
1000
0000
0010
0000
1000
0010
1000
0000
,
0001
0000
0100
0000
0001
0100
0001
0000
,
1000
0000
0100
0000
1000
0100
1000
0000
,
0001
0000
0010
0000
0001
0010
0001
0000
,
1000
0000
0010
0000
1000
0010
1000
0000
,
0001
0100
0010
0100
,
1000
0100
0010
0100
,
0001
0010
0100
0010
,
1000
0010
0100
0010
,
0001
1000
0010
1000
,
0100
1000
0010
1000
,
0001
0100
0001
0010
,
0001
0001
1000
0001
,
1000
1000
0100
0100
,
0000
0010
0001
0010
0001
0000
0010
0000
,
0001
0001
0100
0100
,
0010
1000
0010
1000
0010
0000
1000
0000
,
0100
0100
0010
0010
,
0000
0001
1000
0001
1000
0000
1000
0000
,
0001
0100
0010
0010
,
1000
0010
1000
0010
1000
0000
0010
0000
,
0100
0000
0001
0000
1000
0100
1000
0000
,
0001
0000
0010
0001
1000
0000
0001
0000
,
1000
0000
0100
0000
1000
0001
1000
0000
,
0001
0000
0100
0000
0001
1000
0001
0000
,
1000
0000
0100
0000
0010
0001
0010
0000
,
0000
0100
1000
0100
1000
0000
0001
0000
,
0100
0000
0010
0000
1000
0001
1000
0000
,
0001
0000
0100
0000
0010
1000
0010
0000
,
1000
0100
0000
0100
,
0000
0000
0100
0000
0000
0010
0001
0000
,
0000
1000
0000
1000
,
0000
0000
0010
0000
0100
0001
0000
0100
,
0010
1000
0000
0010
,
0000
0000
1000
0000
0000
0010
0010
0000
,
0000
0100
0000
0001
,
0000
0000
1000
0000
0100
1000
0000
0100
,
1000
1000
0001
0001
,
0100
0000
0001
0000
1000
0001
1000
0000
,
0001
0001
0100
0100
,
0010
0000
1000
0000
0001
1000
0001
0000
,
1000
0000
0100
0000
1000
0100
1000
0000
,
0001
0000
0010
0000
0001
0010
0001
0000
,
1000
0000
1000
0010
0000
0010
1000
0000
,
0010
1000
0010
1000
0010
0000
1000
0000
,
0001
0000
0100
0001
0000
0100
0001
0000
,
1000
0100
1000
0100
1000
0000
0001
0000
,
0010
0000
0010
0001
0000
0001
1000
0000
,
0010
0000
0100
0001
0100
0000
0001
0000
,
1000
0000
1000
0100
0000
0100
0010
0000
,
0001
0000
1000
0010
1000
0000
0010
0000
,
0100
0000
0100
0001
0000
0001
1000
0000
,
0100
0000
0010
0001
1000
0000
0001
0000
,
1001
0000
0000
0000
;
#NOTES:
     dance-single:
     Renard:
     Beginner:
     3:
     0.289,0.593,0.074,0.000,0.000:
0000
0000
0000
0000
,
0000
0000
0000
0000
,
0000
0000
0000
0000
,
0000
0000
0000
0000
,
1000
0000
1000
0001
,
0001
0000
0100
0000
,
0010
1000
0010
0000
,
0100
0001
1000
0000
,
0001
0000
0001
0000
,
0100
0100
0100
0000
,
0010
0000
0010
0000
,
1000
1000
1000
0000
,
0010
0000
1000
0000
,
0100
0100
0100
0000
,
0010
0000
0001
0000
,
1000
0001
0100
0001
,
1000
0000
1000
0000
,
0010
0100
0010
1000
,
0001
0000
0001
0000
,
0010
0001
1000
0100
,
1000
0000
1000
0000
,
0001
0010
0001
1000
,
0100
0000
0100
0000
,
1000
0001
0100
0010
,
1000
0000
1000
0000
,
0001
0001
0100
0100
,
0010
0000
0010
0000
,
1000
1000
0001
0010
,
0100
0000
0100
0000
,
0010
0001
1000
1000
,
0001
0000
1000
0000
,
0001
1000
0001
1000
,
0010
0000
0010
0100
,
0001
1000
0001
0000
,
1000
0000
0010
1000
,
0001
0100
0001
0000
,
0010
0000
0001
0000
,
1000
0100
1000
0010
,
0100
0000
0100
0000
,
0001
0001
0001
0000
,
1000
1000
0100
0100
,
0000
0010
0001
1000
,
0001
0001
0100
0000
,
0010
0010
1000
0000
,
0100
1000
0001
0010
,
0000
0001
1000
0010
,
1000
1000
0001
0001
,
0100
0100
0001
0000
,
1000
0001
1000
0001
,
0000
0100
0010
0100
,
0010
1000
0010
1000
,
0001
0100
0001
0100
,
0001
1000
0100
0010
,
0000
0001
1000
0010
,
0100
0001
0100
0010
,
1000
0010
0100
0001
,
1000
0000
0000
0000
,
0001
0000
0000
0000
,
1000
0000
0000
0000
,
0001
0001
0001
0000
,
0100
0000
0000
0000
,
0010
0000
0000
0000
,
0100
0000
0000
0000
,
0010
0010
0010
0000
,
1000
0010
1000
0010
,
0100
0001
0100
0001
,
1000
0100
0010
0001
,
1000
0010
1000
0010
,
0100
0001
0100
0001
,
0010
0001
0010
0001
,
1000
0100
1000
0001
,
0100
0010
1000
0001
,
0100
0010
1000
0010
,
0100
0001
0100
0010
,
1000
0100
0010
0001
,
0010
0100
1000
0100
,
0010
0010
0001
0001
,
1000
1000
0010
0010
,
0110
0110
1001
1001
,
0110
1001
0110
0110
,
1001
0000
0000
0000
;
