#TITLE:Brainstorm;
#SUBTITLE:;
#ARTIST:Dougal & Gammer;
#TITLETRANSLIT:;
#SUBTITLETRANSLIT:;
#ARTISTTRANSLIT:;
#CRChallenge:;
#BANNER:brain-banner.avi;
#BACKGROUND:brain-bg.jpg;
#LYRICSPATH:;
#CDTITLE:;
#MUSIC:brain.ogg;
#OFFSET:0.020;
#SAMPLESTART:33.651;
#SAMPLELENGTH:12.000;
#SELECTABLE:YES;
#DISPLAYBPM:171.000;
#BPMS:0.000=170.765,151.000=256.147,152.000=170.765,248.000=256.147,254.000=170.765;
#STOPS:0.000=0.020
,151.000=0.117
;
#BGCHANGES:;
#NOTES:
     dance-single:
     Renard:
     Hard:
     11:
     0.663,1.000,0.194,0.194,0.604:
0000
0000
0000
0000
,
0000
0000
0000
0000
,
0000
0000
0000
0000
,
0000
0000
0000
0000
,
0000
0000
0000
0000
,
0000
0000
0000
0000
,
0000
0000
0000
0000
,
1000
0000
0000
0100
0000
0000
0010
0000
0000
0001
0000
0000
1000
0000
0000
0100
0000
0000
0010
0000
0000
0001
0000
0000
1000
0000
0000
0000
0000
0000
0001
0000
0000
0000
0000
0000
1000
0000
0000
0000
0100
0000
0000
0000
0010
0000
0000
0000
,
0001
0010
0200
0000
1000
0000
0010
0000
,
0001
1000
0010
0301
,
1000
0100
0020
0000
0001
0000
0100
0000
,
1000
0001
0100
1030
,
1000
0010
0002
0000
0100
0000
0010
0000
,
1000
0100
0010
1003
,
0010
0100
2000
0000
0001
0000
0010
0000
,
3100
0000
0000
0000
0100
1000
0000
0000
0200
0000
0000
0000
0310
0001
0000
0000
,
0000
0000
0010
0000
0000
0010
0000
0000
0001
0010
0001
0010
0000
0000
0000
0000
,
0000
0000
0100
0000
0000
0100
0000
0000
1000
0100
1000
0100
0000
0000
0000
0000
,
0000
0000
1000
0000
0000
1000
0000
0000
0010
1000
0010
1000
0000
0000
0000
0000
,
0000
0000
0001
0000
0000
0001
0000
0000
0100
0001
0100
0001
0000
0000
0000
0000
,
0010
0000
0010
0000
0000
0010
0000
0000
0100
0000
0100
0000
0000
0100
0000
0000
,
1000
0000
1000
0000
0000
1000
0000
0000
0001
0000
0001
0000
0000
0001
0000
0000
,
0100
0010
0100
0010
0100
0010
0100
0010
0100
0010
0100
0010
0100
0010
0100
0010
,
0200
0302
2003
3001
,
1000
0000
0100
0000
0000
1100
0000
0000
1000
0100
0010
0001
0000
0000
1000
0000
,
0000
0000
0001
0000
0000
0000
0010
0000
0000
0001
0000
0100
0000
0010
1000
0000
,
0001
0000
0010
0000
0000
0000
0100
0000
1000
0100
0010
0001
0000
1000
0001
0000
,
0200
0000
0010
0000
0000
0000
0001
0000
0000
0000
0010
0000
0300
0001
1000
0000
,
0000
0000
1000
0000
0000
0011
0000
0000
0001
0010
0100
1000
0000
0000
0001
0000
,
0000
0000
1000
0000
0000
0000
0100
0000
0000
1000
0000
0010
0000
0100
0001
0000
,
0000
0000
0010
0000
0000
0000
0100
0000
1000
0100
0010
0001
0000
1000
0001
0000
,
0200
0000
0010
0000
0000
0000
0301
0000
0100
0010
0100
0010
0100
0010
0100
0010
,
1000
0000
0100
0000
0000
1100
0000
0000
1000
0100
0010
0001
0000
0000
1000
0000
,
0000
0000
0001
0000
0000
0000
0010
0000
0000
0001
0000
0100
0000
0010
1000
0000
,
0001
0000
0010
0000
0000
0000
0100
0000
1000
0100
0010
0001
0000
1000
0001
0000
,
0200
0000
0010
0000
0000
0000
0001
0000
0000
0000
0010
0000
0300
0001
1000
0000
,
0000
0000
1000
0000
0000
0011
0000
0000
0001
0010
0100
1000
0000
0000
0001
0000
,
0000
0000
1000
0000
0000
0000
0100
0000
0000
1000
0000
0010
0200
0000
0000
0000
,
0310
1000
0010
1000
0001
0100
0001
0100
0010
1000
0010
1000
0001
0100
0001
0100
,
0001
0000
0000
1000
0000
0000
0001
0000
0000
1000
0000
0000
0001
0000
0000
1000
0000
0000
0001
0000
0000
1000
0000
0000
0001
0000
0000
0000
0000
0000
0001
0000
0000
0000
0000
0000
1000
0000
0000
0000
0100
0000
0000
0000
0010
0000
0000
0000
,
0001
1000
0001
0100
0001
0010
0001
0010
,
0001
1000
0001
0100
0001
0010
0001
0010
,
0001
1000
0001
0100
0001
0010
0001
0010
,
0001
1000
0001
0100
0001
0000
0011
0000
,
1000
0001
1000
0010
1000
0100
1000
0100
,
1000
0001
1000
0010
1000
0100
1000
0100
,
1000
0001
1000
0010
1000
0100
1000
0100
,
2000
0000
0200
0000
0010
00MM
3301
0000
,
1000
0000
0000
0000
1000
0000
0000
0000
0001
0100
0001
0100
0000
0000
0000
0000
,
0001
0001
1000
1000
,
0001
0000
0000
0000
0001
0000
0000
0000
1000
0100
1000
0100
0000
0000
0000
0000
,
1000
1000
0001
0001
,
1000
0000
0000
0000
1000
0000
0000
0000
0001
0010
0001
0010
0000
0000
0000
0000
,
0001
0001
1000
1000
,
0100
0000
0000
0000
0100
0000
0000
0000
1000
0010
1000
0010
0000
0000
0000
0000
,
2000
0000
0200
0000
0010
00MM
3301
0000
,
1100
0000
0000
0000
1100
0000
0000
0000
0001
0100
0001
0100
0000
0000
0000
0000
,
0011
0011
0101
0101
,
0011
0000
0000
0000
0011
0000
0000
0000
1000
0100
1000
0100
0000
0000
0000
0000
,
1010
1010
0101
0101
,
0001
1000
0001
1000
0001
0000
0000
0000
0100
0010
0100
0010
0100
0000
0000
0000
,
0010
1000
0010
1000
0010
0000
0000
0000
0100
0001
0100
0001
0100
0000
0000
0000
,
2002
0000
0000
0000
,
0000
0000
0000
0000
0000
0000
3003
0000
0001
0100
0010
1000
0001
0100
0010
1000
,
0001
0100
0010
1000
0001
0100
0010
1000
0001
0000
0000
0000
0000
0000
0000
0000
;
#NOTES:
     dance-single:
     Renard:
     Challenge:
     8:
     0.453,0.591,0.140,0.043,0.286:
0000
0000
0000
0000
,
0000
0000
0000
0000
,
0000
0000
0000
0000
,
0000
0000
0000
0000
0000
0000
0000
0000
0001
1000
0001
1000
0001
1000
0001
1000
,
000M
0M00
00M0
M000
000M
0M00
00M0
M000
,
0M00
00M0
000M
0M00
00M0
M000
0M00
00M0
,
000M
00M0
0M00
M000
00M0
0M00
000M
M000
,
001M
0000
0000
0100
0000
0000
M010
0000
0000
0100
0000
0000
001M
0000
0000
0100
0000
0000
M010
0000
0000
0100
0000
0000
001M
0000
0000
0000
0000
0000
M010
0000
0000
0000
0000
0000
0M10
0000
0000
0000
0M00
0000
0000
0000
0M00
0000
0000
0000
,
1MM1
M00M
M000
M00M
,
000M
M00M
M000
M00M
,
0M20
0M0M
000M
0M0M
,
003M
0M0M
M00M
0MM0
,
10M1
M0M0
M000
M00M
,
000M
0M0M
0M00
0MM0
,
02M0
M0M0
M000
M00M
,
030M
00MM
000M
0M0M
,
00M0
0000
1000
0000
0M00
0001
0000
0000
10M0
0000
0000
0001
0M00
0000
0000
0000
,
00M0
0000
0100
0000
M000
0010
0000
0000
010M
0000
0000
0010
M000
0000
0000
0000
,
000M
0000
1000
0000
0M00
0010
0000
0000
100M
0000
0000
0010
0M00
0000
0000
0000
,
00M0
0000
0100
0000
M000
0001
0000
0000
01M0
0000
0000
0001
M000
0000
0000
0000
,
0M00
0000
0011
0000
M000
0011
0000
0000
000M
0000
1100
0000
00M0
1100
0000
0000
,
000M
0000
1010
0000
0M00
1010
0000
0000
00M0
0000
0101
0000
M000
0101
0000
0000
,
M010
0M10
001M
0M10
M010
0M10
001M
0M10
,
M010
00M0
001M
00M0
M010
00M0
001M
00M0
,
0M00
0000
1000
0000
000M
0010
0000
0000
M100
0000
0010
0100
000M
0000
0000
0000
,
M000
0000
0001
0000
00M0
0000
0010
0000
M000
0100
0000
1000
000M
0000
0001
0000
,
00M0
0000
0010
0000
0M00
0000
0001
0000
10M0
0000
0010
1000
0M00
0000
0001
0000
,
00M0
0000
1000
0000
000M
0000
0100
0000
M000
0000
0010
0000
0M00
0001
0010
0000
,
M000
0000
0001
0000
00M0
0100
0000
0000
M010
0000
0100
0010
000M
0000
0000
0000
,
0M00
0000
1000
0000
00M0
0000
0100
0000
000M
0010
0000
0001
M000
0000
1000
0000
,
0M00
0000
0100
0000
000M
0000
1000
0000
00M1
0000
0100
0001
00M0
0000
1000
0000
,
0M00
0001
M000
0010
010M
0100
M100
0100
,
000M
0000
1000
0000
0M00
0010
0000
0000
010M
0000
0010
0100
M000
0000
0000
0000
,
00M0
0000
0001
0000
M000
0000
0010
0000
M000
0100
0000
1000
000M
0000
0001
0000
,
00M0
0000
0010
0000
0M00
0000
0001
0000
10M0
0000
0010
1000
0M00
0000
0001
0000
,
00M0
0000
1000
0000
000M
0000
0100
0000
M000
0000
0010
0000
0M00
0001
0010
0000
,
M000
0000
0001
0000
00M0
0100
0000
0000
M010
0000
0100
0010
000M
0000
0000
0000
,
0M00
0000
1000
0000
000M
0000
0100
0000
000M
0010
0000
0001
M000
0M00
00M0
000M
,
1000
0100
0010
0001
1000
0100
0010
0001
,
0010
0010
0100
0100
0010
0010
0010
0000
,
M001
M010
M001
M100
M001
M010
M001
M100
,
M001
M010
M001
M100
M001
M010
M001
M100
,
M001
M010
M001
M100
M001
M010
M001
M100
,
M001
0010
0100
1000
0100
0010
0001
0010
,
010M
100M
001M
100M
010M
100M
001M
100M
,
010M
100M
001M
100M
010M
100M
001M
100M
,
010M
100M
001M
100M
010M
100M
001M
100M
,
010M
0010
0001
0010
0100
0000
0100
0000
,
MM1M
MM1M
MM1M
MM1M
,
MM1M
0000
0000
0000
MM1M
0000
0000
0000
MM1M
0000
0000
0001
0000
0001
0000
0000
,
M1MM
M1MM
M1MM
M1MM
,
M1MM
0000
0000
0000
M1MM
0000
0000
0000
M1MM
0000
0000
1000
0000
1000
0000
0000
,
MM1M
MM1M
MM1M
MM1M
,
MM1M
0000
0000
0000
MM1M
0000
0000
0000
MM1M
0000
0000
0001
0000
0001
0000
0000
,
M1MM
M1MM
M1MM
M1MM
,
M1MM
0000
0000
0000
M1MM
0000
0000
0000
M1MM
0000
0000
1000
0000
1000
0000
0000
,
MM1M
MMM1
M1MM
1MMM
,
MM1M
MMM1
M1MM
1MMM
,
MM1M
MMM1
M1MM
1MMM
,
MM1M
MMM1
M1MM
1MMM
,
MM1M
MMM1
M1MM
1MMM
,
MM1M
MMM1
M1MM
1MMM
,
2MM2
0MM0
0MM0
0MM0
0MM0
0MM0
0MM0
0MM0
,
0MM0
0MM0
3MM3
0000
1000
0100
0010
0001
,
0010
M11M
1MM1
0000
;
#NOTES:
     dance-single:
     Renard:
     Easy:
     6:
     0.390,0.452,0.000,0.032,0.000:
0000
0000
0000
0000
,
0000
0000
0000
0000
,
0000
0000
0000
0000
,
0000
0000
0000
0000
1000
0100
0010
0001
,
0000
0000
0000
0000
,
0000
0000
0000
0000
,
0000
0000
0000
0000
,
0001
0010
0100
1000
0001
0010
0100
0000
,
1000
1000
1000
1000
,
1000
1000
1000
1000
,
1000
1000
1000
1000
,
1000
1000
1000
1000
,
1000
1000
1000
1000
,
1000
1000
1000
1000
,
1000
1000
1000
1000
,
1000
1000
1000
1000
,
0001
0001
0100
0100
,
0001
0001
0100
0100
,
0001
0001
0100
0100
,
0001
0001
0100
0100
,
0001
0100
0001
0100
,
0001
0100
0001
0100
,
0001
0100
0001
0100
0001
0100
0001
0100
,
0010
0010
0010
0010
,
0000
1000
0000
0100
1000
0100
1000
0000
,
0000
0001
0000
0010
0000
0001
0000
1000
,
0000
0010
0000
1000
0010
1000
0010
0000
,
0000
0100
0000
0001
0000
0010
0000
0001
,
0000
1000
0000
0100
1000
0100
1000
0000
,
0000
0001
0000
0010
0000
0001
0000
1000
,
0000
0010
0000
0100
0001
0100
0001
0000
,
0100
0001
1000
0100
,
1000
0000
0001
0000
0010
0001
0010
0000
,
0001
0010
0100
1000
,
0010
0000
1000
0000
0100
1000
0100
0000
,
1000
0100
0010
0001
,
1000
0000
0001
0000
0100
0001
0100
0000
,
0001
0010
0100
1000
,
0010
0010
1000
1000
,
0010
0100
0010
0100
,
0001
0001
0001
0001
,
0001
0001
0001
0001
,
0001
0001
0001
0001
,
0001
0100
0010
0100
0010
0100
0010
0100
,
0010
0010
0010
0010
,
0010
0010
0010
0010
,
0010
0010
0010
0010
,
1000
0010
1000
0010
1000
0000
0010
0000
,
1000
1000
1000
1000
,
1000
1000
1000
0100
,
0010
0010
0010
0010
,
0010
0010
0010
0001
,
0100
0100
0100
0100
,
0100
0100
0100
0010
,
1000
1000
1000
1000
,
1000
1000
1000
0001
,
0010
0010
0010
0100
,
1000
1000
1000
0010
,
0100
0100
0100
0001
,
0010
0010
0010
0100
,
1000
1000
0010
0100
,
0100
0001
0010
0100
,
2000
0000
0000
0000
,
0000
0000
3001
0100
,
0020
2030
3100
0000
;
#NOTES:
     dance-single:
     Renard:
     Beginner:
     3:
     0.293,0.452,0.054,0.108,0.000:
0000
0000
0000
0000
,
0000
0000
0000
0000
,
0000
0000
0000
0000
,
0000
0000
2000
0000
,
3000
0000
0000
0000
,
0000
0000
0000
0000
,
0000
0000
0000
0000
,
0002
2003
3002
2003
,
3002
0000
0000
0000
,
0000
0000
0000
0000
,
0013
0000
0000
0000
,
0000
0000
0000
0000
,
0200
0000
0000
0000
,
0000
0000
0000
0000
,
1300
0000
0000
0000
,
0000
0000
0000
0000
,
1000
1000
0001
0001
,
1000
1000
0001
0001
,
1000
1000
0001
0001
,
1000
1000
0001
0001
,
1000
0001
1000
0001
,
1000
0001
1000
0001
,
1001
1001
1001
1001
,
0010
0010
0010
0010
,
1000
0000
0000
0000
0001
0100
0001
0000
,
0010
0000
0010
0000
,
0001
0000
0000
0000
1000
0100
1000
0000
,
0010
0000
0010
0000
,
0100
0000
0000
0000
0001
1000
0001
0000
,
0010
0000
0001
0000
,
1000
0000
0000
0000
0100
1000
0100
0000
,
1000
0000
0001
0000
,
0010
0000
0000
0000
0001
1000
0001
0000
,
0100
0000
0001
0000
,
1000
0000
0000
0000
0100
1000
0100
0000
,
1000
0000
0001
0000
,
0010
0000
0000
0000
0001
1000
0001
0000
,
0100
0000
0001
0000
,
1000
1000
1000
1000
,
0002
0000
0023
0000
,
0130
0100
0100
0100
,
0100
0100
0100
0100
,
0010
0001
1000
0100
,
0010
0001
1000
0100
,
0010
0010
0010
0010
,
0010
0010
0010
0010
,
0010
0001
1000
0100
,
0010
0001
1000
0100
,
1000
1000
1000
1000
,
1000
1000
1000
0000
,
0001
0001
0001
0001
,
0001
0001
0001
0000
,
1000
1000
1000
1000
,
1000
1000
1000
0000
,
0001
0001
0001
0001
,
0001
0001
0001
0000
,
0100
0100
0100
0000
,
0010
0010
0010
0000
,
0100
0100
0100
0000
,
0010
0010
0010
0000
,
1000
0010
1000
0010
,
0100
0001
0100
0001
,
200M
0000
0000
0000
,
0000
0000
0000
3000
0001
0000
0010
0000
,
0100
1000
1001
0000
;
