#TITLE:Brains Out;
#SUBTITLE:;
#ARTIST:Error;
#TITLETRANSLIT:;
#SUBTITLETRANSLIT:;
#ARTISTTRANSLIT:;
#CRChallenge:;
#BANNER:brains.png;
#BACKGROUND:brains-bg.png;
#LYRICSPATH:;
#CDTITLE:;
#MUSIC:brains.ogg;
#OFFSET:0.000;
#SAMPLESTART:18.676;
#SAMPLELENGTH:12.000;
#SELECTABLE:YES;
#BPMS:0.000=178.000;
#STOPS:;
#BGCHANGES:;
#NOTES:
     dance-single:
     Renard:
     Hard:
     12:
     0.792,1.000,0.559,0.434,0.453:
0000
0000
0000
0000
,
0000
0000
0000
0000
,
0000
0000
0000
0000
,
0000
0000
0000
0000
,
0000
0000
0000
0000
,
0000
0000
0000
0000
,
0000
0000
0000
0000
,
0000
0000
0000
0000
,
0001
0000
0100
0000
0010
0010
0000
1000
0000
0000
0010
1000
0001
1000
0000
0000
,
0001
0000
0010
0000
0100
0100
0000
1000
0000
0000
0010
1000
0001
0001
0000
0000
,
1000
0000
0010
0000
0100
0100
0000
0001
0000
0000
0100
0001
1000
0001
0000
0000
,
2002
0000
0000
0000
3003
0001
0000
1000
,
0101
0000
0010
0000
1100
0000
0010
0000
1000
0000
0000
0000
0010
0000
0000
0100
,
0000
0100
0000
0100
0000
0100
0000
0000
0000
0000
0000
0000
0000
0000
0000
0000
,
0101
0000
0010
0000
1000
0010
0100
0001
0000
0000
0100
0000
0010
0000
0000
0000
,
1010
0000
0100
0000
0001
0100
0010
1000
0000
0000
0100
0000
1100
0000
0000
0000
,
1000
0000
0001
0000
0100
0010
1000
0001
0000
0000
0100
0000
1001
0000
0000
0000
,
0101
0000
0010
0000
1000
0100
0010
0001
0000
0000
1000
0000
1001
0000
0000
0000
,
0100
0000
1000
0000
0010
0010
0000
0110
0000
0000
0010
1000
0001
0000
0000
0000
,
0100
0000
0001
0000
0010
0010
0000
0110
0000
0000
0100
1000
0001
0000
0000
0000
,
0010
0000
0001
0000
0100
0100
0000
0110
0000
0000
0100
0001
1000
0000
0000
0000
,
0010
0000
1000
0000
0100
0100
0000
0110
0000
0000
0010
0001
1000
0000
0000
0000
,
0001
0100
1000
0001
0010
1000
0100
0001
,
0100
0010
0001
0010
1000
0010
0001
0100
,
1000
0001
0010
1000
0100
0001
0100
0010
,
0001
0010
1000
0001
0100
1000
0010
0100
,
1000
0001
0010
0100
1000
0100
0010
0100
,
1000
0100
0010
0100
0001
0100
0010
0100
,
0001
0010
0100
0010
1000
0010
1000
0010
,
1001
1001
0000
0000
0000
0110
1001
0000
,
0101
0202
0000
0000
0000
0300
0023
0230
,
2300
3002
0023
0200
0000
0000
0330
0000
,
1100
2200
0000
0000
0000
3000
0320
0032
,
2003
3200
0320
0002
0000
0000
0033
0000
,
1010
2020
0000
0000
0000
0030
3200
0320
,
0032
2003
3200
0020
0000
0000
0330
0000
,
0011
0022
0000
0000
0000
0003
0230
2300
,
3002
0023
0230
2000
0000
0000
3300
0000
,
1100
0000
1001
0000
1000
0001
1000
0001
0000
0000
0100
0000
1001
0000
0000
0000
,
0011
0000
1001
0000
0001
1000
0001
1000
0000
0000
0100
0000
1001
0000
0000
0000
,
1010
0000
1001
0000
1000
0001
1000
0001
0000
0000
0100
0000
1001
0000
0000
0000
,
0101
0000
1001
0000
0001
1000
0001
0000
0100
0000
0001
1000
0001
1000
0100
0010
,
0001
0000
0010
0000
0001
0010
0001
0010
0000
0000
0100
0000
1100
0000
0000
0000
,
1000
0000
0010
0000
1000
0010
1000
0010
0000
0000
0100
0000
0101
0000
0000
0000
,
0001
0000
1000
0000
0100
0010
0001
1000
0000
0000
0001
0000
1001
0000
0000
0000
,
1000
0000
0001
0000
0100
0010
1000
0000
1000
0000
0001
0100
0010
1000
0100
0010
,
0001
0000
0010
0100
0000
0100
1000
0000
,
0010
0000
0100
0001
0000
0001
0010
0000
,
0100
0000
1000
0010
0000
0010
0100
0000
,
0001
0000
0010
0100
0000
0100
1000
0000
,
0010
0000
0100
0001
0000
0001
0010
0000
,
0100
0000
1000
0010
0000
0010
0100
0000
,
0001
0000
0010
0100
0000
1000
0010
0000
,
0100
0000
0001
0100
0000
0010
0000
1000
,
0010
0100
0001
1000
0100
0010
0001
1000
0100
1000
0001
0010
0001
1000
0100
0010
,
0001
1000
0010
1000
0001
0100
0001
1000
0100
1000
0001
0010
0001
1000
0100
0010
,
0001
1000
0001
0100
0001
0100
0010
1000
0010
1000
0100
0010
0001
0010
0100
1000
,
0001
0100
0001
1000
0100
1000
0001
0010
0100
1000
0100
0010
0001
1000
0100
1000
,
0100
0000
1000
0000
0001
0010
0001
1000
0000
0000
0100
0000
1100
0000
0000
0000
,
1000
0000
0001
0000
0100
0001
1000
0010
0000
0000
1000
0000
0101
0000
0000
0000
,
0010
0000
1000
0000
0100
0010
0001
0010
0000
0000
0001
0000
1100
0000
0000
0000
,
0200
2000
0000
0002
0000
0000
3313
0000
,
0100
1000
0011
0100
1000
0011
0100
1000
,
0010
0100
1001
0010
0100
1001
0010
0100
,
0001
0100
1010
0001
0100
1010
0100
0001
,
1000
0100
1001
0010
0100
1001
0100
0100
,
0001
0100
1010
0100
0001
1010
0001
0100
,
0010
0100
1001
0100
0010
1001
0010
0100
,
0001
1000
0110
1000
0001
0110
0001
1000
,
0100
0010
0101
0010
0100
1010
0100
0001
,
2000
0000
3020
0000
0032
0000
0023
2030
,
0000
3200
0000
0320
0002
0000
0000
0000
,
0000
0000
0000
0000
,
0000
0000
0000
0000
,
0033
0000
0000
0000
;
#NOTES:
     dance-single:
     Renard:
     Medium:
     9:
     0.500,0.606,0.241,0.231,0.125:
0000
0000
0000
0000
,
0000
0000
0000
0000
,
0000
0000
0000
0000
,
0000
0000
0000
0000
,
0000
0000
0000
0000
,
0000
0000
0000
0000
,
0000
0000
0000
0000
,
0000
0000
0000
0000
,
1000
0100
1000
0001
1000
0010
1000
0000
,
0001
1000
0001
0100
0001
0010
0001
0000
,
1000
0100
1000
0010
1000
0001
1000
0000
,
0101
0000
0000
0000
,
0101
0000
0010
0000
1100
0000
0010
0000
1000
0000
0000
0000
0010
0000
0000
0100
,
0000
0100
0000
0100
0000
0100
0000
0000
0000
0000
0000
0000
0000
0000
0000
0000
,
0001
0000
1000
0000
0100
0010
0000
0001
0000
0000
0010
0000
0100
0000
0000
0000
,
1000
0000
0001
0000
0100
0010
0000
1000
0000
0000
0010
0000
1000
0000
0000
0000
,
0100
0000
0010
0000
0001
0010
0000
0100
0000
0000
1000
0000
0001
0000
0000
0000
,
0100
0000
0010
0000
1000
0001
0000
0100
0000
0000
0010
0000
1000
0000
0000
0000
,
0100
0000
0010
0000
0001
0010
0000
0100
0000
0000
1000
0000
0001
0000
0000
0000
,
0100
0000
0010
0000
1000
0001
0000
0100
0000
0000
0010
0000
1000
0000
0000
0000
,
0001
0000
0010
0000
0100
1000
0000
0100
0000
0000
0010
0000
0001
0000
0000
0000
,
0010
0000
0100
0000
1000
0001
0000
0100
0000
0000
0010
0000
1000
0000
0000
0000
,
1002
0000
0103
0000
2001
0000
0100
3100
,
0000
1100
0000
0010
0001
0000
1000
0000
,
0102
0000
1003
0000
2100
0000
0001
3001
,
0000
1100
0000
0010
0001
1000
0010
0000
,
0102
0000
1003
0000
2010
0000
0001
3001
,
0000
1100
0000
0010
0001
1000
0010
0000
,
0102
0000
1003
0000
2010
0000
0001
3001
,
1000
1000
0000
0000
0000
0001
1001
0000
,
1002
0000
0000
0000
,
0200
0000
0020
0333
,
2000
0000
0000
0000
,
0200
0000
0020
3330
,
2002
0000
0000
0000
,
0020
0000
0000
3033
,
0202
0000
0000
0000
,
2020
0000
0000
3333
,
0001
0100
1000
0100
0001
0010
1000
0000
,
0010
1000
0010
0001
0100
1000
0100
0000
,
0001
1000
0100
0001
0100
1000
0010
0000
,
0010
1000
0010
0100
1000
0100
0010
0100
,
0001
0010
0100
0001
0100
0010
0001
0000
,
0010
0100
1000
0010
0100
1000
0100
0000
,
0010
1000
0100
0010
0001
0010
1000
0000
,
0010
0100
0001
0100
1000
0001
0010
0100
,
2000
0001
0000
0010
,
0000
0001
0000
0010
,
0000
0001
0000
0010
,
0000
0001
0000
0010
,
0000
0001
0000
0010
,
0000
0001
0000
0010
,
0000
0001
0000
0010
,
0000
0001
0000
3010
,
1110
1110
0000
0000
,
0000
0000
1011
0000
,
0111
0111
0000
0000
,
0000
0000
1011
0000
,
1000
0000
0100
0000
0010
0001
0000
0010
0000
0000
0100
0000
1000
0000
0000
0000
,
0001
0000
0100
0000
0010
1000
0000
0010
0000
0000
0100
0000
0001
0000
0000
0000
,
1000
0000
0010
0000
1000
0100
0000
0010
0000
0000
0001
0000
0010
0000
0000
0000
,
0100
1000
0001
0100
0000
0010
1000
0000
,
0001
0100
1000
0100
0001
0010
0100
0000
,
0001
0100
1000
0001
0100
1000
0100
0000
,
0010
1000
0100
0010
0001
0010
1000
0000
,
0010
0100
1000
0010
0100
0001
0010
0000
,
0100
1000
0010
0100
1000
0100
0010
0000
,
0100
0001
0010
0100
0001
0100
0010
0000
,
0001
0100
0010
0100
0010
0100
0001
0000
,
1000
0010
0100
0010
0100
0010
1000
0000
,
0001
0000
0100
0000
1000
0000
0010
0001
,
0000
0100
0000
2000
0020
0000
0000
0000
,
0000
0000
0000
0000
,
0000
0000
0000
0000
,
3030
0000
0000
0000
;
#NOTES:
     dance-single:
     Renard:
     Easy:
     6:
     0.405,0.606,0.019,0.019,0.019:
0000
0000
0000
0000
,
0000
0000
0000
0000
,
0000
0000
0000
0000
,
0000
0000
0000
0000
,
0001
0000
0000
0001
0000
1000
0000
0000
,
0010
0000
0000
0100
0000
0010
0000
0000
,
1000
0000
0000
1000
0000
0001
0000
0000
,
1000
0000
0000
0000
,
0001
0000
0100
0000
0010
1000
0100
0010
,
0001
1000
0001
0000
,
1000
0000
0001
0000
1000
0100
0010
0001
,
1000
0000
0000
0000
,
0001
0000
0000
0000
1000
0000
0000
0000
0000
0000
0000
0000
0000
0000
0000
0010
,
0000
0010
0000
0010
0000
0010
0000
0000
0000
0000
0000
0000
0000
0000
0000
0000
,
0010
0000
1000
0000
0010
0100
0010
0000
,
1000
0000
0010
0000
0100
0010
0100
0000
,
0001
0000
0100
0000
0010
0100
0010
0000
,
0100
0000
0001
0000
0100
0010
0100
0000
,
0010
0000
1000
0000
0010
0100
0010
0000
,
1000
0000
0010
0000
0100
0010
0100
0000
,
0001
0000
0100
0000
0010
0100
0010
0000
,
0100
0000
0001
0000
0100
0010
0100
0000
,
0010
0000
1000
0000
0100
0000
0010
0001
,
0000
1000
0000
0001
0100
0000
0000
0000
,
0010
0000
1000
0000
0010
0000
0100
0001
,
0000
1000
0000
0100
0010
0000
0000
0000
,
0001
0000
1000
0000
0001
0000
0010
0100
,
0000
1000
0000
0001
0100
0000
0000
0000
,
0010
0000
1000
0000
0001
0000
0100
0010
,
1000
0001
0000
0000
0000
0000
0000
0000
,
1000
1000
0000
0000
0000
0000
0000
0000
,
0001
0001
0000
0000
0000
0000
0000
0000
,
0100
0100
0000
0000
0000
0000
0000
0000
,
0010
0010
0000
0000
0000
0000
1010
0000
,
1000
0000
0000
0000
,
0001
0000
0000
0000
,
0100
0100
0000
0000
0000
0000
0000
0000
,
0010
0010
0000
0000
0000
0000
1001
0000
,
1000
0000
0001
0000
0100
0010
0100
0000
,
0001
0000
1000
0000
0010
0100
0010
0000
,
1000
0000
0001
0000
0100
0010
0100
0000
,
0001
0000
1000
0000
0010
0100
0010
0000
,
1000
0000
0001
0000
0100
0010
0100
0000
,
0010
0000
1000
0000
0001
0100
0001
0000
,
0100
0000
0010
0000
1000
0010
1000
0000
,
0001
0000
1000
0000
0010
0100
0010
0100
,
0001
1000
0001
1000
,
0001
1000
0001
1000
,
0010
0100
0010
0100
,
0010
0100
0010
0100
,
0001
1000
0001
1000
,
0001
1000
0001
1000
,
0010
0100
0010
0100
,
0010
0100
0010
0100
,
0001
0000
1000
0000
0001
0100
0001
0000
,
1000
0000
0001
0000
0100
0001
0100
0000
,
0001
0000
1000
0000
0100
1000
0100
0000
,
1000
0000
0001
0000
1000
0100
1000
0000
,
0001
0000
1000
0000
0001
0100
0001
0100
,
0001
0000
1000
0000
0001
0100
0001
0100
,
0001
0000
1000
0000
1000
0100
1000
0100
,
1000
0000
0001
0000
0000
1000
0100
0000
,
1000
0000
0001
0000
0010
0000
0001
1000
,
0001
1000
0010
0100
0001
0000
1000
0000
,
0010
0100
0010
0100
0001
0100
0001
0100
,
0001
1000
0100
0010
0001
1000
0001
0100
,
0001
0000
1000
0000
0001
1000
0001
0000
,
1000
0000
0010
0000
0100
0010
0100
0000
,
0001
0000
1000
0000
0001
0100
0001
0000
,
0100
0001
1000
0001
1000
0100
1000
0000
,
0001
0000
0100
0000
0010
0000
1000
0020
,
0000
0100
0000
0000
2000
0000
0000
0000
,
0000
0000
0000
0000
,
0000
0000
0000
0000
,
3030
0000
0000
0000
;
#NOTES:
     dance-single:
     Renard:
     Beginner:
     4:
     0.306,0.357,0.096,0.029,0.000:
0000
0000
0000
0000
,
0000
0000
0000
0000
,
0000
0000
0000
0000
,
0000
0000
0000
0000
,
1000
0000
0000
1000
0000
1000
0000
0000
,
0001
0000
0000
0001
0000
0001
0000
0000
,
0100
0000
0000
0100
0000
0100
0000
0000
,
0010
0000
0000
0000
,
0100
0010
0000
0010
,
1000
0001
0000
0001
,
0100
0010
0000
0010
,
1001
0000
0000
0000
,
0200
0000
0000
0000
,
0000
0000
0000
0300
0000
0000
0000
0000
,
0010
1000
0010
1000
,
0001
0100
0001
0100
,
0001
0010
0001
0010
,
0100
1000
0100
1000
,
0001
0100
0001
0001
,
1000
0010
1000
1000
,
0001
0100
0001
0001
,
1000
0100
0010
0001
,
1000
0000
1000
0000
0001
0000
0000
0101
,
0000
0101
0000
0000
0001
0000
0000
0000
,
1000
0000
0100
0000
0010
0000
0000
0110
,
0000
0110
0000
0000
0100
0000
1000
0000
,
0001
0000
1000
0000
0010
0000
0000
1010
,
0000
1010
0000
0000
0010
0000
1000
0000
,
0001
1000
0100
0000
,
1000
0100
0000
0000
0000
0000
0000
0000
,
0011
0000
0000
0000
,
0001
1000
0001
1000
0000
0000
0000
0000
,
1010
0000
0000
0000
,
0001
1000
0001
1000
0000
0000
0000
0000
,
0001
0000
0000
0000
,
0100
0010
0100
0010
0000
0000
0000
0000
,
1000
0000
0000
0000
,
0010
0100
0010
0100
0000
0000
0000
0000
,
0010
1000
0010
1000
,
0001
0100
0001
0100
,
0001
0010
0001
0010
,
0100
1000
0100
1000
,
0001
0100
0001
0100
,
0010
1000
0010
1000
,
0001
0010
0001
0010
,
0100
1000
0100
1000
,
1001
0000
0000
0000
,
0100
0000
0100
0000
,
0010
0000
0000
0000
,
0100
0000
0100
0000
,
0001
0000
0000
0000
,
1000
0000
1000
0000
,
0001
0000
0000
0000
,
1000
0000
1000
0000
,
0001
0001
0000
0000
,
0000
0000
0000
0000
0100
0010
0100
0010
,
1000
1000
0000
0000
,
0000
0000
0000
0000
0010
0100
0010
0100
,
0001
0001
1000
1000
,
0010
0100
0001
1000
,
0010
0010
0100
0100
,
0001
1000
0010
0100
,
0001
0001
1000
1000
,
0001
0001
1000
1000
,
0010
0010
0100
0100
,
0010
0010
1000
1000
,
0001
0100
0010
1000
,
0100
0010
0001
0010
,
0100
1000
0001
0100
,
0010
1000
0001
0100
,
0010
0000
1000
0000
0001
0000
0000
0100
,
0000
0010
0000
2000
0002
0000
0000
0000
,
0000
0000
0000
0000
,
0000
0000
0000
0000
,
3003
0000
0000
0000
;
