#TITLE:Boss Rush;
#SUBTITLE:;
#ARTIST:Nonstop;
#TITLETRANSLIT:;
#SUBTITLETRANSLIT:;
#ARTISTTRANSLIT:;
#CRChallenge:;
#BANNER:;
#BACKGROUND:;
#LYRICSPATH:;
#CDTITLE:;
#MUSIC:boss rush.ogg;
#OFFSET:0.000;
#SAMPLESTART:14.959;
#SAMPLELENGTH:8.000;
#SELECTABLE:YES;
#BPMS:0.000=400.000,3472.000=300.001;
#STOPS:;
#BGCHANGES:;
#NOTES:
     dance-single:
     Nonstop:
     Challenge:
     15:
     1.000,1.000,0.304,1.000,0.000:
0002
2003
3002
2003
,
3002
2003
3002
2003
,
3002
2003
3002
2003
,
3002
2003
3002
2003
,
3002
2003
3002
2003
,
3002
2003
3002
2003
,
3002
2003
3002
2003
,
3002
2003
3002
2003
,
3002
2003
3002
2003
,
3002
2003
3002
2003
,
3002
2003
3002
2003
,
3002
2003
3002
2003
,
3002
2003
3002
2003
,
3002
2003
3002
2003
,
3002
2003
3002
2003
,
3002
2003
3002
2003
,
3001
0000
0000
0000
,
0000
0000
0000
0000
,
0000
0000
0000
0000
,
0000
0000
0000
0000
0001
1000
0001
1000
,
0001
0100
1000
0100
,
0001
0000
0001
0010
,
0100
0001
0100
1000
,
0010
0000
0010
0100
,
1000
0100
0001
0010
,
0100
0000
0100
0010
,
0100
0001
0100
1000
,
0010
0000
0010
0100
,
1000
0100
0010
1000
,
0001
0000
0001
0010
,
0100
0010
0001
1000
,
0010
0000
0010
1000
,
0001
0010
0100
1000
,
0001
0000
0001
0100
,
0010
0000
1000
0000
0001
0010
0100
1000
,
0001
0010
0100
1000
0001
0000
0000
0000
,
1000
0010
0001
0010
,
0100
0000
0100
0001
,
0010
0100
1000
0001
,
0100
0000
0100
0001
,
1000
0100
0001
0100
,
1000
0000
1000
0001
,
0010
0100
1000
0010
,
0100
0000
0100
0001
,
1000
0010
1000
0010
0100
0001
0100
0001
,
1000
0100
1000
0100
0010
0001
0010
0001
,
1000
0010
1000
0010
0100
0001
0100
0001
,
1000
0001
1000
0001
0100
0010
0100
0010
,
0110
0000
0110
0000
,
1001
0000
1001
0000
,
0110
0000
0010
1000
,
0001
0000
1001
0000
,
0002
2003
3002
2003
,
3002
2003
3002
2003
,
3002
2003
3002
2003
,
3002
2003
3002
2003
,
3002
2003
3002
2003
,
3002
2003
3002
2003
,
3002
2003
3002
2003
,
3002
2003
3002
2003
,
3002
2003
3002
2003
,
3002
2003
3002
2003
,
3002
2003
3002
2003
,
3002
2003
3002
2003
,
3002
2003
3002
2003
,
3002
2003
3002
2003
,
3002
2003
3002
2003
,
3002
2003
3002
2003
,
3001
0000
0000
0000
,
0000
0000
0000
0000
,
0000
0000
0000
0000
,
0000
0000
0000
0000
,
0000
0000
0000
0000
,
0000
0000
0000
0000
,
0000
0000
0000
0000
,
0000
0000
0000
0000
,
1011
0000
0000
0000
,
0000
0000
0000
0000
,
0000
0000
0000
0000
,
0000
0000
0000
0000
,
0001
0010
0001
0010
,
1000
0010
1000
0010
,
0001
0010
1000
0010
,
0100
0010
0001
1000
,
0001
1000
0100
1000
,
0100
1000
0001
1000
,
0010
1000
0001
0100
,
1000
0100
0010
0100
,
0001
0010
0001
0010
,
1000
0010
0100
0010
,
0001
0010
0001
0010
,
1000
0010
0100
0010
,
0001
0100
0001
0100
,
1000
0100
0010
0100
,
0001
0100
0010
0100
,
1000
0100
0010
1000
,
1010
0000
1000
0100
,
0010
0001
1000
0001
,
0101
0000
0100
0010
,
1000
0100
0010
0001
,
0011
0000
0010
0110
,
0000
0100
1100
0000
,
1010
0000
1000
0010
,
0100
0001
0010
0100
,
1000
0001
0100
0010
,
1010
0000
0100
0010
,
0010
0001
0011
0000
,
0010
0100
1000
0001
,
0100
0010
1000
0001
,
0010
0100
1000
0010
,
0100
0001
0010
0100
,
1000
0001
0100
0010
,
1000
0010
0100
0001
0010
0100
1000
0100
,
0010
0001
1000
0100
1000
0001
0010
0100
,
0000
0000
0000
0000
,
0000
0000
0000
0000
,
0000
0000
0000
0000
,
0000
0000
0000
0000
,
0002
2003
3002
2003
,
3002
2003
3002
2003
,
3002
2003
3002
2003
,
3002
2003
3002
2003
,
3002
2003
3002
2003
,
3002
2003
3002
2003
,
3002
2003
3002
2003
,
3002
2003
3002
2003
,
3002
2003
3002
2003
,
3002
2003
3002
2003
,
3002
2003
3002
2003
,
3002
2003
3002
2003
,
3002
2003
3002
2003
,
3002
2003
3002
2003
,
3001
0000
0000
0000
,
0110
0000
0000
0000
0001
1000
0001
0000
,
1000
0100
0010
0001
,
1000
0100
0010
0001
0000
0000
1000
0000
,
0001
0010
0100
1000
,
0001
0010
0100
1000
0000
0000
0001
0000
,
1000
0100
0010
0001
,
1000
0100
0010
0001
0000
0000
1000
0000
,
0001
0010
0100
1000
,
0001
0010
0100
1000
0000
0000
0001
0000
,
1000
0100
0010
0001
,
1000
0100
0010
0001
0000
0000
1000
0000
,
0001
0010
0100
1000
,
0001
0010
0100
1000
0000
0000
0001
0000
,
1000
0100
0010
0001
,
1000
0100
0010
0001
0000
0000
1000
0000
,
0001
0000
0000
0010
0100
0000
1000
0001
,
0010
0000
0100
1000
0000
0001
0010
0000
,
1100
0000
0000
0000
,
0000
0000
0000
0000
,
1001
0000
1010
0000
,
1001
0000
0011
0000
,
0001
0010
0100
1000
,
0010
0000
0100
0000
0001
0000
1000
0100
,
0010
0001
1000
0010
,
0100
0000
0001
0000
0010
0001
0000
1000
,
0100
1000
0010
0100
,
0001
0000
1000
0000
0100
0000
0010
0001
,
1000
0000
0000
0010
1000
0000
0001
0100
,
0010
0000
1000
0010
0000
0100
0001
0000
,
1000
0100
1000
0100
1000
0010
1000
0010
,
1000
0001
1000
0001
1000
0100
0010
0001
,
0010
0001
0010
0001
0100
0001
0100
0001
,
1000
0001
1000
0001
0010
0100
1000
0001
,
1000
0100
1000
0100
1000
0010
1000
0010
,
1000
0001
1000
0001
1000
0100
0010
0001
,
0010
0001
0010
0001
0100
0001
0100
0001
,
1000
0001
1000
0001
0010
0100
1000
0001
,
1001
0000
0000
0000
,
0000
0000
0000
0000
,
1011
0000
1011
0000
,
0111
0000
0111
0000
,
0002
2003
3002
2003
,
3002
2003
3002
2003
,
3002
2003
3002
2003
,
3002
2003
3002
2003
,
3002
2003
3002
2003
,
3002
2003
3002
2003
,
3002
2003
3002
2003
,
3002
2003
3002
2003
,
3002
2003
3002
2003
,
3002
2003
3002
2003
,
3002
2003
3002
2003
,
3002
2003
3002
2003
,
3002
2003
3002
2003
,
3002
2003
3002
2003
,
3002
2003
3002
2003
,
3002
2003
3002
2003
,
3001
0100
1000
0100
,
0001
0010
1000
0010
,
0001
0100
1000
0100
,
0001
0010
1000
0010
,
0100
0001
0100
1000
,
0010
0001
0010
1000
,
0100
0001
0100
1000
,
0010
0001
0010
1000
,
0100
0001
0100
1000
,
0001
0010
1000
0010
,
0001
0100
1000
0100
,
0001
0010
1000
0010
,
0001
0100
1000
0100
,
0001
1000
0100
0001
,
0100
1000
0010
0001
,
0010
1000
0100
0010
,
0001
0010
0100
1000
0100
0010
0001
1000
,
0100
0010
0001
0010
0100
0000
1001
0000
,
1000
0010
0100
0000
0001
0100
0010
0000
,
1000
0010
0100
0000
0001
0000
0100
0000
,
0010
1000
0100
1000
0001
0000
0010
0000
,
0001
0000
0100
0010
1000
0000
0001
0000
,
1000
0000
0100
0010
0001
0000
1000
0000
,
0001
0000
0100
0010
1000
0000
0001
0000
,
1000
0100
0010
0001
0010
0100
1000
0001
,
0010
0100
1000
0100
0010
0000
1001
0000
,
0001
0100
0010
0000
1000
0010
0100
0000
,
0001
0100
0010
0000
1000
0000
0010
0000
,
0100
0001
0010
0001
1000
0000
0100
0000
,
1000
0000
0010
0100
0001
0000
1000
0000
,
0001
0000
0010
0100
1000
0000
0001
0000
,
1000
0000
0010
0100
0001
0000
1000
0000
,
0001
0010
0100
1000
0100
0000
1000
0000
,
0010
0100
0001
0000
,
1000
0010
0100
0001
0100
0000
0010
0000
,
1000
0001
0010
0000
,
0001
0010
0100
1000
0100
0000
1000
0000
,
0010
0100
0001
0000
,
1000
0010
0100
0001
0100
0000
0010
0000
,
1000
0001
0010
0100
,
1000
0100
0010
0001
0010
0000
0001
0000
,
0100
0010
1000
0000
,
0001
0100
0010
1000
0010
0000
0100
0000
,
0001
1000
0100
0000
,
1000
0100
0010
0001
0010
0000
0001
0000
,
0100
0010
1000
0000
,
0001
0100
0010
1000
0010
0000
0100
0000
,
0001
1000
0100
0010
,
0002
2003
3002
2003
,
3002
2003
3002
2003
,
3002
2003
3002
2003
,
3002
2003
3002
2003
,
3002
2003
3002
2003
,
3002
2003
3002
2003
,
3002
2003
3002
2003
,
3002
2003
3002
2003
,
3002
2003
3002
2003
,
3002
2003
3002
2003
,
3002
2003
3002
2003
,
3002
2003
3002
2003
,
3002
2003
3002
2003
,
3002
2003
3002
2003
,
3002
2003
3002
2003
,
3002
2003
3002
2003
,
3001
0100
1001
0100
,
1001
0010
1001
0010
,
1001
0100
1001
0100
,
1001
1010
1001
0101
,
0000
1001
0000
1010
,
1001
0100
0011
0100
,
0001
0010
0100
1000
0001
1000
0010
0100
,
0000
0000
0000
0001
1000
0000
0100
0010
,
1001
0000
0110
0000
,
1001
0100
0010
1000
,
0101
0010
1000
0100
,
0011
0100
0100
0100
,
1000
0010
0100
0001
,
0010
0100
1000
0010
0100
0001
0010
0100
,
2000
0100
0100
0010
,
0010
0001
3001
0100
,
1001
0100
0010
1000
,
0101
0010
1000
0100
,
0010
0001
0010
0100
,
1000
0010
0101
0010
,
1001
0100
0010
1000
,
0101
0010
1000
0100
,
0010
0001
0010
0100
,
1000
0010
0100
0010
,
1001
0010
0100
0001
,
1010
0100
0001
0010
,
0100
1000
0100
0010
,
0001
1000
0101
0010
,
1010
0100
1001
0010
,
0101
0010
1001
0100
,
0010
0010
0010
0010
,
1000
0010
0001
0010
1000
0010
0001
0010
,
1000
0010
0100
0001
,
0100
0010
0000
1001
,
0000
0100
0010
1000
,
0100
0010
0001
0000
,
0010
0100
0010
1000
,
0010
0100
0000
0110
,
0000
0010
0001
0000
,
1000
0010
0100
0000
,
1001
0100
1010
0000
,
0100
0011
1000
0110
,
0000
1001
0010
0000
,
1000
0010
0100
0000
,
1001
0100
1010
0000
,
0100
0011
1000
0110
,
1000
0101
0010
0000
,
1011
0000
0000
0000
,
1010
0000
0101
0000
,
0000
1011
0000
0101
,
0000
1010
1010
0000
,
1000
0010
0100
0001
0010
0100
1000
0100
,
0010
0001
1000
0010
0100
1000
0100
0001
,
0100
0010
1000
0010
0100
0001
0010
0100
,
1000
0000
0100
0000
,
0010
0010
0010
0010
,
0002
2003
3002
2003
,
3002
2003
3002
2003
,
3002
2003
3002
2003
,
3002
2003
3002
2003
,
3002
2003
3002
2003
,
3002
2003
3002
2003
,
3002
2003
3002
2003
,
3002
2003
3002
2003
,
3002
2003
3002
2003
,
3002
2003
3002
2003
,
3002
2003
3002
2003
,
3002
2003
3002
2003
,
3002
2003
3002
2003
,
3002
2003
3002
2003
,
3002
2003
3002
2003
,
3002
2003
3002
2003
,
3001
0010
0100
1000
0100
0010
0001
1000
,
0100
0010
0001
0010
0100
1000
0001
0010
,
0100
1000
0100
0010
0001
1000
0100
0010
,
0001
0010
0100
1000
0001
0000
1000
0000
,
0001
0010
0100
1000
0100
0010
0001
1000
,
0100
0010
0001
0010
0100
1000
0001
0010
,
0100
1000
0100
0010
0001
1000
0100
0010
,
0001
0010
0100
1000
0001
1000
0001
0000
,
1000
0100
0010
0001
0010
0100
1000
0001
,
0010
0100
1000
0100
0010
0001
1000
0100
,
0010
0001
0010
0100
1000
0001
0010
0100
,
1000
0100
0010
0001
1000
0000
0001
0000
,
1000
0100
0010
0001
0010
0100
1000
0001
,
0010
0100
1000
0100
0010
0001
1000
0100
,
0010
0001
0010
0100
1000
0001
0010
0100
,
1000
0100
0010
0001
1000
0001
1000
0000
,
0001
0000
0001
0100
,
0010
0000
0010
1000
,
0100
0000
0100
0010
,
0001
0000
0001
1000
,
0010
0000
0010
0100
,
0010
1000
0100
0010
,
0001
0010
0001
0010
,
1000
0010
1000
0010
,
0100
0000
0100
1000
,
0010
0100
0001
0000
,
0110
0000
0010
1000
,
0100
0010
0001
0000
,
0011
0000
0010
0100
,
1000
0000
0010
0000
,
0010
1000
0001
0100
0010
0000
1000
0000
,
0101
0000
1011
0000
,
0002
2003
3002
2003
,
3002
2003
3002
2003
,
3002
2003
3002
2003
,
3002
2003
3002
2003
,
3002
2003
3002
2003
,
3002
2003
3002
2003
,
3002
2003
3002
2003
,
3002
2003
3002
2003
,
3002
2003
3002
2003
,
3002
2003
3002
2003
,
3002
2003
3002
2003
,
3002
2003
3002
2003
,
3002
2003
3002
2003
,
3002
2003
3002
2003
,
3002
2003
3002
2003
,
3002
2003
3002
2003
,
3001
0010
0100
1000
0100
0000
1000
0000
,
0010
0000
0100
0001
0100
0000
0010
0000
,
1000
0010
0100
0001
0100
0000
0010
0000
,
1000
0000
0001
1000
0100
0000
0010
0000
,
0001
0010
0100
1000
0100
0000
1000
0000
,
0010
0000
0100
0001
0100
0000
0010
1000
,
0010
0000
1000
0001
0100
0000
0001
1000
,
0001
0000
1000
0100
1000
0000
0001
0000
,
1000
0100
0010
0001
0010
0000
0001
0000
,
0100
0000
0010
1000
0010
0000
0100
0000
,
0001
0100
0010
1000
0010
0000
0100
0000
,
0001
0000
1000
0001
0010
0000
0100
0000
,
1000
0100
0010
0001
0010
0000
0001
0000
,
0100
0000
0010
1000
0010
0000
0100
0001
,
0100
0000
0001
1000
0010
0000
1000
0001
,
1000
0000
0001
0010
0001
0000
1000
0000
,
0001
0010
0001
0010
0001
0010
0001
0010
,
0001
0010
0001
0010
0001
0010
0001
0010
,
0001
0010
0001
0010
0001
0010
0001
0010
,
0001
0010
0001
0010
0001
0010
0001
0010
,
0001
1000
1000
1000
,
1000
1000
1000
1000
,
1000
1000
1000
1000
,
0001
0100
0010
1000
0001
0100
0010
1000
,
0001
1000
1000
1000
,
1000
1000
1000
1000
,
1000
1000
1000
1000
,
0001
0100
0010
1000
0001
0100
0010
1000
,
0001
1000
1000
1000
,
1000
1000
1000
1000
,
1000
1000
1000
1000
,
0001
0100
0010
1000
0001
0100
0010
1000
,
0001
1000
1000
1000
,
1000
1000
1000
1000
,
1000
1000
1000
1000
,
0001
0100
0010
1000
0001
0100
0010
1000
,
0001
0010
0001
0010
0001
0010
0001
0010
,
0100
1000
0100
1000
0100
1000
0100
1000
,
0001
0100
0001
0100
0001
0100
0001
0100
,
0010
1000
0010
1000
0010
1000
0010
1000
,
0001
0010
0001
0010
0001
0010
0001
0010
,
0100
1000
0100
1000
0100
1000
0100
1000
,
0001
1000
0001
0000
1000
0001
1000
0000
,
0010
0100
0010
0000
0100
0010
0100
0000
,
0001
0010
0001
0010
0001
0010
0001
0010
,
0100
1000
0100
1000
0100
1000
0100
1000
,
0001
0100
0001
0100
0001
0100
0001
0100
,
0010
1000
0010
1000
0010
1000
0010
1000
,
0001
0010
0001
0010
0001
0010
0001
0010
,
0100
1000
0100
1000
0100
1000
0100
1000
,
0001
1000
0001
0000
1000
0001
1000
0000
,
0010
0100
0010
0000
0100
0010
0100
0000
,
0002
2003
3002
2003
,
3002
2003
3002
2003
,
3002
2003
3002
2003
,
3002
2003
3002
2003
,
3002
2003
3002
2003
,
3002
2003
3002
2003
,
3002
2003
3002
2003
,
3002
2003
3002
2003
,
3002
2003
3002
2003
,
3002
2003
3002
2003
,
3002
2003
3002
2003
,
3002
2003
3002
2003
,
3002
2003
3002
2003
,
3002
2003
3002
2003
,
3002
2003
3002
2003
,
3002
2003
3002
2003
,
3001
0001
0001
0001
,
1000
1000
1000
1000
,
0010
0010
0010
0010
,
1001
0000
0000
0000
,
0100
0100
0100
0100
,
0010
0010
0010
0010
,
1000
1000
1000
1000
,
0101
0000
0000
0000
,
0010
0010
0010
0010
,
1000
1000
1000
1000
,
0100
0100
0100
0100
,
0011
0000
0000
0000
,
0100
0100
0100
0100
,
0010
0010
0010
0010
,
0001
0001
0001
0100
,
1001
0000
0000
0000
,
1000
0000
0100
0010
0001
0000
0001
0010
,
0100
0000
1000
0100
0010
0000
0010
0100
,
1000
0000
0001
0010
0100
1000
0001
1000
,
0100
0000
0000
0000
,
1000
0000
0100
0010
0001
0000
0001
0010
,
0100
0000
1000
0100
0010
0000
0010
0100
,
1000
0000
0001
0010
0100
1000
0001
1000
,
0100
0000
0000
0000
,
1000
0000
0100
0010
0001
0000
0001
0010
,
0100
0000
1000
0100
0010
0000
0010
0100
,
1000
0000
0001
0010
0100
1000
0001
1000
,
0100
0000
0000
0000
,
1000
0100
1000
0000
0001
0100
0001
0000
,
1000
0010
1000
0000
0001
0010
0001
0000
,
1000
0100
0010
0001
0010
0100
1000
0001
,
0100
0000
1001
0000
,
0001
0000
0001
0000
,
0100
0000
0100
0000
,
0010
1000
0100
0000
,
0010
0000
0001
0000
,
1000
0010
0100
0000
,
0001
0000
0100
0000
,
0010
1000
0001
0000
,
1000
0000
0000
0000
,
1000
0010
0100
0000
,
0001
0000
0100
0000
,
0010
1000
0001
0000
,
0010
0000
0001
0000
,
1000
0010
0100
0000
,
0001
0000
1000
0000
,
1001
0000
0100
0000
,
1001
0000
0000
0000
,
0000
0000
1011
0000
,
1000
0001
0100
0000
,
0002
2003
3002
2003
,
3002
2003
3002
2003
,
3002
2003
3002
2003
,
3002
2003
3002
2003
,
3002
2003
3002
2003
,
3002
2003
3002
2003
,
3002
2003
3002
2003
,
3002
2003
3002
2003
,
3002
2003
3002
2003
,
3002
2003
3002
2003
,
3002
2003
3002
2003
,
3002
2003
3002
2003
,
3002
2003
3002
2003
,
3002
2003
3002
2003
,
3002
2003
3002
2003
,
3002
2003
3002
2003
,
3001
0100
1000
0100
0001
0100
1000
0100
,
0001
0010
1000
0010
0001
0010
1000
0010
,
0001
0100
1000
0100
0001
0100
1000
0100
,
0001
0010
1000
0010
0001
0010
1000
0010
,
0001
0100
1000
0100
0001
0100
1000
0100
,
0001
0010
1000
0010
0001
0010
1000
0010
,
0001
0100
1000
0100
0001
0100
1000
0100
,
0001
0010
1000
0010
0001
0010
1000
0010
,
0001
0100
1000
0100
0001
0100
1000
0100
,
0001
0010
1000
0010
0001
0010
1000
0010
,
0001
0100
1000
0100
0001
0100
1000
0100
,
0001
0010
1000
0010
0001
0010
1000
0010
,
0001
0100
1000
0100
0001
0100
1000
0100
,
0001
0010
1000
0010
0001
0010
1000
0010
,
0001
0000
0000
0000
,
0000
0000
0000
0000
,
0002
2003
3002
2003
,
3002
2003
3002
2003
,
3002
2003
3002
2003
,
3002
2003
3002
2003
,
3002
2003
3002
2003
,
3002
2003
3002
2003
,
3002
2003
3002
2003
,
3002
2003
3002
2003
,
3002
2003
3002
2003
,
3002
2003
3002
2003
,
3002
2003
3002
2003
,
3002
2003
3002
2003
,
3002
2003
3002
2003
,
3002
2003
3002
2003
,
3002
2003
3002
2003
,
3002
2003
3002
2003
,
3001
0100
0001
0100
0001
0010
0001
0010
,
0001
0100
0001
0100
0001
0010
0001
0010
,
0001
0010
0100
1000
0100
0010
0001
1000
,
0100
0010
0001
0010
0100
1000
0001
0000
,
1000
0100
1000
0100
1000
0010
1000
0010
,
1000
0100
1000
0100
1000
0010
1000
0010
,
1000
0100
0010
0001
0010
0100
1000
0001
,
0010
0100
1000
0100
0010
0001
1000
0000
,
0001
0100
0001
0100
0001
0010
0001
0010
,
0001
0100
0001
0100
0001
0010
0001
0010
,
0001
0010
0100
1000
0100
0010
0001
1000
,
0100
0010
0001
0010
0100
1000
0001
0000
,
1000
0100
1000
0100
1000
0010
1000
0010
,
1000
0100
1000
0100
1000
0010
1000
0010
,
1000
0100
0010
0001
0010
0100
1000
0001
,
0010
0100
1000
0100
0010
0001
1000
0000
,
0001
0100
0001
0100
0001
1000
0001
1000
,
0100
1000
0100
1000
0001
1000
0001
1000
,
0001
0100
0010
0000
1000
0010
0100
0000
,
0001
0100
0010
0000
1000
0000
0001
0000
,
1000
0100
1000
0100
1000
0001
1000
0001
,
0100
0001
0100
0001
1000
0001
1000
0001
,
1000
0100
0010
0000
0001
0010
0100
0000
,
1000
0001
0100
0010
1000
0000
0000
0000
,
0001
0100
0001
0100
0001
1000
0001
1000
,
0100
1000
0100
1000
0001
1000
0001
1000
,
0001
0100
0010
0000
1000
0010
0100
0000
,
0001
0100
0010
0000
1000
0000
0001
0000
,
1000
0100
1000
0100
1000
0001
1000
0001
,
0100
0001
0100
0001
1000
0001
1000
0001
,
1000
0100
0010
0000
0001
0010
0100
0000
,
1000
0000
1011
0000
,
0002
2003
3002
2003
,
3002
2003
3002
2003
,
3002
2003
3002
2003
,
3002
2003
3002
2003
,
3002
2003
3002
2003
,
3002
2003
3002
2003
,
3002
2003
3002
2003
,
3002
2003
3002
2003
,
3002
2003
3002
2003
,
3002
2003
3002
2003
,
3002
2003
3002
2003
,
3002
2003
3002
2003
,
3002
2003
3002
2003
,
3002
2003
3002
2003
,
3002
2003
3002
2003
,
3002
2003
3002
2003
,
3001
0000
0100
0001
1000
0100
1000
0000
,
0000
1001
0110
0000
,
0010
0000
1000
0001
0100
0000
0001
1000
,
0100
0000
1000
0001
0100
0000
0000
0000
,
0010
0000
1000
0100
0001
0100
1000
0000
,
0000
0100
1001
0000
,
0010
0000
0001
0010
1000
0000
0010
0001
,
1000
0000
0010
1000
0001
0000
0100
0000
,
0010
0000
1000
0100
0001
0100
1000
0000
,
1000
0000
0010
0000
0100
0001
0100
0000
,
0010
1000
0100
0010
,
0001
1000
0001
0000
,
1000
0000
0001
0100
1000
0100
0001
0000
,
0000
0000
1000
0000
0100
0010
0001
1000
,
0001
0010
0100
1000
0001
1000
0100
0010
,
0001
1000
0001
0010
0100
1000
0001
1000
,
0100
1000
0100
1000
0010
1000
0001
0100
,
0001
0000
0010
0000
0001
0010
0100
1000
,
0001
0010
0001
0010
0001
0100
0001
0100
,
0001
1000
0001
1000
0001
0010
0001
0010
,
0001
0000
0000
0000
,
1000
0100
0010
0001
1000
0100
0010
0001
,
1000
0010
0100
0001
1000
0010
0100
0001
,
1000
0100
0010
0100
1000
0001
0010
0100
,
0010
0000
0000
0000
,
0001
0000
0000
0000
,
1000
0000
0000
0000
,
0100
0000
0000
0000
,
0010
0000
0000
0000
,
0000
0000
0000
0000
,
0000
0000
0000
0000
,
0000
0000
1011
0000
,
0002
2003
3002
2003
,
3002
2003
3002
2003
,
3002
2003
3002
2003
,
3002
2003
3002
2003
,
3002
2003
3002
2003
,
3002
2003
3002
2003
,
3002
2003
3002
2003
,
3002
2003
3002
2003
,
3002
2003
3002
2003
,
3002
2003
3002
2003
,
3002
2003
3002
2003
,
3002
2003
3002
2003
,
3002
2003
3002
2003
,
3002
2003
3002
2003
,
3002
2003
3002
2003
,
3002
2003
3002
2003
,
3001
0000
0100
0000
1010
0000
0100
0001
,
0010
0100
1000
0000
0011
0000
0100
0000
,
1000
0000
0010
0000
0101
0000
0010
1000
,
0001
0100
0010
0000
1001
0000
0100
0000
,
0010
0000
1000
0000
1100
0000
0010
0001
,
1000
0100
0010
0000
0101
0000
0010
0000
,
1000
0000
0100
0000
0011
0000
0100
1000
,
0010
0100
0001
0000
1010
0000
0100
0000
,
0001
0000
0100
0000
1010
0000
0100
0001
,
0010
0100
1000
0000
0011
0000
0100
0000
,
1000
0000
0010
0000
0101
0000
0010
1000
,
0001
0100
0010
0000
1001
0000
0100
0000
,
0010
0000
1000
0000
1100
0000
0010
0001
,
1000
0100
0010
0000
0101
0000
0010
0000
,
1000
0000
0100
0000
0011
0000
0100
1000
,
0010
0100
0001
0000
1010
0000
0100
0000
,
0001
0000
0100
0000
1010
0000
0100
0001
,
0010
0100
1000
0000
0011
0000
0100
0000
,
1000
0000
0010
0000
0101
0000
0010
1000
,
0001
0100
0010
0000
1001
0000
0100
0000
,
0010
0000
1000
0000
1100
0000
0010
0001
,
1000
0100
0010
0000
0101
0000
0010
0000
,
1000
0000
0100
0000
0011
0000
0100
1000
,
0010
0100
0001
0000
1010
0000
0100
0000
,
0001
0000
0100
0000
1010
0000
0100
0001
,
0010
0100
1000
0000
0011
0000
0100
0000
,
1000
0000
0010
0000
0101
0000
0010
1000
,
0001
0100
0010
0000
1001
0000
0100
0000
,
0010
0000
1000
0000
1100
0000
0010
0001
,
1000
0100
0010
0000
0101
0000
0010
0000
,
1000
0000
0100
0000
0011
0000
0100
1000
,
0010
0100
0001
0000
1010
0000
0100
0000
,
0002
2003
3002
2003
,
3002
2003
3002
2003
,
3002
2003
3002
2003
,
3002
2003
3002
2003
,
3002
2003
3002
2003
,
3002
2003
3002
2003
,
3002
2003
3002
2003
,
3002
2003
3002
2003
,
3002
2003
3002
2003
,
3002
2003
3002
2003
,
3002
2003
3002
2003
,
3002
2003
3002
2003
,
3002
2003
3002
2003
,
3002
2003
3002
2003
,
3002
2003
3002
2003
,
3002
2003
3002
2003
,
3000
0000
0000
0000
,
0000
0000
0000
0000
,
0000
0000
0000
0000
,
1011
0000
0000
0000
,
0001
0100
0001
0100
0010
1000
0010
1000
,
0001
0100
0001
0100
0010
1000
0010
1000
,
0001
0010
0001
0010
0001
0010
0001
0010
,
0100
1000
0100
1000
0100
1000
0100
1000
,
0001
0100
0001
0100
0010
1000
0010
1000
,
0001
0100
0001
0100
0010
1000
0010
1000
,
0001
0010
0001
0010
0001
0010
0001
0010
,
0100
1000
0100
1000
0100
1000
0100
1000
,
0001
0100
0001
0100
0010
1000
0010
1000
,
0001
0010
0001
0010
0100
1000
0100
1000
,
0001
0100
0001
0100
0010
1000
0010
1000
,
0100
1000
0010
1000
0100
1000
0010
1000
,
0001
0100
0001
0100
0010
1000
0010
1000
,
0001
0010
0001
0010
0100
1000
0100
1000
,
0001
0100
0001
0100
0010
1000
0010
1000
,
0100
1000
0010
1000
0100
1000
0010
1000
,
0002
2003
3002
2003
,
3002
2003
3002
2003
,
3002
2003
3002
2003
,
3002
2003
3002
2003
,
3002
2003
3002
2003
,
3002
2003
3002
2003
,
3002
2003
3002
2003
,
3002
2003
3002
2003
,
3002
2003
3002
2003
,
3002
2003
3002
2003
,
3002
2003
3002
2003
,
3002
2003
3002
2003
,
3002
2003
3002
2003
,
3002
2003
3002
2003
,
3002
2003
3002
2003
,
3002
2003
3002
2003
,
3001
0001
1000
1000
,
0010
0010
0100
0100
,
0001
0100
1000
0100
,
0001
0010
1000
0010
,
0100
0001
0100
1000
,
0010
0100
1000
0100
,
0001
0010
0100
0001
,
0100
1000
0001
0100
,
1000
0100
0001
0010
,
1000
0010
0001
0100
,
0010
1000
0100
0001
,
0100
1000
0001
0010
,
1000
0010
0001
0100
,
0010
1000
0100
0001
,
0100
1000
0001
0010
,
1000
0010
0001
1000
,
1011
0000
0000
0000
,
0000
0000
0000
0000
,
0000
0000
0000
0000
,
0000
0000
0000
0000
1011
0000
0000
1011
,
0000
0000
1101
0000
0000
1101
0000
0000
,
1011
0000
0000
0000
,
0000
0000
0000
0000
,
0000
0000
0000
0000
,
0001
0010
0100
1000
0001
0010
0100
1000
,
0001
0100
0010
1000
0001
0100
0010
1000
,
0001
0010
0100
1000
0100
0010
0001
1000
,
1001
0010
1001
0100
,
1001
0000
0111
0000
,
0000
1011
0000
0000
,
0000
0000
1001
0000
1000
0100
0010
0000
,
0001
0010
0100
0000
0000
0000
0000
0000
,
0000
0000
0000
0000
,
0000
0000
0000
0111
,
1011
1110
0000
1011
,
0000
0000
0000
0000
,
0000
0000
0000
0000
,
0000
0000
1101
0000
,
0002
2003
3002
2003
,
3002
2003
3002
2003
,
3002
2003
3002
2003
,
3002
2003
3002
2003
,
3002
2003
3002
2003
,
3002
2003
3002
2003
,
3002
2003
3002
2003
,
3002
2003
3002
2003
,
3002
2003
3002
2003
,
3002
2003
3002
2003
,
3002
2003
3002
2003
,
3002
2003
3002
2003
,
3002
2003
3002
2003
,
3002
2003
3002
2003
,
3002
2003
3002
2003
,
3002
2003
3002
2003
,
3001
0100
0010
1001
,
0100
0010
1010
0100
,
0001
0011
0100
1000
,
1010
0100
1001
0010
,
0101
0010
1000
1100
,
0010
1001
0100
1001
,
0100
0010
1000
0001
,
0010
0100
1000
0010
,
1001
0100
0010
1001
,
0100
0001
1010
0100
,
0001
0110
1000
0010
,
0101
0010
1000
0100
,
1001
0010
0100
1000
,
0001
0100
0010
0100
,
1001
0010
0100
0001
,
0010
0100
1000
0010
,
1001
0000
0000
0000
,
0000
0000
0000
0000
,
0001
0100
0010
1000
0001
0100
0010
1000
,
0100
0010
0001
1000
0100
0010
0001
1000
,
0001
0100
0010
1000
0001
0100
0010
1000
,
0100
0010
0001
1000
0100
0010
0001
1000
,
0010
1000
0001
0100
0010
1000
0001
0100
,
0010
1000
0100
0010
0001
1000
0100
0010
,
0001
0100
0010
1000
0001
1000
0100
0010
,
0001
1000
0010
0100
0001
1000
0100
0010
,
0001
0100
0010
1000
0001
0100
0010
1000
,
0100
0010
0001
1000
0100
0010
0001
1000
,
0001
0100
0010
1000
0001
0100
0010
1000
,
0100
0010
0001
1000
0100
0010
0001
1000
,
0010
1000
0001
0100
0010
1000
0001
0100
,
0010
1000
0100
0010
0001
1000
0100
0010
,
0001
0100
0010
1000
0001
1000
0100
0010
,
0001
1000
0010
0100
0001
1000
0100
0010
,
0002
2003
3002
2003
,
3002
2003
3002
2003
,
3002
2003
3002
2003
,
3002
2003
3002
2003
,
3002
2003
3002
2003
,
3002
2003
3002
2003
,
3002
2003
3002
2003
,
3002
2003
3002
2003
,
3002
2003
3002
2003
,
3002
2003
3002
2003
,
3002
2003
3002
2003
,
3002
2003
3002
2003
,
3002
2003
3002
2003
,
3002
2003
3002
2003
,
3002
2003
3002
2003
,
3002
2003
3002
2003
,
3001
0100
0010
1000
0010
0100
0001
0100
,
0010
1000
0100
0010
0001
0010
1000
0010
,
0001
0010
0100
1000
0100
0010
0001
0100
,
0010
1000
0010
0100
0001
0100
1000
0100
,
0001
0100
0010
1000
0010
0100
0001
0100
,
0010
1000
0100
0010
0001
0010
1000
0010
,
0001
0010
0100
1000
0100
0010
0001
0100
,
0010
1000
0010
0100
0001
0100
1000
0100
,
0001
0100
0010
1000
0010
0100
0001
0100
,
0010
1000
0100
0010
0001
0010
1000
0010
,
0001
0010
0100
1000
0100
0010
0001
0100
,
0010
1000
0010
0100
0001
0100
1000
0100
,
0001
0100
0010
1000
0010
0100
0001
0100
,
0010
1000
0100
0010
0001
0010
1000
0010
,
0001
0010
0100
1000
0100
0010
0001
0100
,
0010
1000
0010
0100
0001
0100
1000
0100
,
0001
0100
0010
1000
0010
0100
0001
0100
,
0010
1000
0100
0010
0001
0010
1000
0010
,
0001
0010
0100
1000
0100
0010
0001
0100
,
0010
1000
0010
0100
0001
0100
1000
0100
,
0001
0100
0010
1000
0010
0100
0001
0100
,
0010
1000
0100
0010
0001
0010
1000
0010
,
0001
0010
0100
1000
0100
0010
0001
0100
,
0010
1000
0010
0100
0001
0100
1000
0100
,
0001
0100
0010
1000
0010
0100
0001
0100
,
0010
1000
0100
0010
0001
0010
1000
0010
,
0001
0010
0100
1000
0100
0010
0001
0100
,
0010
1000
0010
0100
0001
0100
1000
0100
,
0001
0100
0010
1000
0010
0100
0001
0100
,
0010
1000
0100
0010
0001
0010
1000
0010
,
0001
0010
0100
1000
0100
0010
0001
0100
,
0010
1000
0010
0100
0001
0100
1000
0100
,
0001
0100
0010
1000
0100
0001
0100
1000
,
0010
0100
0001
0010
1000
0010
0001
0100
,
0010
1000
0100
0001
0100
1000
0010
0100
,
0001
0010
1000
0010
0001
0100
0010
1000
,
1001
0000
0000
0000
,
0000
0000
0000
0000
,
0000
0000
0000
0000
,
0000
0000
0000
0000
,
1011
0000
0000
0000
,
0000
0000
0000
0000
,
0000
0000
0000
0000
,
0000
0000
0000
0000
,
1000
0000
1000
0001
,
0000
0100
0000
0010
,
0000
0000
1000
0100
,
0000
0010
0001
0010
,
0100
0000
1000
0010
,
0000
0100
0000
0001
,
0000
0100
0000
0010
,
0000
1000
0000
0001
,
0010
0000
0100
1000
,
0100
0010
0001
1000
,
0000
0010
0000
0100
,
0001
0100
0010
0000
,
1000
0000
0000
0000
,
0001
0010
0100
1000
0100
0010
0001
0010
,
0100
0000
0000
0000
;
