#TITLE:Boom Daka;
#SUBTITLE:;
#ARTIST:United in Dance;
#TITLETRANSLIT:;
#SUBTITLETRANSLIT:;
#ARTISTTRANSLIT:;
#GENRE:;
#CRChallenge:;
#BANNER:daka.png;
#BACKGROUND:daka-bg.png;
#LYRICSPATH:;
#CDTITLE:!cdtitle.png;
#MUSIC:daka.ogg;
#OFFSET:0.000;
#SAMPLESTART:32.740;
#SAMPLELENGTH:12.000;
#SELECTABLE:YES;
#DISPLAYBPM:175.000;
#BPMS:0.000=87.485,9.000=174.970,68.000=349.940,69.000=174.970,84.000=349.940,85.000=174.970,100.000=349.940,101.000=174.970,116.000=349.940,117.000=174.970,132.000=349.940,133.000=174.970,145.000=349.940,149.000=174.970,161.000=349.940,165.000=174.970,177.000=349.940,181.000=174.970,193.000=349.940,197.000=174.970,279.000=349.940,280.000=174.970;
#STOPS:8.000=4.801
,11.000=0.343
,18.000=0.343
,25.000=0.343
,32.000=0.343
,68.000=0.171
,84.000=0.086
,84.500=0.086
,100.000=0.171
,116.000=0.086
,116.500=0.086
,132.000=0.171
,145.000=0.129
,145.750=0.086
,146.250=0.043
,146.500=0.086
,147.000=0.171
,148.000=0.086
,148.500=0.086
,161.000=0.129
,161.750=0.086
,162.250=0.043
,162.500=0.086
,163.000=0.171
,164.000=0.086
,164.500=0.086
,177.000=0.129
,177.750=0.086
,178.250=0.043
,178.500=0.086
,179.000=0.171
,180.000=0.086
,180.500=0.086
,193.000=0.086
,193.500=0.043
,193.750=0.043
,194.000=0.086
,194.500=0.043
,194.750=0.043
,195.000=0.086
,195.500=0.043
,195.750=0.043
,196.000=0.086
,196.500=0.043
,196.750=0.043
,199.000=0.343
,206.000=0.343
,213.000=0.343
,220.000=0.343
,227.000=0.343
,230.000=0.343
,233.000=0.343
,240.000=0.343
,243.000=0.343
,246.000=0.343
,279.000=0.857
;
#BGCHANGES:;
#KEYSOUNDS:;
#NOTES:
     dance-single:
     Renard:
     Hard:
     11:
     0.882,0.000,0.574,0.036,0.779:
0000
0000
0000
0000
,
0000
0000
0000
0000
,
2002
0000
3003
0000
1000
0000
0000
0001
0000
0100
0001
0000
0010
0000
0100
0000
,
1000
0000
0000
0100
0000
1000
0001
0000
0100
0000
0010
0000
1000
0001
1000
0001
,
1000
0000
0000
0001
0000
0001
1000
0000
0010
0000
1000
0000
0010
0000
0000
1000
,
0000
1000
0001
0000
0100
0000
0010
0000
1000
0010
0100
0001
1000
0000
0000
0001
,
0000
0001
1000
0000
0001
0000
0010
0000
0001
0000
0000
0001
0000
1000
0001
0000
,
0100
0000
0010
0000
1000
0001
1000
0001
1000
0000
0000
0001
0000
0001
1000
0000
,
0010
0000
1000
0000
0010
0000
0000
0100
0000
0100
0001
0000
0100
0000
0010
0000
,
1000
0010
0100
0001
1000
0000
0001
0000
1000
0001
1000
0001
0100
0000
0010
0000
,
0100
0010
0100
0010
0100
0000
0001
0000
0100
0001
0100
0001
1000
0000
0010
0000
,
1000
0000
0100
0000
0010
0000
0001
0000
1000
0001
1000
0001
1000
0000
0100
0000
,
1000
0100
1000
0100
0010
0000
0100
0000
0010
0100
0010
0100
0010
0000
0001
0000
,
1000
0010
1010
0010
0110
0100
0101
0001
,
0011
0010
0110
0100
1100
1000
1001
0001
,
0101
0100
0101
1010
1100
0011
0101
1010
,
1100
0000
0011
0000
1000
0100
0010
0001
1000
0100
0010
0001
1000
0100
0010
0001
,
1000
0000
0000
0000
0011
0000
0000
1100
0000
1000
0100
0000
0010
0000
0001
0000
,
1000
0000
0010
0000
0100
0000
0000
0001
0000
0100
0010
0000
1000
0000
0100
0000
,
0010
0001
1000
0100
0010
0000
0000
0011
0000
0100
1000
0000
0100
0000
0010
0000
,
0001
0000
1000
0000
0010
0000
0000
0110
0000
0100
0001
0000
1000
0000
0001
0000
,
1000
0000
1000
0000
1100
0000
0000
0011
0000
1000
0100
0000
0010
0000
0001
0000
,
1000
0000
0010
0000
0101
0000
0000
1010
0000
1000
0001
0000
0010
0000
0100
0000
,
1000
0100
0010
0001
1000
0000
0000
1100
0000
1000
0100
0000
0010
0000
0001
0000
,
0100
0000
0010
0000
1010
0000
0000
0101
0000
0100
0001
0000
1000
0010
0100
0001
,
1000
0000
0000
0000
0001
0000
0000
1000
0000
1000
0100
0000
0010
0000
0001
0000
,
1000
0000
0010
0000
0100
0000
0000
0001
0000
0001
0100
0000
0010
0000
1000
0000
,
0100
0010
0100
0010
0100
0000
0000
0010
0000
0010
0001
0000
1000
0000
0010
0000
,
0100
0000
0001
0000
1000
0000
0000
0100
0000
0100
0010
0000
0001
0000
1000
0000
,
0001
0000
0001
0000
1000
0000
0000
0010
0000
0010
0100
0000
0001
0000
0010
0000
,
0100
0000
1000
0000
0100
0000
0000
0010
0000
0010
0001
0000
1000
0000
0010
0000
,
0100
0001
0100
0001
0100
0000
0000
0010
0000
0010
1000
0000
0100
0000
0010
0000
,
0001
0000
1000
0000
0001
0000
0000
0001
1000
0000
0000
1000
0001
0000
0001
0000
,
0100
0000
0001
0100
1010
0000
0001
0100
,
1010
0000
1000
0100
0011
0000
1000
0100
,
0011
0000
0001
0100
1010
0000
0001
0100
,
1010
0000
0000
0000
1000
0000
0000
0001
0000
0001
1000
0000
0001
0000
0000
0000
,
1000
1000
1000
0100
0011
0000
1000
0100
,
0011
0000
0001
0100
1010
0000
0001
0100
,
1010
0000
1000
0100
0011
0000
1000
0100
,
0011
0000
0000
0000
0001
0000
0000
1000
0000
1000
0001
0000
0100
0000
0000
0000
,
0001
0000
0001
0000
1000
0000
0001
0100
0001
0000
1000
0010
1000
0000
0001
0010
,
0001
0000
1000
0100
1000
0000
0001
0100
0001
0000
1000
0010
1000
0000
0001
0000
,
0010
0000
0100
0000
1000
0000
0001
0010
0001
0000
1000
0100
1000
0000
0001
0100
,
0001
0000
1000
0010
1000
0000
0000
0001
0000
0001
1000
0000
0001
0000
0000
0000
,
0100
0000
0100
0000
0001
0000
1000
0010
1000
0000
0001
0010
0001
0000
1000
0100
,
1000
0000
0001
0100
0001
0000
1000
0010
1000
0000
0001
0010
0001
0000
1000
0100
,
1000
0000
0001
0100
0001
0000
1000
0010
1000
0000
0001
0010
0001
0000
1000
0100
,
1000
0000
0001
0000
1000
0000
0010
0100
0001
0000
1000
0010
0100
0000
0001
1000
,
0010
0000
0100
0001
1000
0000
0000
0010
0000
0010
0100
0000
0001
0000
0100
0000
,
0010
0000
0000
1000
0000
0100
0010
0000
0001
0000
1000
0000
0100
0010
0001
1000
,
0100
0000
0000
1000
0000
0001
1000
0000
0001
0000
0010
0000
0001
0000
0000
1000
,
0000
0100
1000
0000
0001
0000
0010
0000
0100
1000
0100
0010
0001
0000
0000
1000
,
0000
0100
0010
0000
0001
0000
1000
0000
0001
0000
0000
1000
0000
0100
0010
0000
,
0001
0000
1000
0000
0100
0010
0001
1000
0100
0000
0000
1000
0000
0001
0010
0000
,
0100
0000
0010
0000
0001
0000
0000
1000
0000
0100
0010
0000
0001
0000
1000
0000
,
0100
0010
0001
1000
0010
0000
0000
0100
0000
0001
1000
0000
0010
0000
0101
0000
,
0010
0000
0000
1000
0000
0001
0010
0000
0100
0000
1100
0000
0100
0000
0000
0010
,
0000
0001
1000
0000
0010
0000
0101
0000
0010
0000
0000
1000
0000
0100
0010
0000
,
0001
0000
1000
0000
0010
0100
0010
0100
0001
0000
0000
0100
0000
0010
1000
0000
,
0001
0000
1001
0000
0001
0000
0000
0010
0000
0100
1000
0000
0100
0000
0110
0000
,
0010
0000
0000
0001
0000
1000
0010
0000
0100
0000
0101
0000
0010
0000
0000
1000
,
0000
0100
0010
0000
0001
0000
1000
0000
0100
0010
0001
1000
0100
0000
0010
0000
,
0001
1000
0100
0010
0001
0000
1000
0000
0100
0010
0001
1000
0100
0000
0010
0000
,
0001
1000
0100
0010
0001
0000
1000
0000
0100
0000
0010
0000
0001
0000
1000
0000
,
0010
0100
0001
1000
0010
0000
0100
0000
0001
1000
0010
0100
0001
0000
1000
0000
,
0010
0100
0001
1000
0010
0000
0100
0000
0001
0000
0010
0000
0011
0000
0010
0000
,
0110
0010
1010
0010
0110
0010
0011
0010
,
0110
0010
1010
0010
0110
0010
0011
0011
,
0011
0011
0011
0011
0011
0011
2002
0000
,
3103
0000
0000
0000
;
#NOTES:
     dance-single:
     Renard:
     Medium:
     9:
     0.647,0.000,0.018,0.000,0.196:
0000
0000
0000
0000
,
0000
0000
0000
0000
,
1001
0000
0000
0000
1000
0000
0000
0100
0000
0000
0010
0000
0001
0000
1000
0000
,
0001
0000
0000
0100
0000
0000
0010
0000
1000
0000
0100
0000
0010
0000
0001
0000
,
1000
0000
0000
0100
0000
0000
0010
0000
0001
0000
1000
0000
0010
0000
0000
0100
,
0000
0000
0001
0000
0010
0000
0100
0000
1000
0000
0001
0000
0100
0000
0000
0010
,
0000
0000
1000
0000
0001
0000
0010
0000
0100
0000
0000
1000
0000
0000
0001
0000
,
0100
0000
0010
0000
1000
0000
0100
0000
0010
0000
0000
0001
0000
0000
0010
0000
,
0100
0000
1000
0000
0001
0000
0000
0100
0000
0000
0010
0000
1000
0000
0100
0000
,
0010
0001
0010
0100
1000
0001
0010
0100
,
1000
0001
0010
0100
1000
0001
0100
0010
,
1000
0010
1000
0000
0010
0000
1000
0000
0001
0000
0010
0000
0100
0000
1000
0000
,
0001
0010
0100
1000
0001
0100
0010
1000
,
0001
0100
0001
0000
0010
0000
0100
0000
1000
0000
0001
0000
0010
0000
0100
0000
,
1000
0000
0001
0100
0001
0000
0100
0000
0010
0000
1000
0000
0100
0000
0010
0000
,
0001
1000
0010
0100
0001
0010
0100
1000
,
0001
0000
0100
0000
0010
0000
1000
0000
0001
0000
0010
0000
0100
1000
0100
0000
,
1000
0000
0000
0000
0001
0000
0000
0100
0000
0000
0010
0000
1000
0000
0000
0000
,
0100
0000
0010
0000
0001
0000
0000
0010
0000
0000
0100
0000
1000
0000
0001
0000
,
0100
0000
0010
0000
1000
0000
0000
0100
0000
0000
0010
0000
0001
0000
0010
0000
,
0100
0000
1000
0000
0001
0000
0000
0100
0000
0000
0010
0000
1000
0000
0100
0000
,
0010
0000
0000
0000
0001
0000
0000
0010
0000
0000
0100
0000
1000
0000
0000
0000
,
0001
0000
0100
0000
0010
0000
0000
1000
0000
0000
0100
0000
0010
0000
0001
0000
,
0010
0000
0100
0000
1000
0000
0000
0001
0000
0000
0010
0000
0100
0000
0000
0000
,
1000
0000
0001
0000
0100
0000
0000
0010
0000
0000
1000
0000
0001
0000
0010
0000
,
0100
0000
0000
0000
1000
0000
0000
0001
0000
0000
0100
0000
0010
0000
1000
0000
,
0100
0000
0010
0000
0001
0000
0000
0010
0000
0000
0001
0000
1000
0000
0010
0000
,
0100
0000
0001
0000
1000
0000
0000
0001
0000
0000
0010
0000
0100
0000
1000
0000
,
0001
0000
0100
0000
0010
0000
0000
1000
0000
0000
0001
0000
0010
0000
0100
0000
,
0100
0100
1000
1000
0010
0100
0001
0010
,
0100
1000
0001
0001
0010
0100
1000
0001
,
0100
0010
1000
1000
0010
0100
0001
0000
,
1000
0000
0100
0000
1000
0000
0000
1000
0001
0000
0000
0001
1000
0000
1000
0000
,
0010
0000
1000
0010
1000
0010
0100
0010
,
0100
0010
1000
0010
0100
0010
1000
0010
,
0100
0000
0001
0100
0001
0100
0010
0100
,
0010
0000
0100
0000
0001
0000
0000
1000
0000
0100
1000
0000
0001
0000
0000
0000
,
1000
0000
0001
0100
0010
0100
0001
0100
,
0010
0100
0001
0100
0001
0100
0010
0100
,
0010
0000
1000
0010
1000
0010
0100
0010
,
0100
0000
0010
0000
1000
0000
0000
0001
0000
0100
0001
0000
1000
0000
0000
0000
,
0001
0000
1000
0010
1000
0010
0100
0010
,
0100
0010
1000
0001
1000
0001
0010
0001
,
0010
0000
0001
0100
0001
0100
0010
0100
,
0010
0000
0100
0000
0001
0000
0000
1000
0000
0001
0010
0000
0001
0000
0000
0000
,
1000
0000
0001
1000
0100
0000
1000
0001
,
0010
0000
0001
1000
0010
0100
0001
0010
,
0100
1000
0001
0010
0001
0000
1000
0010
,
1000
0000
0001
0100
0010
1000
0010
0100
,
0001
0000
1000
0000
0010
0000
0000
1000
0000
0000
0001
0000
0100
0000
0001
0000
,
1000
0000
0000
0100
0000
0000
0010
0000
0001
0000
0010
0000
0100
0000
1000
0100
,
1000
0000
0000
0001
0000
0000
0010
0000
0001
0000
1000
0000
0010
0000
0000
0100
,
0000
0000
0001
0000
1000
0000
0100
0000
0010
0000
0001
0010
0001
0000
0000
0010
,
0000
0000
0100
0000
1000
0000
0001
0000
0100
0000
0000
0010
0000
0000
1000
0000
,
0001
0000
0100
0000
0010
0000
1000
0010
1000
0000
0000
0010
0000
0000
1000
0000
,
0001
0000
0010
0000
0100
0000
0000
1000
0000
0000
0001
0000
0010
0000
0001
0000
,
1000
0010
0100
0001
0100
0001
1000
0000
,
0100
1000
0001
0010
0100
0000
1000
0010
,
0100
0001
0010
0000
0001
0010
0100
1000
,
0001
0100
0010
0100
0010
1000
0010
0100
,
0001
0000
1000
0010
0100
0001
1000
0000
,
0001
0100
0010
1000
0001
0000
1000
0010
,
0100
0001
0010
0100
1000
0001
0010
0100
,
1000
0001
0010
0100
1000
0100
0010
0001
,
0100
0010
1000
0100
0100
0100
1000
0001
,
0010
0100
1000
0001
0100
0010
1000
0100
,
0010
0001
0100
0010
0010
0010
1000
0010
,
0100
0001
0010
0100
1000
0001
0100
0100
,
0010
0010
1000
1000
0001
0001
0010
0010
,
0010
0010
0010
0010
0010
0010
0100
0000
,
1001
0000
0000
0000
;
#NOTES:
     dance-single:
     pyroko:
     Easy:
     8:
     0.451,0.000,0.219,0.036,0.000:
0000
0000
0000
0000
,
0000
0000
0000
0000
,
2000
3000
0010
0000
0100
0010
0100
0000
,
0010
0000
1000
0000
0010
1000
0010
1000
,
0100
0010
0100
1000
,
0001
0000
1000
0001
1000
0001
0100
0000
,
0001
0010
0001
1000
,
0001
1000
0001
1000
0010
0000
0100
0010
,
0100
0000
0010
0000
1000
0000
0100
0010
,
0100
1000
0100
0000
0010
0100
1100
0000
,
0100
0010
0110
0000
0001
1000
1001
0000
,
0001
0100
0101
0000
0010
0100
0110
0000
,
0010
1000
1010
0000
0010
1000
1100
0000
,
0100
0010
0110
0000
0110
0000
0110
0000
,
0110
1001
1001
1001
,
1001
0000
0001
1000
0001
1000
0001
1000
,
0001
1000
0001
1000
0001
1000
0001
0000
,
1001
0000
0001
0000
0100
0010
0100
0000
,
0000
0010
1000
0000
0100
0000
0010
0100
,
1000
0100
0010
0000
0001
1000
0001
0000
,
0010
0000
0001
0000
1000
0000
0001
0010
,
0002
0003
0001
0000
1000
0000
0010
0000
,
0000
0000
0100
0000
0010
0000
1000
0010
,
1000
0100
0010
0000
0100
0000
1000
0000
,
0100
0000
0010
0000
0100
0000
0010
0100
,
0110
1000
0001
0010
,
0000
0000
0001
0000
1000
0000
0001
1000
,
0001
1000
0010
0000
1000
0000
0010
0000
,
0000
0000
0100
0000
0010
0000
0100
0010
,
0100
0001
0010
0000
0001
0000
1000
0000
,
0000
0000
0010
0000
0100
0000
0010
1000
,
0100
1000
0100
0000
0010
0000
0100
0000
,
1000
0100
0010
0100
,
1000
0000
0010
0001
,
1000
0010
0100
0010
,
1000
0100
0010
0100
,
1000
0002
0000
0003
,
1000
0010
0100
0010
,
1000
0100
0010
0100
,
1000
0100
0010
0100
,
1000
0001
1000
0001
,
0100
0100
0010
0000
1000
0000
0100
0000
,
0010
0100
0010
0001
,
1000
0001
0100
0010
,
1000
0100
0010
0100
,
1000
1000
0010
0000
0100
0000
0010
0000
,
1000
0100
0010
0100
,
1000
0001
1000
0001
,
1000
0010
0100
0010
,
1000
0100
0010
0100
,
1000
0000
0001
0000
0100
0001
0100
0001
,
0100
0001
0010
0100
,
1000
0000
0100
1000
0100
1000
0100
0000
,
1000
0010
0100
0010
,
0100
0010
0100
0010
0100
0000
0010
0000
,
1000
0000
0100
0000
0010
0000
0100
1000
,
0100
1000
0100
0000
0010
0000
0100
0000
,
0001
0010
0001
1000
,
0010
0100
0010
1000
,
0100
0000
0010
0100
,
1000
0001
0010
0001
,
1000
0010
0100
0010
,
1000
0000
0010
1000
0100
1000
0100
0000
,
0010
0100
1000
0001
,
0010
0001
1000
0001
,
0010
0001
1000
0010
,
0100
0010
1000
0001
,
1001
1001
1001
1001
,
1001
0000
1001
0000
1001
0000
0001
1000
,
0001
1000
0001
1000
0001
1000
0002
0000
,
0003
0000
0000
0000
;
#NOTES:
     dance-single:
     pyroko:
     Beginner:
     4:
     0.374,0.000,0.292,0.073,0.000:
0000
0000
0000
0000
,
0000
0000
0000
0000
,
0000
0001
0100
0101
,
0010
1000
1010
0010
,
1000
0100
1100
0100
,
1000
0100
0010
0100
,
1000
1001
0001
0100
,
0001
1000
0001
0010
,
0011
0001
1000
0001
,
1000
0010
0100
0010
,
1000
0100
0010
0100
,
1000
0100
0010
0100
,
1000
0001
0010
0001
,
1000
0001
0001
0001
,
0001
1000
1000
1000
,
1000
1001
1001
1001
,
1001
2002
0000
3003
,
1001
0010
0100
0010
,
0000
1000
0100
1000
,
0100
0010
0100
1000
,
0000
0001
1000
0001
,
0100
0010
1000
0010
,
0000
1000
0100
0010
,
0000
0100
1000
0100
,
0000
1000
0001
0100
,
0110
1000
0100
0010
,
0000
0001
1000
0001
,
0100
0010
1000
1010
,
0000
0100
0010
0100
,
1000
0001
0010
0011
,
0000
0001
1000
1001
,
0001
1000
0010
0110
,
0000
0010
1000
0100
,
0010
0100
1000
0001
,
1000
0001
0010
0001
,
1000
0010
0100
0010
,
1000
0020
0000
0000
,
0030
0000
1000
0001
,
0010
0001
1000
0010
,
0100
0010
0100
0010
,
1000
0200
0000
0000
,
0000
0300
0010
0000
0001
0000
1000
0000
,
0001
0010
0100
1000
,
0100
0010
0100
1000
,
0001
2000
0000
0000
,
0000
3000
0010
0000
0100
0000
0010
0000
,
1000
0010
1000
0100
,
0010
0100
1000
0001
,
0010
0002
0000
0000
,
0000
0003
1000
0000
0010
0000
1010
0000
,
0100
0010
0100
1000
,
0001
0010
0011
0001
,
1000
0001
1000
0010
,
0100
0110
0010
1000
,
0010
1000
0001
0010
,
0011
0001
1000
0001
,
1000
0001
1000
1001
,
0010
0100
0110
0010
,
1000
1010
0100
1000
,
1100
0100
0010
0001
,
0011
0001
1000
1001
,
0001
0100
0101
0010
,
0100
0010
1000
0100
,
0010
0100
1000
0100
,
0010
0100
1000
0100
,
0010
0001
0100
0001
,
0010
0001
0010
0100
,
0100
0100
0100
0010
,
0010
0010
0010
0110
,
0110
0110
0110
0220
,
0330
0000
0000
0000
;
