#TITLE:Blockbuster;
#SUBTITLE:;
#ARTIST:Irvin;
#TITLETRANSLIT:;
#SUBTITLETRANSLIT:;
#ARTISTTRANSLIT:;
#CRChallenge:;
#BANNER:block.png;
#BACKGROUND:block-bg.png;
#LYRICSPATH:;
#CDTITLE:!cdtitle.png;
#MUSIC:block.ogg;
#OFFSET:0.000;
#SAMPLESTART:19.774;
#SAMPLELENGTH:12.000;
#SELECTABLE:YES;
#BPMS:0.000=194.000;
#STOPS:287.500=0.309
;
#BGCHANGES:;
#NOTES:
     dance-single:
     Renard:
     Hard:
     9:
     0.697,0.647,0.010,0.019,0.024:
0000
0000
0000
0000
,
0000
0000
0000
0000
,
0000
0000
0000
0000
,
0000
0000
0000
0000
,
0000
0000
0000
0000
,
0000
0000
0000
0000
,
0000
0000
0000
0000
,
0000
0000
0000
0000
,
1000
0000
0100
0000
0000
0100
0000
0000
,
0010
0000
0001
0000
0000
0001
0000
0000
,
0100
0000
0010
0000
0000
0010
0000
0000
,
1000
0000
0100
0000
0000
0100
0000
0000
,
0010
0000
0001
0000
0000
0001
0000
0000
,
0100
0000
0010
0000
0000
0010
0000
0000
,
1000
0000
0100
0000
0000
0100
0000
0000
,
0010
0000
0000
0000
0001
0000
1000
0001
1000
0000
0100
0000
0100
0000
1000
0000
,
0001
0100
0010
1000
0100
0010
0001
0100
,
0010
1000
0100
0010
0001
0010
0100
1000
,
0001
0010
0100
1000
0010
0100
0001
0010
,
0100
1000
0100
0010
0001
0100
0010
1000
,
0100
0010
0100
1000
0001
0010
0100
1000
,
0001
0100
0010
1000
0100
0010
0001
1000
,
0010
1000
0001
1000
0100
1000
0010
1000
,
0001
0010
0001
1000
0001
0100
0001
1000
,
0100
1000
0001
0010
0001
1000
0010
1000
,
0001
0100
0001
0100
0010
1000
0100
0010
,
0001
0010
0100
1000
0100
1000
0001
0100
,
0001
1000
0010
1000
0001
0010
0100
1000
,
0001
0100
0001
1000
0010
1000
0100
1000
,
0100
1000
0001
0010
0001
0010
0100
1000
,
0001
0100
0001
1000
0010
1000
0100
1000
,
0001
0010
0100
1000
0001
0010
0100
0000
0000
0000
0000
0000
,
1000
0100
0001
0100
1000
0100
0000
0100
,
1000
0010
0001
0010
1000
0010
0000
0010
,
0100
0001
0100
1000
0100
0001
0000
0001
,
0100
0001
0010
1000
0010
0001
0000
0001
,
0010
0100
0001
0100
1000
0100
0000
0100
,
1000
0010
0001
0010
1000
0010
0000
0010
,
1000
0100
0001
0100
1000
0010
0000
0010
,
1000
0001
0010
0001
0100
1000
0000
1000
,
0100
0010
1000
0100
0010
0001
0000
0001
,
0001
0010
0100
1000
0010
0100
0000
0100
,
0010
1000
0100
0010
0001
1000
0000
1000
,
0001
1000
0100
0010
0001
1000
0000
1000
,
0010
1000
0001
0100
0010
1000
0000
1000
,
0010
1000
0100
0010
0001
1000
0000
1000
,
0001
0010
0100
1000
0001
0100
0000
0100
,
0010
1000
0100
0010
0001
0000
0000
0000
,
1000
0100
1000
0100
0010
0001
0010
0001
,
0100
0001
0100
0001
1000
0010
1000
0010
,
0100
0001
0100
0001
0010
0001
0010
0001
,
1000
0100
0010
0001
0010
0100
1000
0001
,
1000
0010
1000
0001
0100
0001
1000
0100
,
1000
0001
0010
0001
0010
0100
1000
0001
,
0010
0001
0010
0100
1000
0100
1000
0001
,
1000
0010
1000
0010
1000
0100
0010
0001
,
0100
0001
0100
0001
1000
0001
0010
0001
,
0010
0001
1000
0001
1000
0100
1000
0001
,
0010
0001
0010
0001
1000
0001
1000
0001
,
0100
0001
1000
0001
0010
0100
0010
0001
,
1000
0100
1000
0100
1000
0001
1000
0001
,
1000
0010
1000
0010
1000
0010
0100
0001
,
1000
0100
0010
0001
0010
0100
1000
0001
,
0100
0010
1000
0100
0010
0001
0010
0000
,
0100
0000
1000
0100
0001
0100
1000
0010
,
0100
0000
0001
0100
1000
0100
0001
0010
,
0100
0000
0010
0100
0001
0100
1000
0010
,
0100
0000
1000
0100
0010
1000
0100
0010
,
0001
0000
0010
1000
0010
0100
1000
0010
,
0100
0000
1000
0100
0010
0100
0001
0010
,
0100
0000
0001
0100
1000
0010
0100
1000
,
0100
0000
0010
1000
0100
0010
0001
0010
,
0100
1000
0010
0001
0010
0100
1000
0100
,
0001
0010
0100
0001
0100
1000
0010
0100
,
1000
0100
0010
1000
0100
0001
0100
1000
,
0010
0100
0001
0010
1000
0010
0001
0010
,
0100
0001
0100
1000
0010
0100
1000
0100
,
0010
1000
0100
0001
0100
1000
0010
0100
,
0001
0010
0100
1000
0010
0100
0001
0000
,
0001
1000
0000
1000
0100
0000
2002
0000
,
3013
0000
0000
0000
;
#NOTES:
     dance-single:
     Renard:
     Medium:
     9:
     0.622,0.647,0.010,0.000,0.019:
0000
0000
0000
0000
,
0000
0000
0000
0000
,
0000
0000
0000
0000
,
0000
0000
0000
0000
,
0000
0000
0000
0000
,
0000
0000
0000
0000
,
0000
0000
0000
0000
,
0000
0000
0000
0000
,
1000
0000
0100
0000
0000
0100
0000
0000
,
0010
0000
0001
0000
0000
0001
0000
0000
,
0100
0000
0010
0000
0000
0010
0000
0000
,
1000
0000
0100
0000
0000
0100
0000
0000
,
0010
0000
0001
0000
0000
0001
0000
0000
,
0100
0000
0010
0000
0000
0010
0000
0000
,
1000
0000
0100
0000
0000
0100
0000
0000
,
0010
0000
0001
1000
0001
0100
0010
1000
,
0001
0100
0010
1000
0100
0010
0001
0100
,
0010
1000
0100
0010
0001
0010
0100
1000
,
0001
0010
0100
1000
0010
0100
0001
0010
,
0100
1000
0100
0010
0001
0100
0010
1000
,
0100
0010
0100
1000
0001
0010
0100
1000
,
0001
0100
0010
1000
0100
0010
0001
1000
,
0010
1000
0001
1000
0100
1000
0010
1000
,
0001
0010
0001
1000
0001
0100
0001
1000
,
0100
1000
0001
0010
0001
1000
0010
1000
,
0001
0100
0001
0100
0010
1000
0100
0010
,
0001
0010
0100
1000
0100
1000
0001
0100
,
0001
1000
0010
1000
0001
0010
0100
1000
,
0001
0100
0001
1000
0010
1000
0100
1000
,
0100
1000
0001
0010
0001
0010
0100
1000
,
0001
0100
0001
1000
0010
1000
0100
1000
,
0001
0010
0100
1000
0001
0010
0100
0000
0000
0000
0000
0000
,
1000
0100
0010
0001
0010
0100
0000
0100
,
1000
0010
0100
0001
0010
0001
0000
0001
,
0010
0100
1000
0001
0100
0010
0000
0010
,
1000
0100
1000
0001
0010
0100
0000
0100
,
0010
0001
1000
0010
0100
0010
0000
0010
,
1000
0100
0010
0001
0010
0100
0000
0100
,
1000
0010
0100
0001
0010
0100
0000
0100
,
0010
0001
1000
0010
0100
0001
0000
0001
,
0010
0100
1000
0001
0100
0010
0000
0010
,
1000
0010
0100
0010
1000
0100
0000
0100
,
0010
0001
0100
0001
0010
0100
0000
0100
,
1000
0010
0100
0001
0010
0100
0000
0100
,
0010
0001
0100
0010
1000
0100
0000
0100
,
1000
0010
0100
0001
0010
0001
0000
0001
,
0010
0100
1000
0001
0100
0010
1000
0100
,
0010
0001
0010
0100
1000
0000
0000
0000
,
0001
0010
0100
0000
1000
0100
0010
0000
,
0001
0010
0100
0000
1000
0000
0100
0010
,
0001
0010
0100
0000
1000
0100
0000
0010
,
0001
0000
0010
0100
0000
1000
0001
0100
,
0010
0000
1000
0010
0000
0100
0001
0000
,
0100
0000
0010
1000
0100
0010
0001
0000
,
0010
0000
0010
0001
0000
0001
1000
0000
,
1000
0000
0001
0100
0000
0100
0010
0000
,
1000
0010
0100
0001
0000
0100
0010
0000
,
1000
0010
0000
0100
0001
0000
0100
0010
,
1000
0100
0000
0010
0001
0000
0010
0100
,
1000
0001
0000
0010
0001
0000
1000
0100
,
0010
0010
0001
0001
,
1000
0100
1000
0000
0001
0010
0001
0000
,
1000
0000
1000
0010
0000
0010
0100
0000
,
0100
0001
0000
0001
1000
0000
0100
0010
,
0001
0000
1000
0000
0001
0100
0010
1000
,
0100
0000
0010
0001
0010
0100
1000
0001
,
0100
0000
0001
1000
0100
0010
0001
1000
,
0010
0000
1000
0100
0010
0001
1000
0010
,
0100
0000
0010
1000
0100
0010
0001
0010
,
0100
0000
0010
0001
0100
0010
1000
0100
,
0010
0000
0100
1000
0001
0100
0010
1000
,
0100
0000
0010
0001
0010
0100
1000
0010
,
0100
0001
0100
0010
1000
0000
0100
0000
,
0010
0000
0001
0010
0100
1000
0001
0000
,
0100
0000
0010
1000
0100
0000
0010
0000
,
0001
0010
0100
1000
0001
0000
0100
0000
,
0010
1000
0100
0000
0010
0001
0010
0000
,
0100
1000
0001
0000
0100
0010
1000
0000
,
0100
0000
0010
0001
0000
0010
0100
0000
,
1000
0001
0000
0010
0100
0000
0010
0000
,
1001
0000
0000
0000
;
#NOTES:
     dance-single:
     Renard:
     Easy:
     6:
     0.393,0.495,0.171,0.000,0.000:
0000
0000
0000
0000
,
0000
0000
0000
0000
,
0000
0000
0000
0000
,
0000
0000
0000
0000
,
0000
0000
0000
0000
,
0000
0000
0000
0000
,
0000
0000
0000
0000
,
0000
0000
0000
0000
,
1000
0100
0000
0100
,
0010
0001
0000
0001
,
1000
0010
0000
0010
,
0100
0001
0000
0001
,
1000
0000
0001
0000
0000
0001
0000
0000
,
0100
0000
0010
0000
0000
0010
0000
0000
,
1000
0000
0100
0000
0000
0100
0000
0000
,
0010
0000
0001
0000
0000
0001
0000
0000
,
1000
0000
0001
0100
0000
1001
0000
0000
,
0001
0000
1000
0100
0000
1001
0000
0000
,
1000
0000
0001
0100
0000
1001
0000
0000
,
1000
0000
0001
1000
0000
0100
0000
0000
,
1000
0000
0001
0100
0000
1001
0000
0000
,
0001
0000
1000
0100
0000
1001
0000
0000
,
1000
0000
0001
0100
0000
1001
0000
0000
,
0001
0010
0100
1000
,
0001
0000
1000
0010
0000
1001
0000
0000
,
1000
0000
0001
0010
0000
1001
0000
0000
,
0001
0000
1000
0010
0000
1001
0000
0000
,
1000
0000
0001
0100
0000
0001
0000
0000
,
1000
0000
0001
0010
0000
1001
0000
0000
,
0001
0000
1000
0010
0000
1001
0000
0000
,
1000
0000
0001
0010
0000
1001
0000
0000
,
0001
1000
0100
0000
,
0010
0000
0001
0000
0000
0001
0000
0000
,
1000
0000
0100
0000
0000
0100
0000
0000
,
0010
0000
0001
0000
0000
0001
0000
0000
,
1000
0010
0100
0001
,
0100
0000
0010
0000
0000
0010
0000
0000
,
1000
0100
0000
0000
,
0010
0001
0000
0000
,
1000
0001
0100
0001
,
1000
0000
0100
0000
1000
0100
0000
0000
,
0010
0000
0001
0000
0010
0001
0000
0000
,
1000
0000
0010
0000
1000
0010
0000
0000
,
0100
0000
0001
0000
0100
0001
0000
0000
,
0010
0000
0001
0000
1000
0100
0000
0000
,
1000
0000
0010
0000
0100
0001
0000
0000
,
1000
0000
0100
0000
1000
0001
0000
0000
,
0100
0001
0010
0001
,
1000
1000
0100
0100
,
0010
0000
0010
0000
0001
0000
1000
0100
,
0010
0010
0001
0000
,
0010
0000
0000
0100
0000
0000
1000
0100
,
0010
0000
0000
0001
0000
0000
0010
0000
,
0100
0000
0000
1000
0000
0000
0100
0010
,
0001
0000
0000
1000
0000
0000
0010
0000
,
0100
0001
0100
0010
,
1000
0000
1000
0010
0000
0010
0100
0000
,
0100
0010
0000
0010
1000
0000
0010
0000
,
0100
0000
0100
0001
0000
0001
0100
0000
,
0100
0010
0000
0010
0100
0000
0001
0000
,
1000
0100
0010
0001
,
0010
0100
1000
0100
,
0010
0000
0001
0000
0000
1000
0000
0000
,
0010
0000
0000
0100
0000
0000
0001
0000
,
1000
0100
1000
0001
,
0100
0001
0010
0001
,
1000
0010
0100
0010
,
1000
0001
0010
0100
,
0010
0001
1000
0001
,
0100
0001
1000
0010
,
0100
0010
1000
0100
,
0010
0000
0001
0000
1000
0000
0001
1000
,
0001
1000
0001
0100
,
0001
1000
0010
1000
,
0100
1000
0001
0010
,
0001
0100
0010
1000
,
0100
1000
0001
0010
,
0001
1000
0001
0100
,
0001
0000
0000
1001
0000
0000
1100
0000
,
0000
0011
0000
0000
1001
0000
0110
0000
,
1001
0000
0000
0000
;
#NOTES:
     dance-single:
     Renard:
     Beginner:
     4:
     0.296,0.457,0.105,0.086,0.000:
0000
0000
0000
0000
,
0000
0000
0000
0000
,
0000
0000
0000
0000
,
0000
0000
0000
0000
,
0000
0000
0000
0000
,
0000
0000
0000
0000
,
0000
0000
0000
0000
,
0000
0000
0000
0000
,
0001
0000
0001
0000
,
1000
0000
1000
0000
,
0001
0000
0001
0000
,
1000
0000
1000
0000
,
0010
0000
0010
0000
,
0100
0000
0100
0000
,
0020
0000
0000
0000
,
0000
0000
0000
0000
,
0130
0010
1000
0010
,
1000
0010
1000
0010
,
0001
0100
0001
0100
,
0010
1000
0100
0010
,
1000
0010
0001
0100
,
1000
0100
0010
0100
,
0001
1000
0100
0010
,
1000
0001
0010
1100
,
0000
0010
0001
1000
,
0010
0100
0001
1000
,
0110
1000
0001
0010
,
0100
1001
0100
1010
,
0100
0001
0010
1000
,
0100
1000
0001
1000
,
0010
0100
1000
0100
,
0001
0010
0100
1000
,
0010
0100
0001
0100
,
0010
1000
0000
0010
,
1000
0010
0001
0100
,
0010
1000
0100
0000
,
0011
0100
0000
0010
,
1000
0100
0010
0001
,
0100
0000
0010
1000
,
0100
0011
0000
0010
,
0100
1000
0010
0100
,
0000
0001
0000
0010
,
0100
1000
0010
0100
,
0001
0000
0000
0101
,
0000
0010
1000
0100
,
0010
0000
0110
0100
,
1000
0010
0000
0100
,
0001
0000
1001
0000
,
2000
0000
0000
0000
,
0000
0000
0000
0000
,
3020
0000
0000
0000
,
0000
0000
0000
0000
,
0230
0000
0000
0000
,
0000
0000
0000
0000
,
0302
0000
0000
0000
,
0000
0000
0000
0000
,
2003
0000
0000
0000
,
0000
0000
0000
0000
,
3200
0000
0000
0000
,
0000
0000
0000
0000
,
0320
0000
0000
0000
,
0000
0000
0000
0000
,
0032
0000
0000
0000
,
0000
0000
0000
0000
,
1003
0001
0100
0010
,
0100
0010
0100
0010
,
1000
0001
0100
0010
,
0100
0010
0100
0010
,
1000
0001
0100
0010
,
0100
0010
0100
0010
,
1000
0001
0100
0010
,
0100
0010
1000
0000
,
0001
1000
0010
0100
,
0010
1000
0100
0010
,
1000
0010
0001
0100
,
1000
0100
0001
0010
,
1000
0010
0100
0001
,
0100
1000
0001
0100
,
1000
0100
0010
0001
,
0010
1000
0001
1001
,
0110
0000
0000
0000
;
