#TITLE:Blame the Moon (Remix);
#SUBTITLE:;
#ARTIST:Splash;
#TITLETRANSLIT:;
#SUBTITLETRANSLIT:;
#ARTISTTRANSLIT:;
#GENRE:;
#CRChallenge:;
#BANNER:blame.jpg;
#BACKGROUND:blame-bg.jpg;
#LYRICSPATH:;
#CDTITLE:!cdtitle.png;
#MUSIC:blame.ogg;
#OFFSET:0.000;
#SAMPLESTART:36.245;
#SAMPLELENGTH:12.000;
#SELECTABLE:YES;
#DISPLAYBPM:172.000;
#BPMS:0.000=171.972,64.000=85.986,68.000=171.972;
#STOPS:;
#BGCHANGES:;
#KEYSOUNDS:;
#NOTES:
     dance-single:
     Renard:
     Hard:
     12:
     0.740,0.000,0.231,0.081,0.630:
0000
0000
0000
0000
,
0000
0000
0000
0000
,
0000
0000
0000
0000
,
0000
0000
0000
0000
,
0000
0000
0000
0000
,
0000
0000
0000
0000
,
0000
0000
0000
0000
,
0000
0000
0000
0000
,
1000
1100
0001
0101
,
1000
1010
0001
0011
,
1000
0100
0010
0001
1000
0000
1001
0000
,
0001
0010
0100
1000
0001
0000
0200
0000
,
0301
0101
1000
1100
,
0001
0011
1000
1010
,
1000
0010
0100
0001
1000
0000
1001
0000
,
1000
0100
0010
0001
1000
0000
0001
0000
,
2000
0000
0000
0000
,
3010
0000
0010
0000
0010
0010
1000
1000
,
0000
0010
0000
0010
1000
0000
1000
0000
,
0001
0000
0001
0000
0100
0100
0100
0001
,
0000
0001
0000
0001
0100
0000
0100
0000
,
0010
0000
0010
0000
1000
1000
0010
0010
,
0000
1000
0000
1000
0010
0000
0010
0000
,
0100
0000
0100
0000
0001
0001
0001
0100
,
0010
0000
1000
0000
0020
0000
0000
0000
1030
0000
0001
0000
1000
0001
1000
0000
,
0100
1000
0010
1000
0000
0001
0100
0000
0001
0010
0001
0100
0000
0010
1000
0000
,
0100
1000
0010
1000
0000
0001
0100
0000
0001
0010
0001
0100
0000
0010
1000
0000
,
0010
1000
0100
1000
0000
0001
1000
0000
0001
0010
0001
0100
0000
0001
0100
0000
,
0010
1000
0100
1000
0000
0010
1000
0000
0001
0100
0001
0010
0000
0001
1000
0000
,
0001
0100
0010
1000
0000
0001
1000
0000
0001
0010
0100
1000
0000
1000
0001
0000
,
1000
0100
0010
0001
0000
1000
0001
0000
1000
0010
0100
0001
0000
0001
1000
0000
,
0001
0010
0100
1000
0000
0001
1000
0000
1000
0100
0010
0001
0000
1000
0001
0000
,
1000
0010
0100
0001
0000
0001
1000
0000
0001
0100
0010
1000
0000
0001
1000
0000
,
0001
0010
0100
1000
0001
0100
0010
1000
0100
0010
0001
0010
0100
1000
0001
0100
,
0010
1000
0100
0010
0001
1000
0100
0010
0100
1000
0001
0010
0100
0010
0001
1000
,
0001
0010
0100
1000
0001
0100
0010
1000
0100
0010
0001
0010
0100
1000
0001
0100
,
0010
1000
0100
0010
0001
1000
0100
0010
0100
1000
0001
0010
0100
0010
0001
0000
,
1000
0100
0010
0001
1000
0010
0100
0001
0010
0100
1000
0100
0010
0001
1000
0010
,
0100
0001
0010
0100
1000
0001
0010
0100
0010
0001
1000
0100
0010
0100
1000
0001
,
1000
0100
0010
0001
1000
0010
0100
0001
0010
0100
1000
0100
0010
0001
1000
0010
,
0200
0000
0000
0000
0302
0000
0000
0000
1003
0100
0010
0000
0001
0010
0100
1000
,
0001
0010
0001
0100
0001
1000
0001
0100
,
0001
0010
0001
0100
0001
0001
0001
0000
,
1000
0100
1000
0010
1000
0001
1000
0010
,
1000
0100
1000
0001
1000
1000
0001
0000
,
0001
0010
0001
0100
0001
1000
0001
0100
,
0001
0010
0001
1000
0001
0001
0001
0000
,
1000
0010
1000
0001
1000
0100
1000
0010
,
1000
0001
1000
0100
1000
1000
0001
0000
,
1100
0000
0110
0000
0010
0001
0010
0000
,
0011
0000
0110
0000
0010
0100
1000
0000
,
1100
0000
0110
0000
0010
0001
0010
0000
,
0110
0000
0011
0000
1000
0100
0010
0001
,
1000
0000
1001
0000
1000
0001
0010
0100
,
1000
0000
1001
0000
1000
0100
0010
0001
,
1000
0001
0010
0100
1000
0100
0010
0001
,
2000
0000
3001
0000
1000
0010
0100
0001
,
0020
0000
0000
0000
,
0031
0000
0001
0000
0001
0000
0001
0000
0001
0000
0000
1000
0000
0000
0000
1000
,
0001
0001
0001
0001
0001
0000
0000
0000
;
#NOTES:
     dance-single:
     Renard:
     Medium:
     9:
     0.582,0.000,0.278,0.127,0.029:
0000
0000
0000
0000
,
0000
0000
0000
0000
,
0000
0000
0000
0000
,
0000
0000
0000
0000
,
1000
0000
1000
0000
0001
0001
0001
0000
,
1000
0000
1000
0000
0001
0001
0001
0000
,
1000
0000
1000
0000
0001
0001
0001
0000
,
2000
0000
3002
0000
1003
0001
1000
0000
,
0001
0000
0100
0000
0010
1000
0010
0000
,
1000
0000
0100
0000
0010
0001
0010
0000
,
0001
0000
0100
0000
0010
1000
0010
0000
,
1000
0000
0100
0000
0010
0001
0010
0000
,
0100
0000
1000
0000
0001
0100
0001
0000
,
0100
0000
0010
0000
1000
0100
1000
0000
,
0010
0000
1000
0000
0001
0100
0001
0000
,
1000
0100
0010
0001
1000
0000
0001
0000
,
2000
0000
0000
0000
,
3001
1000
0001
1000
0001
1000
0001
1000
,
0010
1000
0010
1000
0010
1000
0010
1000
,
0001
1000
0001
1000
0001
1000
0001
1000
,
0001
0100
0001
0100
0001
0100
0001
0100
,
0001
1000
0001
1000
0001
1000
0001
1000
,
0010
1000
0010
1000
0010
1000
0010
1000
,
0001
1000
0001
1000
0001
1000
0001
1000
,
0002
0000
0000
0000
2003
0000
0000
0000
3002
0000
0000
0000
1003
0001
1000
0000
,
1001
0000
0110
0000
0010
1000
0100
0010
,
0000
0011
0000
0010
0100
0000
1100
0000
,
1010
0000
1001
0000
1000
0001
0100
0010
,
0000
0110
0000
0010
1000
0000
1001
0000
,
1100
0000
0011
0000
0001
0010
0100
1000
,
0000
1100
0000
1000
0100
0000
0110
0000
,
1001
0000
1001
0000
0001
0100
0010
1000
,
0000
1000
0010
1000
0001
0100
0010
1000
,
0100
0010
0001
0010
0100
1000
0001
0010
,
0000
0011
0000
0010
0100
0000
1100
0000
,
1000
0010
0100
0001
0100
0010
1000
0100
,
0000
1100
0000
1000
0100
0000
1100
0000
,
1100
0000
1100
0000
1000
0100
0010
0001
,
0000
0011
0000
0001
0010
0000
0011
0000
,
0101
0000
0101
0000
0001
0100
0010
1000
,
0010
0000
1000
0000
0001
0000
1000
0000
0100
0000
1000
0000
0001
1000
0001
1000
,
0001
0000
0001
0000
0010
0100
1000
0000
,
1000
0000
1000
0000
0100
0010
0001
0000
,
1000
0000
1000
0000
0010
0100
0001
0000
,
0001
0000
0001
0000
0100
0010
1000
0000
,
0100
0000
0100
0000
0010
0001
1000
0000
,
0001
0000
0001
0000
0010
0100
1000
0000
,
0010
0000
0010
0000
0100
0001
0100
0000
,
0010
0000
1000
0000
0001
1000
0001
1000
,
0100
0000
0100
0000
1000
0100
0010
0001
,
1000
0000
1000
0000
0001
0010
0100
1000
,
0100
0000
0100
0000
1000
0100
0010
0001
,
1000
0000
1000
0000
0001
0010
0100
1000
,
0010
0000
0010
0000
1000
0010
0100
0001
,
1000
0000
1000
0000
0001
0100
0010
1000
,
0010
0000
0010
0000
1000
0010
0100
0001
,
2000
3002
2003
3002
,
2003
0000
0000
0000
,
3001
0000
0001
0000
0010
0000
0100
0000
1000
0000
0000
1000
0000
0000
0000
0100
,
1000
0001
0010
0100
1000
0000
0000
0000
;
#NOTES:
     dance-single:
     Renard:
     Easy:
     6:
     0.345,0.000,0.000,0.081,0.000:
0000
0000
0000
0000
,
0000
0000
0000
0000
,
0000
0000
0000
0000
,
0000
0000
0000
0000
,
0000
0000
0000
0000
,
0000
0000
0000
0000
,
0000
0000
0000
0000
,
0000
0000
0000
0000
,
0001
1000
0100
1000
,
0001
0100
0001
0100
,
0001
1000
0100
1000
,
0001
0100
0010
2000
,
3010
0100
0001
1000
,
0100
0010
0001
1000
,
0020
0000
0230
0000
,
0302
0000
2003
0000
,
3100
0000
0000
0000
,
0100
0000
0100
0000
1000
0001
1000
0001
,
0000
1000
0000
0001
0100
0000
0100
0000
,
0001
0000
0001
0000
1000
0001
1000
0001
,
0000
1000
0000
0001
0100
0000
0100
0000
,
0001
0000
0001
0000
1000
0001
1000
0001
,
0000
1000
0000
0100
1000
0000
0100
0000
,
1000
0000
0001
0000
1000
0001
0100
0001
,
2000
0000
0000
0000
,
3001
0000
0100
0000
0010
0000
0000
1000
,
0000
0100
0000
0010
0001
0000
0001
0000
,
0010
0000
0100
0000
1000
0000
0000
0001
,
0000
0100
0000
0010
1000
0000
1000
0000
,
0010
0000
0100
0000
0001
0000
0000
1000
,
0000
0100
0000
0010
0001
0000
0001
0000
,
0010
0100
1000
0000
,
0001
0100
0010
1000
,
0010
0000
0010
0000
0100
0000
0001
1000
,
0000
1000
0000
1000
0100
0000
0100
0000
,
0010
0000
0001
0000
1000
0000
0000
0010
,
0000
0100
0000
0001
0100
0000
0100
0000
,
0010
0000
1000
0000
0001
0000
0010
0001
,
0000
0001
0000
0001
1000
0000
0100
0000
,
0010
0000
0010
0000
0001
1000
0000
0000
,
0001
0100
0010
1000
,
0010
1000
0010
1000
,
0001
0100
0001
0100
,
0001
1000
0001
1000
,
0100
1000
0100
1000
,
0001
0010
0001
0010
,
0100
0010
0100
0010
,
0100
1000
0100
1000
,
0001
0100
0001
0100
,
0010
0010
1000
0100
,
0010
0010
0001
0100
,
0010
0010
1000
0100
,
0010
0010
0001
0100
,
0010
0010
1000
0100
,
0010
0010
0001
0100
,
0010
0010
1000
0100
,
0010
0010
0001
1000
,
0020
0000
0000
0000
,
0130
0100
0100
0000
,
0100
0100
0100
0000
;
#NOTES:
     dance-single:
     Jinxie:
     Beginner:
     3:
     0.182,0.000,0.023,0.000,0.000:
0000
0000
0000
0000
,
0000
0000
0000
0000
,
0000
0000
0000
0000
,
0000
0000
0000
0000
,
0000
0000
0000
0000
,
0000
0000
0000
0000
,
0000
0000
0000
0000
,
0000
0000
0000
0000
,
1000
0000
0010
0000
,
1000
0000
0001
0000
,
1000
0000
0100
0000
,
0010
0000
0001
0000
,
1000
0000
0010
0000
,
0100
0000
0001
0000
,
0100
0000
0010
0000
,
1000
0000
0001
0000
,
1000
0000
0000
0000
,
1000
0000
0001
0000
,
1000
0000
0001
0000
,
1000
0000
0010
0000
,
0100
0000
0010
0000
,
1000
0000
0001
0000
,
1000
0000
0100
0000
,
1000
0000
0010
0000
,
1000
0000
0100
0000
,
0010
0000
0001
0000
,
0100
0000
0010
1000
,
0100
0000
1000
0000
,
0010
0000
0100
0001
,
0010
0000
0001
0000
,
0100
0000
0010
1000
,
0010
0000
1000
0000
,
0100
0000
0010
0001
,
0010
0000
0100
0000
,
1000
0000
0010
1000
,
0100
0000
0010
0000
,
0001
0000
0010
0001
,
0100
0000
0010
0000
,
0100
0000
0010
1000
,
0001
0000
1000
0000
,
0100
0000
1000
0010
,
1000
0000
0001
0000
,
1000
0000
0001
0000
,
0010
0000
0100
0000
,
0010
0000
0100
0000
,
1000
0000
0001
0000
,
1000
0000
0001
0000
,
1000
0000
0001
0000
,
1000
0000
0001
0000
,
1000
0000
0010
0000
,
0100
0000
0001
0000
,
0100
0000
0010
0000
,
1000
0000
0100
0000
,
1000
0000
0001
0000
,
1000
0000
0010
0000
,
0100
0000
0001
0000
,
1000
0000
0100
0000
,
0010
0000
0000
0000
,
1001
0000
0000
0000
,
1001
0000
0000
0000
;
