#TITLE:Black Flag;
#SUBTITLE:;
#ARTIST:Rotator;
#TITLETRANSLIT:;
#SUBTITLETRANSLIT:;
#ARTISTTRANSLIT:;
#GENRE:;
#CRChallenge:;
#BANNER:flag.png;
#BACKGROUND:flag-bg.png;
#LYRICSPATH:;
#CDTITLE:;
#MUSIC:flag.ogg;
#OFFSET:0.000;
#SAMPLESTART:9.022;
#SAMPLELENGTH:12.000;
#SELECTABLE:YES;
#BPMS:0.000=210.472;
#STOPS:;
#BGCHANGES:;
#KEYSOUNDS:;
#NOTES:
     dance-single:
     Renard:
     Medium:
     9:
     0.769,0.000,0.677,0.118,0.064:
0000
0000
0000
0000
,
0000
0000
0000
0000
,
0000
0000
0000
0000
,
0000
0000
0000
0000
,
1000
0000
0000
0000
0000
0000
0000
0000
0000
0000
0000
1000
0000
0000
0000
0000
0000
0000
0000
0000
0000
0000
1000
0000
0000
0000
0000
0000
0000
0000
0000
0000
0000
1000
0000
0000
0000
0000
0000
0000
0000
0000
0000
0000
0000
0000
0000
0000
,
0001
0000
0000
0000
0100
0000
0000
0000
0001
0000
0000
0000
0100
0000
0000
0002
0000
0000
0000
0000
0000
0000
0000
0000
,
1003
0100
0000
0000
1000
0100
0000
0000
1000
0100
0000
0000
1000
0100
0000
2000
0000
0000
0000
0000
0000
0000
0000
0000
,
3001
M001
M001
M001
M001
M001
1000
0000
,
0101
0000
0100
0110
0000
0010
1010
0000
,
1000
0001
1000
0001
0100
0010
0100
0000
,
0110
0000
0100
0101
0000
0001
1001
0000
,
1000
0100
0010
0001
1000
1000
0001
0000
,
0101
0000
0100
1100
0000
0100
0110
0000
,
0010
1000
0010
0100
0001
0100
0010
0000
,
0110
0000
0100
0101
0000
0001
1001
0000
,
1000
0100
0010
0001
1000
0000
1011
0000
,
1010
0000
0010
0110
0000
0100
0101
0000
,
0001
1000
0001
1000
0010
0100
0010
0000
,
0110
0000
0010
1010
0000
1000
1001
0000
,
0001
0010
0100
1000
0001
0001
1000
0000
,
1010
0000
0010
0011
0000
0010
0110
0000
,
0100
0001
0100
0010
1000
0010
0100
0000
,
0110
0000
0010
1010
0000
0100
0001
0000
,
1000
0001
1000
0001
,
0001
0100
1000
0100
0001
0000
0110
0000
,
1000
0100
0001
0100
1000
0000
0110
0000
,
0001
0100
1000
0100
0001
0000
0110
0000
,
1000
0100
0001
1000
0001
0100
1000
0000
,
1000
0010
0001
0010
1000
0000
0110
0000
,
0001
0010
1000
0010
0001
0000
0110
0000
,
1000
0010
0001
0010
1000
0000
0110
0000
,
0001
0010
1000
0001
1000
0010
0001
0000
,
0001
0010
1000
0010
0000
0000
0110
0000
,
0100
0001
0100
1000
0000
0000
0110
0000
,
0010
1000
0010
0001
0000
0000
0110
0000
,
0001
0100
1000
0100
0001
1000
0001
0000
,
1000
0100
0001
0100
0000
0000
0110
0000
,
0010
1000
0010
0001
0000
0000
0110
0000
,
0100
0001
0100
1000
0000
0000
0110
0000
,
1000
0010
0001
0010
1000
0001
1000
0000
,
0001
0000
0001
0100
0000
0100
0010
0000
,
1000
0000
1000
0010
0000
0010
0100
0000
,
0010
1000
0100
0010
0001
1000
0001
0000
,
0200
0000
0000
0000
,
0301
0010
0100
1000
0100
0010
0001
0100
,
0010
0000
0010
1000
0000
1000
0100
0010
,
0001
1000
0010
0000
0100
0010
1000
0000
,
1001
0000
0100
0010
1000
0000
1001
0000
,
1000
0010
0100
0001
0010
0000
0011
0000
,
0010
0001
1000
0010
0000
0010
1000
0000
,
0010
0100
0001
0000
0110
0000
0001
1000
,
1000
0000
0010
0100
0000
1001
0000
0000
,
1000
0100
0010
0001
0010
0100
1000
0010
,
0100
0000
0100
0001
0000
0001
0010
0100
,
1000
0001
0100
0000
0010
0100
0001
0000
,
1001
0000
0010
0100
0001
0000
1001
0000
,
0001
0100
0010
1000
0100
0000
1100
0000
,
0100
1000
0001
0100
0000
0100
0001
0000
,
0100
0010
1000
0000
0110
0000
1000
0001
,
0001
0001
1000
1000
,
0101
0000
0100
0101
0000
0001
0101
0000
,
0010
1000
0010
1000
0010
1000
0010
0000
,
1100
0000
0100
1100
0000
1000
1100
0000
,
0010
0001
0010
0001
0010
0001
0010
0000
,
1010
0000
0010
1010
0000
1000
1010
0000
,
0100
0001
0100
0001
0100
0001
0100
0000
,
0011
0000
0010
0011
0000
0001
0011
0000
,
0100
0000
1000
0000
0100
0000
1000
0000
0100
0000
1000
0000
0100
1000
0100
0000
,
2000
0000
0000
0000
3200
0000
0000
0000
0320
0000
0000
0000
0031
0000
1000
0001
,
0100
0000
0000
0000
0100
0000
0010
0000
1000
0000
0000
1000
0000
0000
1000
0000
,
0001
0000
0100
0010
1000
0010
0100
0001
,
1001
0000
0000
0000
,
0110
1001
0110
1001
,
0110
1001
0210
0301
,
2001
3010
0220
0000
,
0000
0000
0000
0000
0330
0MM0
0MM0
0MM0
,
0001
0010
0100
1000
0000
1000
0100
0010
,
0001
1000
0001
1000
0010
0100
0010
0100
,
0010
1000
0001
0100
0000
0100
0001
1000
,
0010
0100
0010
0100
0001
0001
1000
1000
,
0100
0001
1000
0010
0000
0010
1000
0001
,
0100
0010
0100
0010
0001
1000
0001
1000
,
0001
0010
0100
1000
0000
1000
0100
0010
,
0001
1000
0001
1000
0100
0100
0010
0010
,
2002
0000
0000
0000
,
0000
0000
0000
3003
,
1011
0000
0000
0000
;
#NOTES:
     dance-single:
     pyroko:
     Easy:
     7:
     0.507,0.000,0.226,0.039,0.000:
0000
0000
0000
0000
,
0000
0000
0000
0000
,
0000
0000
0000
0000
,
0000
0000
0000
0000
,
2000
0000
0000
0000
,
3002
0000
0000
0000
,
0203
0000
0000
0000
,
0320
0000
0000
0000
0000
0000
0000
0030
,
1000
0000
0000
1100
0000
0000
0000
0000
,
0100
0010
0100
1000
,
1100
0000
0000
1001
0000
0000
0000
0000
,
0001
0100
0001
0010
,
0011
0000
0000
0011
0000
0000
0000
0000
,
0001
1000
0001
0100
,
0110
0000
0000
0110
0000
0000
0000
0000
,
0010
1000
0100
0010
,
1100
0000
0000
1100
0000
0000
0001
0000
,
0010
0001
1000
0001
,
1001
0000
0000
1001
0000
0000
0010
0000
,
0100
0010
0100
0010
,
0110
0000
0000
1001
0000
0000
0001
0000
,
0010
0001
1000
0010
,
1010
0000
1001
0000
,
0100
0010
0100
1000
,
0100
0000
0010
0001
0000
1000
0001
0000
,
0010
0001
1000
0001
,
0010
0000
0001
1000
0000
0001
0010
0000
,
0001
1000
0010
0100
,
0010
0000
1000
0010
0000
1000
0100
0000
,
0010
0100
1000
0100
,
0010
0000
0001
0010
0000
0001
0010
0000
,
0001
1000
0010
0100
,
0010
0000
1000
0010
0000
1000
0010
0000
,
1000
0100
0010
0100
,
1000
0000
0001
0010
0000
0001
1000
0000
,
0010
0100
0010
1000
,
0100
0000
0010
0100
0000
1000
0100
0000
,
0010
0100
1000
0001
,
0010
0000
0001
1000
0000
0001
0010
0000
,
0001
1000
0001
0010
,
0001
0000
1000
0010
0000
0100
0000
0000
,
0010
1000
0100
0010
,
0100
0000
1000
0100
0000
1000
0100
0000
,
0010
0001
1000
0001
,
0010
0001
0010
0000
0001
1000
0001
0000
,
1000
0010
0100
0010
,
1000
0100
1000
0000
0100
0000
0010
0000
,
0100
1000
0001
0010
,
0001
1000
0001
0000
1000
0001
1000
0000
,
0001
0010
0100
1000
,
0100
0010
0100
1000
,
0100
0010
0100
1000
0100
0000
0010
0000
,
0100
1000
0001
0010
,
0001
1000
0001
0000
,
0010
0001
1000
0010
,
1000
0000
0010
0000
0100
0010
0100
0010
,
0100
0010
1000
0100
,
0010
0100
1000
0100
,
0010
0100
1000
0100
,
0010
0100
1000
0100
0010
0000
0100
0000
,
1000
0001
0010
0001
,
1000
0000
0001
0010
0000
0001
1000
0000
,
0011
0000
0000
1001
0000
0000
0001
0000
,
0100
0010
0100
0010
,
1010
0000
0000
1001
0000
0000
0100
0000
,
0010
0000
0100
0000
1000
0100
1000
0000
,
1100
0000
0000
1001
0000
0000
1001
0000
,
0011
0001
1000
0010
,
0100
0000
0010
1000
0000
0010
0100
0000
,
0010
1000
0100
0010
,
0100
0000
1000
0100
0000
0010
0100
0000
,
1000
0001
0010
0001
,
1000
0000
0001
0010
0000
0001
1000
0000
,
0010
0100
0010
0100
,
0010
0100
0010
1000
,
0100
0010
0100
1000
0100
0000
0010
0000
,
0001
1000
0001
0000
0010
0001
1000
0000
,
0001
0010
0001
1000
,
0010
0100
0010
0000
0100
0010
0100
0000
,
0010
1000
0100
0010
,
0100
1000
0100
0000
1000
0100
0010
0000
,
0100
1000
0001
0010
,
0001
1000
0001
0000
1000
0001
0100
0000
,
0010
0100
0010
1000
,
0100
0010
0100
1000
,
0100
0010
0100
1000
,
0100
0000
0000
0000
;
#NOTES:
     dance-single:
     pyroko:
     Beginner:
     3:
     0.268,0.000,0.069,0.029,0.000:
0000
0000
0000
0000
,
0000
0000
0000
0000
,
0000
0000
0000
0000
,
0000
0000
0000
0000
,
0000
0000
0000
0000
,
0000
0000
0000
0000
,
0000
0000
0000
0000
,
0000
0000
0000
0000
,
1000
0000
0000
0100
0000
0000
0000
0000
,
0010
0001
1000
0000
,
0001
0000
0000
1000
0000
0000
0000
0000
,
0010
0100
0010
0000
,
0001
0000
0000
1000
0000
0000
0000
0000
,
0100
0010
0100
0000
,
1000
0000
0000
0100
0000
0000
0000
0000
,
0010
0001
1000
0001
,
1000
0000
0000
0010
0000
0000
0000
0000
,
0100
0010
0100
0000
,
0010
0000
0000
1000
0000
0000
0000
0000
,
0100
0010
0100
0000
,
1000
0000
0000
0001
0000
0000
0000
0000
,
0100
0001
1000
0000
,
0100
0000
0010
0000
,
0100
1000
0100
0000
,
0010
0000
0000
0001
0000
0000
0000
0000
,
1000
0000
0000
0010
0000
0000
0000
0000
,
0100
0000
0000
0010
0000
0000
0000
0000
,
1000
0000
0000
0100
0000
0000
0000
0000
,
0010
0000
0000
0001
0000
0000
0000
0000
,
1000
0000
0000
0001
0000
0000
0000
0000
,
0100
0000
0000
0010
0000
0000
0000
0000
,
1000
0000
0000
0100
0000
0000
0000
0000
,
0010
0000
0000
0001
0000
0000
0000
0000
,
1000
0000
0000
0010
0000
0000
0000
0000
,
0100
0000
0000
0001
0000
0000
0000
0000
,
1000
0000
0000
0100
0000
0000
0000
0000
,
0010
0000
0000
0001
0000
0000
0000
0000
,
1000
0000
0000
0010
0000
0000
0000
0000
,
0100
0000
0000
0001
0000
0000
0000
0000
,
0010
0000
0100
0000
,
1000
0000
0000
0000
,
0100
0000
0000
0000
,
0010
0000
0000
0000
,
0001
0000
0000
0000
,
1000
0000
0000
0000
,
0010
0100
0010
0000
,
1000
0000
0100
0000
,
0010
0100
0010
0000
,
0100
0000
1000
0000
,
0001
0000
1000
0000
,
0010
0000
0100
0000
,
0010
0100
0010
0100
,
0001
0000
1000
0000
,
0100
0000
0010
0000
,
0100
0000
1000
0000
,
0100
0000
0010
0000
,
0100
1000
0100
1000
,
0001
0010
0001
0000
,
1000
0001
1000
0010
,
1000
0010
1010
0000
,
0100
0010
0001
0000
,
1000
0001
0010
0001
,
1001
0000
0000
1001
0000
0000
0000
0000
,
0001
1000
0010
0100
,
0110
0000
0000
0110
0000
0000
0000
0000
,
0010
1000
0100
1000
,
1100
0000
0000
1100
0000
0000
0000
0000
,
0200
0000
0000
0300
0020
0000
0000
0030
,
0001
0000
0000
0000
,
0000
0000
1000
0000
,
0010
0000
0000
0000
,
0000
0000
0000
0000
,
1000
0000
0000
0000
,
0100
0000
0000
0000
,
0010
0000
0001
0000
,
1000
0001
1000
0000
,
0001
0100
0001
0000
,
0100
0010
0100
0000
,
0010
1000
0010
1000
,
0100
1000
0100
0000
,
0010
0100
0010
0000
,
0001
0010
0001
0000
,
0010
0001
1000
0001
,
0100
0010
0100
0000
,
0010
0000
1000
0000
,
0200
0000
0300
0000
,
0010
0000
0000
0000
;
