#TITLE:Billowy Pillow;
#SUBTITLE:;
#ARTIST:Dweezil Zappa;
#TITLETRANSLIT:;
#SUBTITLETRANSLIT:;
#ARTISTTRANSLIT:;
#CRChallenge:;
#BANNER:pillow.png;
#BACKGROUND:pillow-bg.png;
#LYRICSPATH:;
#CDTITLE:;
#MUSIC:pillow.ogg;
#OFFSET:0.000;
#SAMPLESTART:35.478;
#SAMPLELENGTH:11.000;
#SELECTABLE:YES;
#BPMS:0.000=115.000;
#STOPS:;
#BGCHANGES:;
#NOTES:
     dance-single:
     Renard:
     Medium:
     9:
     0.608,0.572,0.087,0.164,0.520:
0000
0000
0000
0000
,
0000
0000
0000
0000
,
1000
0000
0001
0000
0000
0110
0000
0000
0002
0000
0100
0000
0003
0100
0000
0000
,
0010
2000
0000
0010
3000
0010
1000
0000
0001
0000
0100
0000
0010
1000
0001
0000
,
0100
0000
0010
0000
1000
0001
0200
0000
0310
0000
1000
0000
0010
0000
0100
0001
,
0200
0000
0310
0000
1000
0100
0020
0000
0130
0000
1000
0000
0001
0100
0002
0000
,
0013
0000
0100
0000
1000
0001
0200
0000
0310
0000
1000
0000
0100
0010
0002
0000
,
0010
0000
0100
0000
0000
0200
0020
0000
2000
0000
0000
0000
3333
0000
0000
0000
,
1000
0100
0001
0010
1000
0100
0001
0010
,
1000
0000
0100
0000
0010
0100
1000
0000
0010
0000
0100
0000
0001
0000
0010
0000
,
0001
0000
1000
0000
0010
0100
1000
0000
0100
0000
0001
0000
0010
0000
0100
0000
,
1000
0000
0010
0000
0100
0001
0100
0000
0010
0000
1000
0000
0100
0000
0010
0000
,
0100
0000
0100
1000
0100
0000
0100
0010
0100
0000
0100
0001
0100
0010
0100
0000
,
1000
0000
0100
0000
0010
0000
0001
1000
0000
1000
0010
0000
0100
0000
0001
0000
,
0010
0100
1000
0000
0010
0000
0100
0001
0000
0001
0100
0000
0010
0000
1000
0000
,
0001
0000
0010
0000
0100
0000
1000
0001
0000
0001
0100
0000
0010
0000
1000
0000
,
0100
0010
0001
1000
0000
1000
0010
0000
0101
0000
0000
0000
0000
0000
0000
0000
,
1000
0000
1000
0100
0000
0100
0010
0000
0001
0000
0010
0100
1000
0000
0010
0000
,
0100
0000
0100
0001
0000
0001
0100
0000
0010
1000
0100
0001
0100
1000
0010
0000
,
0100
0000
0100
0001
0000
0001
0010
0000
0100
1000
0100
0000
0010
0000
0001
0000
,
0010
0000
0010
1000
0000
1000
0010
0000
0100
1000
0010
0100
0001
0000
0100
0000
,
0010
0000
1000
0010
0000
1000
0010
0000
0100
0000
0001
0100
0000
0001
0100
0000
,
0010
1000
0100
0000
0010
0001
0100
0000
0010
1000
0100
0000
0010
0001
0100
0000
,
0010
0000
1000
0100
0000
0010
0001
0000
0100
0000
1000
0100
0000
0001
0010
0000
,
0100
1000
0010
0100
0001
0000
0010
0000
0100
1000
0010
0100
0001
0010
0001
0000
,
1000
0000
0100
0000
0000
1000
0100
0000
0010
0000
0001
0000
0000
0010
0001
0000
,
1000
0000
0100
0000
0000
1000
0100
0000
0010
0000
0001
0000
0000
0010
0001
0000
,
1000
0000
0010
0000
0000
1000
0010
0000
0100
0000
0001
0000
0000
0100
0001
0000
,
1000
0000
0010
0000
0100
0010
0001
0000
0010
0000
0100
0000
0110
0000
0000
0000
,
1000
0000
0100
0000
0000
0001
0100
0000
1000
0000
0100
0000
0010
0000
0100
0000
,
1000
0000
0010
0000
0000
0001
0010
0000
1000
0000
0010
0000
0100
0000
0001
0000
,
0010
0000
0100
0000
0000
1000
0010
0000
0100
0000
0001
0000
0100
0000
0010
0000
,
1000
0000
0100
0000
0000
0001
0010
0000
2200
0000
0000
0000
3300
0000
0000
0000
,
1000
0000
0100
0010
0001
0000
0010
0000
0100
0000
0100
0000
1000
0000
1000
0000
,
0010
0000
0100
0001
0010
0000
0100
0000
1000
0000
1000
0000
0001
0000
0001
0000
,
0010
0000
0100
1000
0001
0000
0100
0000
0010
0000
0010
0000
1000
0000
1000
0000
,
0100
0000
0100
0010
0000
0010
0001
0000
0010
0000
0010
0100
0000
0100
1000
0000
,
0010
0000
0100
0001
0000
1000
0010
0000
0100
0001
0000
0010
0100
0000
1000
0000
,
0010
0000
0010
0100
0000
0100
0001
0000
1000
0000
1000
0100
0000
0100
0001
0000
,
0100
0000
1000
0010
0000
0100
0001
0000
0010
0100
0000
2000
0002
0000
0000
3000
,
1003
0000
0001
0000
0100
0010
1000
0000
0010
0000
0100
0000
0001
0000
0010
0000
,
0100
1000
0000
1100
0000
0010
1000
0000
2001
0000
0000
0000
3010
0000
0000
0000
,
0001
0000
1000
0000
0010
0100
0001
0000
0100
0000
0010
0000
1000
0000
0100
0000
,
0010
0001
0000
0011
0000
0100
0001
0000
1002
0000
0000
0000
0103
0000
0000
0000
,
0001
0000
0100
0000
0010
1000
0100
0000
0010
0000
0100
0000
1000
0001
0100
0000
,
0010
0000
1000
0000
0100
1000
0010
0000
0100
0000
0001
0000
0010
0100
1000
0000
,
0010
0000
0100
0000
0001
0010
0001
0000
1000
0000
0010
0000
0100
0001
1000
0000
,
0100
0000
0010
0100
0000
1000
0001
0000
0101
0000
0000
0000
0000
0000
0000
0000
;
#NOTES:
     dance-single:
     Renard:
     Easy:
     5:
     0.333,0.366,0.000,0.010,0.000:
0000
0000
0000
0000
,
0000
0000
0000
0000
,
0000
0000
0000
0000
,
0000
0000
0000
0000
,
1000
0010
0000
0000
0010
0100
0000
0000
,
0001
0100
0000
0000
0010
1000
0000
0000
,
0100
0010
0000
0000
0001
0010
0000
0000
,
0100
1000
0000
0010
0100
0000
0000
0000
,
0001
0100
0001
0100
0010
0010
0010
0010
,
0100
0001
0100
0010
1000
0000
1000
0000
,
0100
1000
0010
0100
0001
0000
0001
0000
,
0010
0001
0100
0000
0010
0000
1000
0000
,
0100
1000
0100
0000
1000
0100
1000
0000
,
1000
0010
0100
0000
0001
0010
0001
0000
,
0100
0010
1000
0000
0010
0000
0100
0000
,
0001
0010
0001
0000
0100
0001
0100
0000
,
0100
0010
0000
1000
0010
0000
0000
0000
,
0100
0001
0000
0100
0010
1000
0000
0010
,
0100
0001
0000
0100
0001
0100
0001
0000
,
0100
0010
0000
1000
0010
1000
0000
0010
,
0100
0001
0000
0100
0010
1000
0001
0000
,
1000
0000
0001
0000
0100
0010
1000
0010
,
0100
0000
0001
0000
1000
0001
1000
0000
,
0010
0000
0100
0000
0001
1000
0001
0000
,
1000
0000
0010
0000
0100
0001
0100
0000
,
0001
0000
1000
0000
,
0010
0000
0100
0000
,
0001
0000
1000
0000
,
0010
0010
0100
0001
,
1000
0100
0000
0100
0010
0001
0000
0001
,
0010
0100
0000
0100
1000
0010
0000
0010
,
0100
0001
0000
0001
0010
0001
0000
0001
,
0010
0100
0000
0100
2000
0000
0000
0000
,
3100
1000
0100
1000
0100
1000
0100
0000
,
0010
0001
0010
0001
0010
0001
0010
0000
,
0001
1000
0001
1000
0001
1000
0001
0000
,
0100
0010
0100
0010
1000
0010
1000
0010
,
0100
0010
0100
0010
0100
0000
0010
0000
,
0100
0001
0100
0001
0100
0010
0100
0010
,
0100
0001
0100
0001
0100
0010
0100
0000
,
0010
1000
0000
0100
0010
0001
0000
0010
,
0100
1000
0100
1000
0100
0100
0100
0000
,
1000
0100
0000
0010
0001
0010
0000
0100
,
1000
0010
0100
0001
0100
0000
0010
0000
,
1000
0001
1000
0000
0001
1000
0001
0000
,
1000
0010
1000
0000
0010
0100
0001
0000
,
0100
0000
0001
0000
1000
0100
0010
0000
,
0001
0010
0000
0100
1000
0000
0000
0000
;
#NOTES:
     dance-single:
     Renard:
     Beginner:
     2:
     0.245,0.254,0.058,0.067,0.000:
0000
0000
0000
0000
,
0000
0000
0000
0000
,
1000
1000
0001
0001
,
1000
1000
0001
0000
,
1000
0100
0010
0001
,
0010
0100
1000
0100
,
1000
0010
0100
0001
,
0100
0010
1000
0000
,
0002
0000
0000
1003
,
1000
0010
0100
0001
,
0100
0010
1000
0100
,
0010
0001
0010
0100
,
1000
0000
1000
0000
,
0010
0100
0001
0100
,
0010
1000
0100
0000
,
0100
1000
0010
0100
,
0001
0100
0101
0000
,
0100
0010
1000
0010
,
0100
0001
0010
0110
,
0100
1000
0010
0100
,
0001
1000
0100
1100
,
0100
1000
0010
0100
,
0001
0010
0001
1001
,
1000
0010
0100
0001
,
0100
0010
1000
1001
,
1000
0000
0001
0000
,
1000
0000
0001
0000
,
1000
0000
0001
0000
,
1000
0000
1001
0000
,
2000
0100
0100
3100
,
0020
0001
0001
0031
,
2000
0001
0001
3001
,
0002
1000
1003
0000
,
1000
0010
0100
0001
,
0010
0001
1000
0001
,
0100
0010
1000
0100
,
0010
0100
1000
0001
,
1000
0010
1000
0100
,
1000
0001
0100
0010
,
1000
0010
0001
0010
,
0100
0001
0100
1000
,
0100
0010
1000
0100
,
0010
0001
0010
1000
,
0010
0001
0010
0100
,
1000
0100
0001
0100
,
1000
0010
0200
0000
,
0310
1000
0100
0010
,
0001
0100
0020
0000
,
0030
0000
0000
0000
;
