#TITLE:Bed Time Story;
#SUBTITLE:;
#ARTIST:Virt;
#TITLETRANSLIT:;
#SUBTITLETRANSLIT:;
#ARTISTTRANSLIT:;
#CRChallenge:;
#BANNER:bed.png;
#BACKGROUND:bed-bg.png;
#LYRICSPATH:;
#CDTITLE:!cdtitle.png;
#MUSIC:bed.ogg;
#OFFSET:0.000;
#SAMPLESTART:23.087;
#SAMPLELENGTH:12.000;
#SELECTABLE:YES;
#BPMS:0.000=269.581,409.000=134.790,428.500=269.581;
#STOPS:;
#BGCHANGES:;
#NOTES:
     dance-single:
     Renard:
     Hard:
     10:
     0.900,1.000,0.265,0.059,0.079:
0000
0000
0000
0000
,
0000
0000
0000
0000
,
0000
0000
0000
0000
,
0000
0000
0000
0000
,
0000
0000
0000
0000
,
0000
0000
0000
0000
,
0000
0000
0000
0000
,
0000
0000
0000
0000
,
0000
0000
0000
0000
,
0000
0000
0000
0000
,
0001
0010
0100
1000
0001
0000
1000
0100
,
0010
0000
0001
0010
0100
1000
0001
0100
,
0010
1000
0001
0100
0010
0000
1000
0100
,
0010
0000
0001
0010
0100
1000
0001
0100
,
0010
1000
0100
0010
0001
0000
0010
0100
,
1000
0000
0001
0100
0010
1000
0100
0010
,
0001
0010
0100
1000
0001
0100
0010
1000
,
0100
0010
0001
0010
0100
1000
0001
0000
,
1000
0100
0010
0001
0010
0100
1000
0001
,
0100
0010
1000
0100
0010
0001
0010
0100
,
1000
0001
1000
0010
0100
0001
0010
0100
,
0010
0001
1000
0100
0010
0100
1000
0001
,
0100
0010
1000
0100
0010
0001
0010
0100
,
1000
0010
0100
0001
0010
0100
1000
0100
,
0010
0001
1000
0010
0100
0001
0010
0100
,
1000
0100
0010
0001
1000
0000
1001
0000
,
1000
0100
1000
0010
1000
0001
1000
0010
,
1000
0100
1000
0001
1000
0010
1000
0010
,
0100
0001
0010
0100
1000
0100
0010
0001
,
1000
0010
0100
0001
1000
0100
0010
0001
,
0100
0001
0010
0001
1000
0001
0100
0001
,
0010
0001
1000
0001
0100
0001
1000
0001
,
0010
0100
1000
0100
0010
0001
1000
0010
,
0100
0001
0010
0100
1000
0001
1000
0000
,
0001
0010
0001
0010
0100
1000
0100
1000
,
0010
1000
0010
1000
0001
0100
0001
0100
,
0001
0010
0001
0010
0100
1000
0100
1000
,
0001
0100
0001
0100
0010
1000
0010
1000
,
0001
0010
0001
0010
0100
1000
0100
1000
,
0001
0100
0001
0100
0010
1000
0010
1000
,
0100
1000
0100
0010
0100
0010
0001
1000
,
0100
0010
0001
0010
0100
0000
1001
0000
,
1000
0000
0000
1100
0000
0000
1000
0000
,
0000
1010
0000
0000
1001
0000
0001
0010
,
0100
0000
1000
0100
0000
0110
0000
0011
,
0000
0001
0010
0100
1000
0100
0010
0001
,
1000
0000
0000
0000
0001
0000
0000
0010
,
0000
0100
1000
0001
,
0100
0010
1000
0010
0100
0001
1000
0010
,
0100
0001
1000
0010
0100
0010
1000
0001
,
1000
0000
0000
1001
0000
0000
0001
0000
,
0000
0011
0000
0000
0001
0000
1000
0000
,
0010
0000
0100
0001
0000
1000
0000
0010
,
0000
0100
0001
0010
0100
1000
0100
0010
,
0001
0000
0010
0001
0010
0001
0010
0001
,
0010
0000
0100
1000
0100
0000
1000
0000
,
0010
0100
0010
0000
0100
0001
0000
1000
,
0010
0000
0100
0001
0100
0001
0100
0001
,
0100
0000
0000
0110
0000
0000
0010
0000
,
0000
1010
0000
0000
1000
0000
0001
0010
,
0100
0000
1000
0100
0000
0110
0000
0011
,
0000
0001
0010
0100
1000
0100
0010
0001
,
1000
0000
1100
1001
,
0000
1000
0010
0100
,
0001
0000
0010
0100
1000
0100
0010
0001
,
1000
0010
0100
0001
0010
0100
1000
0100
,
1000
0001
1000
0010
1000
0100
1000
0001
,
1000
0000
0001
0000
0010
0001
0010
0000
,
0001
0000
1000
0010
1000
0000
0010
0100
,
0001
0010
0100
1000
0100
0010
0001
0000
,
1000
0000
0100
1000
0010
0100
0001
1000
,
0100
0010
0001
0011
,
0100
1000
0100
0000
1000
0100
0000
0010
,
0001
0000
1000
0000
0100
0010
0100
0000
,
0110
0000
0000
0000
0010
0001
1000
0100
,
0010
0001
0010
0011
,
0000
0000
1000
0100
1000
0000
0011
0000
,
0000
0000
0001
1000
0001
0000
1001
0000
,
0000
0000
1000
0010
0100
0001
1000
0010
,
0100
0001
0010
0100
1000
0000
1100
0000
,
0000
0000
0100
0010
0001
0000
0011
0000
,
0000
0000
0001
0010
0100
0000
1100
0000
,
0000
0000
1000
0100
0010
0001
1000
0000
,
0001
0100
0001
0101
,
0001
0000
0010
0100
1000
0100
0010
0001
,
1000
0100
0010
0001
0010
0000
0110
0000
,
0000
0000
0100
0010
0001
1000
0100
0010
,
0001
0010
0100
1000
0100
0000
1100
0000
,
0000
0000
0010
0001
1000
0100
0010
0001
,
1000
0010
0100
0001
1000
0001
1000
0000
,
1001
0000
0000
0000
1000
0100
0010
0001
,
1000
0010
0100
0001
1000
0100
0010
0001
,
1000
0010
0100
0001
0010
0100
1000
0100
,
0010
0001
1000
0010
0100
0001
0010
0001
,
1000
0100
0010
0001
1000
0010
0100
0001
,
0010
0100
1000
0100
0010
0001
1000
0010
,
0100
0001
0010
0100
1000
0100
0010
0001
,
1000
0010
0100
0001
1000
0100
0010
0001
,
1000
0010
0100
0001
0010
0100
1000
0100
,
0010
0001
1000
0010
0100
0001
1000
0010
,
0100
0001
0010
0100
1000
0100
0010
0001
,
1000
0100
0010
0001
0010
0100
1000
0100
0010
0001
0010
0100
,
1000
0000
0000
0000
0000
0000
0000
0000
0000
0000
0000
0000
0000
0000
0000
0000
0100
0000
0000
0000
0000
0000
0000
0000
0000
0000
0000
0000
0000
0000
0000
0000
0010
0000
0000
0000
0000
0000
0000
0000
0000
0000
0000
0000
0000
0000
0000
0000
0002
0000
0000
0000
0000
0000
0000
0000
0000
0000
0000
0000
0000
0000
0000
0000
0000
0000
0000
0000
0000
0000
0000
0000
0000
0000
0000
0000
0000
0000
0000
0000
0000
0000
0000
0000
0000
0000
0000
0000
0000
0000
0000
0000
0000
0000
0000
0000
0000
0000
0000
0000
0000
0000
0000
0000
0000
0000
0000
0000
0000
0000
0000
0000
0000
0000
0000
0000
0000
0000
0000
0000
0000
0000
0000
0000
0000
0000
0000
0000
0000
0000
0000
0000
0000
0000
0000
0000
0000
0000
0000
0000
0000
0000
0000
0000
0000
0000
0000
0000
0000
0000
0000
0000
0000
0000
0000
0000
0000
0000
0000
0000
0000
0000
0000
0000
0000
0000
0000
0000
0003
0000
0000
0000
0000
0000
1000
0000
0000
0000
0000
0000
0100
0000
0000
0000
0000
0000
2000
0000
0000
0000
0000
0000
,
0000
0000
0000
0000
0000
0000
3002
0000
0000
0000
0000
0000
0000
0000
0000
0023
,
0000
0000
0000
0000
0000
0000
0000
0000
0000
0000
0000
0000
0000
0000
0000
0002
,
0000
0000
0000
0000
0000
0000
0000
0000
0000
0000
0000
0000
0000
0000
0000
0000
0000
0000
0000
0000
0000
0000
0000
0000
0000
0000
0000
0000
0000
2000
0000
0000
,
0000
0000
0000
0000
,
0000
3033
0000
0000
0000
0000
0000
0000
;
#NOTES:
     dance-single:
     Renard:
     Medium:
     10:
     0.827,0.895,0.265,0.059,0.629:
0000
0000
0000
0000
,
0000
0000
0000
0000
,
0000
0000
0000
0000
,
0000
0000
0000
0000
,
0000
0000
0000
0000
,
0000
0000
0000
0000
,
0000
0000
0000
0000
,
0000
0000
0000
0000
,
0000
0000
0000
0000
,
0000
0000
0000
0000
,
0001
0010
0100
1000
0001
0000
1000
0100
,
0010
0000
0001
0010
0100
1000
0001
0100
,
0010
1000
0001
0100
0010
0000
1000
0100
,
0010
0000
0001
0010
0100
1000
0001
0100
,
0010
1000
0100
0010
0001
0000
0010
0100
,
1000
0000
0001
0100
0010
1000
0100
0010
,
0001
0010
0100
1000
0001
0100
0010
1000
,
0100
0010
0001
0010
0100
1000
0001
0000
,
1000
0100
0010
0001
0010
0100
1000
0001
,
0100
0010
1000
0100
0010
0001
0010
0100
,
1000
0001
1000
0010
0100
0001
0010
0100
,
0010
0001
1000
0100
0010
0100
1000
0001
,
0100
0010
1000
0100
0010
0001
0010
0100
,
1000
0010
0100
0001
0010
0100
1000
0100
,
0010
0001
1000
0010
0100
0001
0010
0100
,
1000
0100
0010
0001
1000
0000
1001
0000
,
1000
0100
1000
0010
1000
0001
1000
0010
,
1000
0100
1000
0001
1000
0010
1000
0010
,
0100
0001
0010
0100
1000
0100
0010
0001
,
1000
0010
0100
0001
1000
0100
0010
0001
,
0100
0001
0010
0001
1000
0001
0100
0001
,
0010
0001
1000
0001
0100
0001
1000
0001
,
0010
0100
1000
0100
0010
0001
1000
0010
,
0100
0001
0010
0100
1000
0001
1000
0000
,
0001
0010
0001
0010
0100
1000
0100
1000
,
0010
1000
0010
1000
0001
0100
0001
0100
,
0001
0010
0001
0010
0100
1000
0100
1000
,
0001
0100
0001
0100
0010
1000
0010
1000
,
0001
0010
0001
0010
0100
1000
0100
1000
,
0001
0100
0001
0100
0010
1000
0010
1000
,
0100
1000
0100
0010
0100
0010
0001
1000
,
0100
0010
0001
0010
0100
0000
1001
0000
,
1000
0000
0000
1100
0000
0000
1000
0000
,
0000
1010
0000
0000
1001
0000
0001
0010
,
0100
0000
1000
0100
0000
0110
0000
0011
,
0000
0001
0010
0100
1000
0100
0010
0001
,
1000
0000
0000
0000
0001
0000
0000
0010
,
0000
0100
1000
0001
,
0100
0010
1000
0010
0100
0001
1000
0010
,
0100
0001
1000
0010
0100
0010
1000
0001
,
1000
0000
0000
1001
0000
0000
0001
0000
,
0000
0011
0000
0000
0001
0000
1000
0000
,
0010
0000
0100
0001
0000
1000
0000
0010
,
0000
0100
0001
0010
0100
1000
0100
0010
,
0001
0000
0010
0001
0010
0001
0010
0001
,
0010
0000
0100
1000
0100
0000
1000
0000
,
0010
0100
0010
0000
0100
0001
0000
1000
,
0010
0000
0100
0001
0100
0001
0100
0001
,
0100
0000
0000
0110
0000
0000
0010
0000
,
0000
1010
0000
0000
1000
0000
0001
0010
,
0100
0000
1000
0100
0000
0110
0000
0011
,
0000
0001
0010
0100
1000
0100
0010
0001
,
1000
0000
1100
1001
,
0000
1000
0010
0100
,
0001
0000
0010
0100
1000
0100
0010
0001
,
1000
0010
0100
0001
0010
0100
1000
0100
,
1000
0001
1000
0010
1000
0100
1000
0001
,
1000
0000
0001
0000
0010
0001
0010
0000
,
0001
0000
1000
0010
1000
0000
0010
0100
,
0001
0010
0100
1000
0100
0010
0001
0000
,
1000
0000
0100
1000
0010
0100
0001
1000
,
0100
0010
0001
0011
,
0100
1000
0100
0000
1000
0100
0000
0010
,
0001
0000
1000
0000
0100
0010
0100
0000
,
0110
0000
0000
0000
0010
0001
1000
0100
,
0010
0001
0010
0011
,
0000
0000
1000
0100
1000
0000
0011
0000
,
0000
0000
0001
1000
0001
0000
1001
0000
,
0000
0000
1000
0010
0100
0001
1000
0010
,
0100
0001
0010
0100
1000
0000
1100
0000
,
0000
0000
0100
0010
0001
0000
0011
0000
,
0000
0000
0001
0010
0100
0000
1100
0000
,
0000
0000
1000
0100
0010
0001
1000
0000
,
0001
0100
0001
0101
,
0001
0000
0010
0100
1000
0100
0010
0001
,
1000
0100
0010
0001
0010
0000
0110
0000
,
0000
0000
0100
0010
0001
1000
0100
0010
,
0001
0010
0100
1000
0100
0000
1100
0000
,
0000
0000
0010
0001
1000
0100
0010
0001
,
1000
0010
0100
0001
1000
0001
1000
0000
,
1001
0000
1000
0010
,
0001
0010
0100
1000
,
0100
0001
0010
1000
,
0010
0100
0001
0100
,
1000
0010
0100
1000
,
0100
0010
0001
0010
,
1000
0100
0001
0100
,
0010
1000
0010
0001
,
0010
0100
1000
0010
,
0100
1000
0100
0010
,
0001
0010
1000
0100
,
0010
0001
0100
0010
,
1000
0000
0000
0000
0000
0000
0000
0000
0002
0000
0000
0000
0000
0000
0000
0000
0000
0000
0000
0000
0000
0000
0000
0000
0000
0000
0000
0000
0003
1000
0100
2000
,
0000
0000
0000
0000
0000
0000
3002
0000
0000
0000
0000
0000
0000
0000
0000
0023
,
0000
0000
0000
0000
0000
0000
0000
0000
0000
0000
0000
0000
0000
0000
0000
0002
,
0000
0000
0000
0000
0000
0000
0000
0000
0000
0000
0000
0000
0000
0000
0000
0000
0000
0000
0000
0000
0000
0000
0000
0000
0000
0000
0000
0000
0000
2000
0000
0000
,
0000
0000
0000
0000
,
0000
3033
0000
0000
0000
0000
0000
0000
;
#NOTES:
     dance-single:
     Renard:
     Easy:
     9:
     0.604,0.789,0.000,0.039,0.005:
0000
0000
0000
0000
,
0000
0000
0000
0000
,
0000
0000
0000
0000
,
0000
0000
0000
0000
,
0000
0000
0000
0000
,
0000
0000
0000
0000
,
0000
0000
0000
0000
,
0000
0000
0000
0000
,
0000
0000
0000
0000
,
0000
0000
0000
0000
,
0001
1000
0100
0010
,
0001
0010
0001
0000
0010
0100
0010
0000
,
0100
1000
0010
0100
,
0001
0100
0001
0000
0100
0010
0100
0000
,
0010
1000
0100
0010
,
0001
0010
0001
0000
0010
0100
0010
0000
,
0100
1000
0001
0100
,
0010
1000
0001
0100
0010
1000
0100
0010
,
0001
0010
0100
1000
,
0001
0100
0010
1000
0100
0000
0010
0000
,
0001
0000
0010
0000
0100
1000
0001
0000
,
0100
0000
0010
0000
1000
0100
1000
0000
,
0001
0010
0100
1000
,
0001
0100
0010
1000
0100
0000
0010
0000
,
0001
0010
0100
1000
,
0001
0000
0100
0000
0010
1000
0100
0010
,
0001
0000
0010
0000
0100
0000
1000
0001
,
1000
0000
0010
0000
1000
0000
0001
1000
,
0001
1000
0010
0100
,
0001
0100
0001
0000
0100
0010
0100
0000
,
0010
0000
1000
0000
0100
0010
0100
0000
,
0010
0000
0001
0000
1000
0001
1000
0000
,
0001
0000
0100
0000
0010
1000
0010
0000
,
1000
0100
0010
0001
0010
0000
0100
0000
,
1000
0000
0001
0000
0010
0000
0100
1000
,
0100
0000
0010
0100
0010
0000
0001
0010
,
0001
0010
0100
1000
,
0001
0100
0001
0000
0100
0010
0100
0000
,
0010
1000
0100
0010
,
0001
0010
0100
1000
,
0010
0100
0010
0100
0010
0100
0010
0100
,
0010
0100
0010
0100
0010
0000
0100
0000
,
0001
0000
0000
0100
0000
0000
0010
0000
,
0000
1000
0000
0000
0100
0000
0010
0001
,
0010
0000
0100
1000
0000
0001
0000
0010
,
0000
0100
1000
0001
,
0100
0000
0010
0000
,
1000
0100
0010
0001
,
0010
0000
0100
0000
,
1000
0100
0010
0001
0010
0100
1000
0001
,
0010
0000
0000
0001
0000
0000
1000
0000
,
0000
0100
0000
0000
0010
0000
0001
0000
,
0010
0000
0100
1000
0000
0001
0000
0010
,
0000
0001
0010
0100
,
1000
0000
0001
0100
,
0010
0000
1000
0010
,
0100
0000
0001
0000
0100
0010
0000
0100
,
0010
0000
0100
0001
0000
0100
0010
0000
,
0100
0010
1000
0100
,
0010
0000
0001
0000
0010
0000
0100
1000
,
0100
0000
1000
0100
0000
0010
0000
0001
,
0000
0010
0100
1000
,
0001
0100
0010
1000
,
0010
0100
0001
1000
,
0100
0000
0010
0000
0001
0010
0001
0000
,
0010
0100
0010
0000
0100
1000
0100
0000
,
1000
0010
0100
0001
,
0100
0010
1000
0001
,
0010
0100
1000
0001
,
0100
0000
0010
0000
1000
0001
1000
0000
,
0010
0000
1000
0000
0100
0010
0001
0000
,
0010
0000
0100
0000
1000
0100
0010
0000
,
0001
0010
0100
1000
,
0001
0100
0010
1000
0001
0100
0010
1000
,
0001
0000
0000
0000
0100
0010
0100
0010
,
0100
0010
1000
0100
,
0000
0000
0010
0100
0010
0000
0001
0000
,
0000
0000
0010
0100
0010
0000
0100
0000
,
0000
0000
1000
0010
1000
0010
1000
0000
,
0010
0100
0001
0100
,
0000
0010
1000
0100
,
0000
0010
0001
1000
,
0000
0000
0001
0100
0001
0100
0001
0000
,
0100
0010
1000
0100
,
0000
0000
1000
0010
1000
0010
1000
0000
,
0010
0100
0001
0010
,
0000
0000
0001
0010
0100
1000
0001
0000
,
0010
0100
1000
0100
,
0000
0000
0010
0001
0010
0100
1000
0000
,
0001
0010
0001
1000
,
0100
0000
0010
0000
,
0001
0010
0100
1000
,
0100
0010
0001
0010
,
0100
1000
0001
0100
,
0010
1000
0100
0010
,
0001
0010
0100
1000
,
0001
0100
0010
1000
,
0100
0010
0001
0010
,
0100
1000
0100
0010
,
0001
0010
0100
1000
,
0001
0100
0010
1000
,
0100
0010
0001
0010
0100
1000
0100
0010
,
0001
0010
0200
0000
0000
0000
0000
2000
,
0000
0000
0300
0000
0000
0000
0002
0000
0000
0000
0000
0000
0000
0000
0000
0020
,
0000
0000
0000
0000
,
0000
0000
0000
0000
,
0030
0000
0000
0000
,
3003
0000
0000
0000
;
#NOTES:
     dance-single:
     Renard:
     Beginner:
     7:
     0.473,0.684,0.147,0.206,0.005:
0000
0000
0000
0000
,
0000
0000
0000
0000
,
0000
0000
0000
0000
,
0000
0000
0000
0000
,
0000
0000
0000
0000
,
0000
0000
0000
0000
,
0000
0000
0000
0000
,
0000
0000
0000
0000
,
0000
0000
0000
0000
,
0000
0000
0000
0000
,
0001
0010
0100
1000
,
0100
0100
0010
0010
,
0000
0001
0010
0100
,
1000
1000
0001
0001
,
0010
0001
0010
0100
,
1000
1000
0001
0001
,
0000
1000
0010
0100
,
0001
0100
0010
1000
,
0100
0100
0010
0010
,
0001
0001
1000
1000
,
0001
0100
0010
0000
,
1000
0010
0100
0000
,
0001
0001
1000
1000
,
0100
0100
0010
0010
,
0001
1000
0001
0100
,
0010
1000
0100
0010
,
0001
0010
0100
0010
,
0001
0010
0100
0010
,
0100
1000
0100
0010
,
0100
1000
0100
0010
,
0100
1000
0010
0100
,
0001
0010
0100
1000
,
0010
0100
0001
0010
,
0100
1000
0001
0100
,
0010
0010
1000
1000
,
0001
0001
0100
0100
,
0010
1000
0100
0010
,
0001
0001
0010
0010
,
0100
0110
0100
0110
,
0100
0110
0100
0110
,
0100
1000
0010
0100
,
0001
0010
0001
1000
,
0001
0000
0100
0000
,
0010
0000
1000
0000
,
0100
0010
0001
0010
,
0100
0000
0100
0000
,
1000
0000
0010
0000
,
0100
0000
0001
0000
,
0100
0010
1000
0100
,
0010
0001
0010
0100
,
1000
0000
1000
0000
,
0001
0000
0001
0100
,
0010
0000
0010
1000
,
0100
0000
0100
0000
,
0010
0001
0010
0001
,
0010
0100
0010
0100
,
1000
0010
0100
0001
,
0010
0100
1000
0001
,
0100
0000
0110
0000
,
0010
0000
1010
0000
,
1000
0100
0010
0001
,
0010
0010
0100
0100
,
1000
0000
0010
0100
,
0000
0001
0100
0010
,
0000
1000
0010
0100
,
0001
0010
0100
1000
,
0001
0000
0010
0100
,
1000
0000
0010
0100
,
0001
0010
0100
1000
,
0100
0010
0010
0001
,
0001
1000
0010
0100
,
0001
0001
0010
0010
,
0100
1000
0010
0100
,
1000
0100
0010
0100
,
0001
0000
0100
0010
,
1000
0010
1000
1010
,
0000
1000
0100
1100
,
0000
0100
0010
0110
,
0000
0010
0001
0100
,
0010
1000
0001
1001
,
0000
0001
0100
0101
,
0000
0100
0010
0110
,
0000
0010
1000
0100
,
0010
0001
0010
0011
,
0000
0010
0100
0010
,
0000
0100
1000
1100
,
0000
1000
0001
0100
,
0010
1000
0010
1010
,
0000
1000
0100
0010
,
0001
0010
0100
1000
,
0002
0000
0203
0000
,
0320
0000
0000
0000
,
2030
0000
0000
0000
,
3200
0000
0000
0000
,
0320
0000
0000
0000
,
0032
0000
0023
0000
,
0230
0000
2300
0000
,
3020
0000
0230
0000
,
0302
0000
0203
0000
,
0320
0000
2030
0000
,
3200
0000
0320
0000
,
0032
0000
0000
0000
,
0000
0023
0000
0000
,
0000
0000
0000
0000
0000
0000
0000
0000
0000
0000
0000
0000
0000
0000
0000
0200
,
0000
0000
0000
0000
,
0000
0000
0000
0000
,
0000
0000
0000
0000
,
0330
0000
0000
0000
;
