#TITLE:Beautiful World;
#SUBTITLE:;
#ARTIST:Novasonic;
#TITLETRANSLIT:;
#SUBTITLETRANSLIT:;
#ARTISTTRANSLIT:;
#CRChallenge:;
#BANNER:world.png;
#BACKGROUND:world-bg.png;
#LYRICSPATH:;
#CDTITLE:;
#MUSIC:world.ogg;
#OFFSET:0.000;
#SAMPLESTART:29.840;
#SAMPLELENGTH:12.000;
#SELECTABLE:YES;
#BPMS:0.000=104.000;
#STOPS:;
#BGCHANGES:;
#NOTES:
     dance-single:
     Renard:
     Hard:
     11:
     0.793,0.734,0.544,0.078,1.000:
0000
0000
0000
0000
,
0000
0000
0000
0000
,
0000
0000
0000
0000
,
0000
0000
0000
0000
,
0000
0000
0000
0000
0000
0000
0000
0000
1001
0000
0000
0000
0100
0000
0000
0000
1001
0000
0000
0000
0010
0000
0000
0000
1000
0001
1000
0000
0001
0000
0001
0000
,
0100
0000
0000
0000
0010
0000
0000
0000
1000
0010
1000
0000
0010
0000
0100
0000
0001
0000
1000
0000
0001
0100
0001
0000
1000
0000
0100
0000
0010
0000
0001
0000
,
0100
0000
1001
0000
0001
0100
0001
0100
0010
1000
0010
1000
0100
0010
0001
0010
,
0100
0000
1000
0000
0000
0000
0000
0000
0001
0000
1000
0001
1000
0000
0001
0000
0100
0000
0010
0000
1000
0000
0100
0000
0010
0000
0001
0000
0010
0000
0100
0000
,
1000
0001
1000
0000
0201
0000
0310
0000
0010
1000
0100
0010
0001
0010
0021
0000
,
0130
0000
0100
1000
0010
0100
0001
0100
0201
0000
0310
0000
1000
0010
0100
0001
,
0201
0000
0000
0000
0310
0000
0000
0000
0010
0000
1000
0010
1000
0000
0001
0000
0100
0000
0010
0000
1000
0000
0001
0000
0010
0000
0100
0000
1000
0000
0001
0000
,
0100
0010
0000
0000
1000
1000
0001
0001
1000
1000
0001
0001
1000
1000
0001
0001
,
1000
0001
0000
0000
1001
0000
0000
0001
0010
0100
1000
0010
0100
0001
0010
0100
,
1000
0100
0010
0001
0011
0000
0000
0010
0100
1000
0001
0100
0110
0000
0110
0000
,
1001
0000
0000
0000
1010
0000
0000
0010
1000
0010
0100
0001
0010
0100
1000
0100
,
0010
0001
1000
0001
1001
0000
0000
0000
1000
0000
0010
0000
0110
0000
0000
0000
,
0101
0000
0000
0000
0101
0000
0000
0001
0100
0010
1000
0100
0010
0001
0010
0100
,
1000
0001
0100
0010
0110
0000
0000
0010
1000
0100
0010
0001
0011
0000
0110
0000
,
1100
0000
0000
0000
1100
0000
0000
0100
1000
0100
0010
0001
0010
0100
1000
0001
,
0100
0010
1000
0010
1010
0000
1000
0010
0100
0000
0001
0000
0101
0000
0100
0000
,
0110
0000
0000
0000
0000
0000
0000
0000
0000
0000
0000
0000
0010
0000
1000
0000
0010
0000
1000
0000
0000
0001
0000
0000
0100
0000
0000
0010
0000
0000
1000
0000
0000
0010
0000
0000
0000
0000
0000
0100
0000
0000
0001
0000
0000
0100
0000
0000
,
0010
0000
0000
0000
1010
0000
0000
0000
1000
0000
0100
0000
0010
0000
0001
0000
0010
0000
0100
0000
1000
0000
1100
0000
0000
0000
0000
0000
1000
0000
0100
1000
,
0100
1000
1000
0000
0001
0100
0010
0010
1000
0100
0010
0010
0001
0100
0010
0010
,
0000
0000
1000
0010
0100
0100
0001
0001
2000
0000
3100
0000
1000
0100
0010
0001
,
0020
0000
0000
0000
0031
0000
0000
0000
0001
0000
1000
0000
0001
0100
0001
0000
0200
0000
0000
0000
0310
0000
0000
0000
1000
0000
0010
0000
0100
0000
0001
0000
,
1000
0000
0100
0000
0010
0000
0001
0000
1000
0000
0001
0000
0100
0000
0001
1000
0001
0000
0100
0000
0010
0000
1000
0000
0100
0000
0100
0000
0010
0000
0001
0000
,
1000
0000
0000
0000
0001
0001
0100
0010
1000
0100
0010
0001
0000
0011
0000
1000
,
0100
0000
1000
0001
0100
0010
1000
0100
0010
0010
0001
0010
0100
1000
0001
0100
,
0010
0000
1010
0000
1000
1000
0100
0010
0001
0010
0001
0010
0000
0011
0000
0010
,
0100
0000
0000
0000
1100
0000
0000
0000
1000
0000
1000
0000
0010
0000
0100
0000
0001
0000
0100
0000
0010
0000
1000
0000
0000
0000
0000
0000
0100
0000
1000
0100
,
1000
0100
1000
0000
0001
0010
0100
1000
0100
0000
1100
0000
1000
0100
0010
0001
,
0010
0000
0000
0000
0011
0000
0000
0000
0001
0000
0010
0000
0100
0000
1000
0000
0001
0000
0100
0001
0100
0000
0010
0000
1000
0000
0100
0000
0010
0000
0100
0000
,
0010
0000
0000
0000
0000
0000
0011
0000
0000
0000
0000
0000
0001
0000
0010
0000
0100
0000
1000
0000
0000
0100
0000
0000
0010
0000
0000
0001
0000
0000
1000
0000
0000
0100
0000
0000
1000
0000
0000
0001
0000
0000
0100
0000
0000
0010
0000
0000
,
1000
0100
0000
0000
0100
1000
0000
0001
0010
0100
1000
0010
0100
0001
0010
0100
,
1000
0000
0100
0000
0000
0000
0000
0000
1100
0000
0000
0000
0011
0000
0000
0000
0001
0000
0010
0000
0100
0000
1000
0000
0010
0000
0100
0000
0001
1000
0001
0000
,
0100
0001
0100
0000
0010
0000
1000
0000
0010
0000
0100
0000
0001
1000
0001
0000
1000
0000
0100
0000
0010
0000
0001
0000
1000
0000
1000
0000
0100
0000
0100
0000
,
0010
0000
0001
0000
0000
0000
0000
0000
0001
0010
0001
0000
0010
0000
0100
0000
1000
0000
0010
0000
0100
0000
0001
0000
1000
0000
0100
0000
0010
0000
0001
0000
,
0100
0010
0000
0000
1000
1000
0010
0010
0100
0100
0001
0001
1000
0100
0010
0001
,
1000
0001
0000
0000
1001
0000
0000
0001
0100
0010
1000
0100
0010
0001
0010
0100
,
1000
0010
0100
0010
0110
0000
0000
0010
1000
0100
0010
0001
0011
0000
0110
0000
,
1100
0000
0000
0000
1001
0000
0000
0001
0100
0010
1000
0100
0010
0001
0010
0100
,
1000
0001
0100
0010
0110
0000
0000
0010
1000
0000
0100
0000
1100
0000
0000
0000
,
0011
0000
0000
0000
0110
0000
0000
0010
0100
1000
0010
0100
0001
0010
0100
1000
,
0001
0100
0010
1000
1010
0000
0000
1000
0010
0100
0001
0010
0011
0000
0110
0000
,
1100
0000
0000
0000
1100
0000
0000
0100
1000
0010
0100
0001
0010
0100
1000
0001
,
0100
0010
1000
0010
1010
0000
0000
1000
0010
0000
0101
0000
0110
0000
1010
0000
,
1001
0000
0000
0000
0101
0000
0000
0001
0100
0000
0110
0000
0000
0000
0010
0000
,
1000
0100
0010
0001
0010
0100
1000
0001
0100
0010
1000
0100
0010
0000
0110
0000
,
0010
0001
0000
0000
1100
0000
0010
0000
0001
0000
0011
0000
0001
0000
0010
0000
,
0100
1000
0001
0100
0010
0000
0110
0000
1001
0000
0200
0020
0000
0000
0000
0000
,
0330
0000
0000
0000
;
#NOTES:
     dance-single:
     Renard:
     Medium:
     9:
     0.606,0.601,0.432,0.000,0.449:
0000
0000
0000
0000
,
0000
0000
0000
0000
,
0000
0000
0000
0000
,
0000
0000
0000
0000
,
0000
0000
0000
0000
1001
0000
0000
0000
0110
0000
0000
0000
1000
0010
1000
0010
,
0100
0000
0001
0000
1000
0100
1000
0000
0001
0010
0001
0000
1000
0010
1000
0000
,
0001
0000
0101
0000
0001
0100
0001
0000
0100
0010
0100
0000
0010
1000
0010
0000
,
1010
0000
1001
0000
1000
0100
1000
0000
0001
0010
0001
0000
1000
0100
1000
0000
,
1001
0000
1010
0000
1000
0001
1000
0000
0001
0100
0001
0000
1000
0001
1000
0000
,
1100
0000
1001
0000
1000
0001
1000
0000
0001
0100
0001
0000
1000
0001
1000
0000
,
1010
0000
1001
0000
1000
0001
1000
0000
0001
0100
0001
0000
1000
0001
1000
0000
,
1100
0000
1001
0000
1000
0001
1000
0000
0001
0010
0001
0000
1000
0010
1000
0000
,
0001
0000
1000
0000
0100
0000
1000
0000
0001
0010
0001
0000
0010
0001
0010
0000
,
0001
0010
0001
0000
0010
0000
0100
0000
1000
0100
1000
0000
1001
0000
1001
0000
,
1001
0000
0000
0000
0001
0000
1000
0000
0100
1000
0100
0000
1000
0100
1000
0000
,
0001
0010
0001
0000
1000
0000
0001
0000
1000
0010
1000
0000
1010
0000
0000
0000
,
1001
0000
0000
0000
0001
0000
0100
0001
0100
0000
0010
0100
0010
0000
1000
0010
,
1000
0000
0001
1000
0001
0000
1000
0100
1000
0000
0100
0000
1100
0000
1100
0000
,
1001
0000
0000
0000
0001
0000
1000
0001
1000
0000
0100
1000
0100
0000
1000
0001
,
1000
0000
0001
0100
0001
0000
1000
0000
0100
0000
0010
0000
0011
0000
0011
0000
,
0110
0000
0000
0000
0100
0000
1000
0000
0001
0000
0100
0010
0000
1000
0100
0010
,
0001
0000
0010
0000
0100
0000
1000
0000
0001
0100
0000
1001
0000
0000
0000
0000
,
0000
0000
0000
0000
1000
0000
0100
0000
0010
0001
0010
0000
0100
0000
1000
0000
,
0001
0100
0001
0000
0100
0000
0010
0000
1000
0100
1000
0000
0001
0010
0001
0000
,
1000
0001
1000
0000
0001
0000
0100
0000
0010
1000
0010
0000
1000
0000
0001
0000
,
0100
0010
0100
0000
0010
0000
1000
0000
0100
1000
0100
0000
1000
0000
1001
0000
,
1001
0000
0000
0000
1000
0000
0001
0000
0100
0010
0000
1000
0000
0000
0010
0000
,
1010
0000
1000
0000
1000
0000
0100
0000
0010
0001
0000
0010
0000
0000
0100
0000
,
1000
0000
1001
0000
1000
0000
0010
0000
0100
0001
0000
1000
0000
0000
0100
0000
,
1000
0000
1001
0000
1000
0000
0010
0000
0100
0001
0000
1001
0000
0000
0000
0000
,
0000
0000
0000
0000
0001
0000
0100
0000
0010
0000
1000
0000
0100
1000
0100
1000
,
0100
1000
0100
0010
0001
0100
0101
0100
,
0110
0000
0010
0000
1000
0010
1000
0010
1000
0000
0010
0000
1000
0001
1000
0001
,
1000
0000
0001
0000
1000
0100
1000
0000
0001
1000
0001
0000
0100
0001
0100
0000
,
0001
1000
0001
0000
1000
0000
0100
0000
0010
0000
0001
0000
0010
0100
1000
0100
,
1000
0000
0100
0000
1000
0000
0100
0000
0010
0000
0001
0000
0100
0001
0100
0001
,
0100
0000
0010
0000
1000
0000
0001
0000
1000
0100
1000
0000
0100
0000
0010
0000
,
0001
0100
0001
0000
1000
0000
0100
0000
0010
0000
0001
0000
1000
0010
1000
0001
,
0010
0000
0001
0000
1001
0000
1000
0000
0001
0000
0100
0000
0001
1000
0001
1000
,
0001
1000
0001
0000
0101
0000
0001
1000
0100
0000
1000
0000
1100
0000
1100
0000
,
1001
0000
0000
0000
0001
0000
1000
0000
0100
1000
0100
0000
1000
0001
1000
0000
,
0001
0100
0001
0000
0101
0000
0100
0000
0010
0000
1010
0000
1001
0000
1000
0000
,
1100
0000
1000
0000
0001
0000
1000
0000
0100
1000
0100
0000
1000
0001
1000
0000
,
0001
0100
0001
0000
1000
0000
0001
0000
1000
0100
1000
0000
1001
0000
1001
0000
,
1001
0000
1000
0000
0001
0000
0100
0000
0001
1000
0001
0000
0010
0001
0010
0000
,
0001
1000
0001
0000
0100
0000
0001
0000
1000
0000
0100
0000
1100
0000
1100
0000
,
1001
0000
0000
0000
1000
0000
0001
1000
0001
0000
1000
0001
1000
0000
0001
1000
,
0001
0000
0100
0001
0100
0000
0001
1000
0001
0000
1000
0100
1000
0000
0001
0000
,
0010
0000
0001
0000
1000
0000
0010
1000
0010
0000
1000
0001
1000
0000
0001
0010
,
0001
0000
1000
0001
1000
0000
1010
0000
0101
0000
0010
1000
0000
0000
0000
0000
;
#NOTES:
     dance-single:
     Renard:
     Easy:
     6:
     0.337,0.364,0.319,0.000,0.000:
0000
0000
0000
0000
,
0000
0000
0000
0000
,
0000
0000
0000
0000
,
0000
0000
0000
0000
,
0000
0000
1001
0000
1010
0000
0010
0100
,
0001
0000
0100
0100
0001
0001
1000
0001
,
0100
0000
0001
0001
1000
0000
0001
1000
,
0100
0000
0010
0001
1000
0010
0100
0000
,
1001
0000
0001
0001
1000
1000
0010
0000
,
0110
0000
0010
0100
0001
1000
0010
0100
,
1001
0000
0010
0000
0100
0000
0010
0010
,
1000
0000
0010
0000
0100
0001
1000
0100
,
0010
0000
0011
0000
0100
1000
0010
0000
,
0010
0000
1010
0000
0100
0000
1001
1001
,
1001
0101
0010
1000
,
0100
0000
1001
0000
0000
0001
1000
0000
,
0010
0000
0110
0000
0010
0000
0100
0001
,
1000
0000
1100
0000
1000
0000
0101
0101
,
0101
0000
0010
0000
1000
0000
0100
1000
,
0001
0000
0100
0000
0000
0001
1000
0000
,
0100
0000
1001
0000
0000
0000
1000
0001
,
1000
0010
0000
1000
0000
0001
0100
0000
,
0000
0000
0001
0000
0001
0000
1000
1000
,
1000
0000
0010
0000
0010
0000
0100
0100
,
0100
0000
0001
0000
0010
0000
0001
1000
,
0100
0000
1000
1000
1000
1000
1000
1000
,
1000
0000
0001
0001
0001
0000
0100
0010
,
0100
0000
0010
0010
0010
0000
1000
0000
,
0100
1000
0001
0001
0001
0000
0100
0100
,
0010
0000
1000
0010
0100
0001
1000
0000
,
0000
0000
1001
0000
0001
0000
1000
1000
,
1000
0000
0010
0000
0100
0000
0010
0010
,
0010
0000
0100
0000
0001
0000
1000
1000
,
1000
0000
0001
0000
0010
0000
0100
0010
,
0100
0000
0010
0000
0010
0000
0001
0001
,
0001
0000
1000
0000
0010
0000
1000
1000
,
1000
0000
0001
0000
0100
0000
0010
0010
,
0010
0000
0100
0100
0010
0010
0100
0010
,
0100
0110
0000
0010
,
0100
0000
1001
0000
0100
0000
1001
1001
,
1001
0000
0110
0000
1000
0010
0100
0001
,
1000
0000
1001
0000
0000
1000
0010
0000
,
0100
0101
0100
0010
,
1000
0010
1010
0000
1000
0100
1100
1100
,
1100
0010
0001
1000
,
0010
0000
0110
0000
0000
0100
0001
0000
,
1001
0000
1100
0000
0000
1001
0000
0000
,
0001
1000
0100
0010
0001
1000
0010
0100
,
0001
0000
1001
0000
0000
0110
0000
0000
,
0010
1000
0001
0100
0010
1000
0000
0000
;
#NOTES:
     dance-single:
     Renard:
     Beginner:
     3:
     0.306,0.321,0.475,0.147,0.000:
0000
0000
0000
0000
,
0000
0000
0000
0000
,
0000
0000
0000
0000
,
0000
0000
0000
0000
,
0000
1001
1001
0001
,
0100
1001
1001
1000
,
0100
1001
1001
0001
,
0010
1001
1001
1000
,
0010
1001
1001
0001
,
0100
1001
1001
1000
,
0100
1001
1001
0001
,
0010
1001
1001
1000
,
0010
0110
0110
0010
,
1000
0110
0110
0010
,
0001
0110
0110
0100
,
0001
0110
0110
0100
,
1000
0110
0110
0010
,
1000
0110
0110
0010
,
0001
0110
0110
0100
,
0001
0110
0100
0010
,
1000
0001
0001
1000
,
1000
0000
0010
0000
0100
0010
0000
0000
,
0000
0100
0100
0010
,
0010
0100
0010
0100
,
0010
1000
1000
0001
,
0001
1000
0001
1000
,
0001
0010
0010
0100
,
0100
1000
1000
0001
,
0100
0001
0001
1000
,
1000
0000
0100
0000
0010
0001
0000
0000
,
0000
1000
1010
0001
,
0101
1000
1010
0001
,
0101
1000
1100
0001
,
0011
1000
1100
0001
,
0011
1000
1001
0010
,
0110
0001
1001
0100
,
0110
1000
1001
0010
,
0110
0001
1001
0100
,
0110
2002
3003
0001
,
1000
0000
0220
0000
0330
0000
0010
0010
,
0010
0220
0330
0010
,
0100
2002
3003
0001
,
1000
0010
0010
0010
,
0010
0000
0100
0000
0100
0000
0001
1000
,
0001
0100
0100
0010
,
0010
2000
0000
3001
,
0100
0000
0220
0000
0330
2002
0000
0000
,
3003
0000
0001
0000
1000
0000
0100
0010
,
0001
0000
2002
0000
3003
0220
0000
0330
,
0000
0000
0010
0100
0001
1000
0000
0000
;
