#TITLE:Be With You;
#SUBTITLE:;
#ARTIST:MGD-Crew feat. Sprinkel Bunnies;
#TITLETRANSLIT:;
#SUBTITLETRANSLIT:;
#ARTISTTRANSLIT:;
#CRChallenge:;
#BANNER:;
#BACKGROUND:;
#LYRICSPATH:;
#CDTITLE:;
#MUSIC:with.ogg;
#OFFSET:0.000;
#SAMPLESTART:41.448;
#SAMPLELENGTH:12.000;
#SELECTABLE:YES;
#BPMS:0.000=185.294;
#STOPS:125.000=0.162
,126.500=0.162
,252.000=0.162
;
#BGCHANGES:;
#NOTES:
     dance-single:
     Renard:
     Medium:
     9:
     0.735,0.765,0.356,0.000,0.000:
0000
0000
0000
0000
,
0000
0000
0000
0000
,
0000
0000
0000
0000
,
0000
0000
0000
0000
,
1000
0000
0100
1000
0000
0001
0010
0000
,
0001
0000
0100
0001
0000
1000
0010
0000
,
1000
0000
0100
1000
0000
0001
0010
0000
,
1001
1001
0000
0110
0000
1001
0110
0000
,
0010
1000
0010
1000
0100
1000
0100
0000
,
0010
0001
0010
0001
0100
0001
0100
0001
,
1000
0100
1000
0000
0001
0010
0001
0000
,
1000
0010
0100
0001
0010
0000
0011
0000
,
0001
0010
0100
1000
0100
0000
1000
0000
,
0001
0100
0010
1000
0001
0000
1000
0000
,
0100
1000
0100
0000
0001
0100
0001
0000
,
0100
1000
0100
0000
1000
0010
0001
0010
,
1000
0000
0100
1000
0100
0000
0010
0001
,
0010
0000
0001
0100
0001
0100
0010
1000
,
0100
0000
1000
0001
1000
0000
0001
0100
,
0001
0000
0010
0100
1000
0001
0100
0010
,
1000
0000
1000
0010
0001
0000
0001
0010
,
1000
0000
1000
0100
0001
0000
0001
0100
,
1000
0010
1000
0010
0100
0010
0001
0010
,
1000
0100
1000
0100
0010
0100
0001
0100
,
1000
0000
1000
0001
0100
0010
1000
0100
,
0010
0000
0010
0001
1000
0010
0100
0001
,
0100
0000
0100
0010
1000
0100
0010
0001
,
1000
0001
1000
0001
0100
0010
1000
0100
,
0010
0000
0001
0010
0100
1000
0001
0100
,
0010
1000
0010
0100
0001
0100
0010
1000
,
0100
0000
0100
1000
0001
0000
0010
0001
,
1000
1000
1000
0001
0001
0001
1000
0010
,
0100
0001
0100
0010
1000
0100
0010
0001
,
0100
0010
1000
0100
1000
0001
0010
0001
,
1000
0010
1000
0001
0100
0010
1000
0100
,
0010
0001
1000
0100
1000
0100
1100
0000
,
1000
0001
0100
0010
1000
0001
1001
0000
,
0001
0100
0010
1000
0100
0010
0110
0000
,
0010
0001
1000
0010
0100
0001
0101
0000
,
0100
0010
1010
0000
1000
0100
0010
0001
,
1000
0001
0100
0000
0101
0000
0100
0010
,
1000
0100
1000
0000
1100
0000
1000
0100
,
0010
0001
1000
0010
1010
0000
1000
0010
,
0100
0001
0010
0001
0011
0000
0010
0100
,
1000
0001
0100
0000
0110
0000
0010
1000
,
0001
0010
0100
0000
0110
0000
0100
1000
,
0010
0100
0001
0010
0100
1000
0001
0100
,
0110
0010
1000
0100
1100
1000
0001
0100
,
0110
0010
1000
0100
0110
0010
0001
1000
,
1010
0010
0100
0001
0011
0000
0010
0100
,
1100
1000
0010
0100
0101
0001
0010
0100
,
1100
1000
0001
0100
0110
0000
0010
1000
,
1100
1000
0100
0010
0011
0010
0001
0100
,
0010
1000
0001
0100
0010
0000
1000
0100
,
1100
1000
0010
0100
0001
0010
0001
1000
,
0010
0100
0001
0001
1000
0100
0010
0001
,
0010
0100
1000
0001
0100
0010
1000
0100
,
0010
0001
1000
0010
1010
0000
1000
0010
,
0100
0001
0010
0100
1000
0001
0100
0010
,
1000
0100
1000
0001
0100
0010
1000
0100
,
1000
0001
0100
0010
1000
0100
1000
0010
,
0001
0010
1000
0100
0001
0100
1000
0010
,
0001
0010
1000
0100
0001
0100
0010
0010
,
0010
0100
0100
0100
0000
0000
0000
0000
;
#NOTES:
     dance-single:
     Renard:
     Easy:
     6:
     0.397,0.473,0.046,0.161,0.000:
0000
0000
0000
0000
,
0000
0000
0000
0000
,
0000
0000
0000
0000
,
0000
0000
0000
0000
,
1000
0100
1000
0000
,
0001
0010
0001
0000
,
1000
0000
1000
0000
,
0010
0000
0100
0000
0000
0001
1000
0000
,
0001
0000
1000
0000
0100
1000
0100
0000
,
1000
0000
0001
0000
,
0010
0000
0001
0000
0100
0010
0000
1010
,
0000
0000
1001
0000
,
1000
0000
0100
0000
0010
0001
0000
0011
,
0000
0000
1001
0000
,
0001
0000
0100
0010
0100
0000
0010
1000
,
0010
0000
2000
0000
,
3100
0000
0010
0000
0001
0010
0001
0000
,
0010
0000
0100
0000
,
1000
0000
0000
0000
0001
0100
0000
0002
,
0000
0000
2003
0000
,
3100
0000
0010
0000
0001
2000
0000
3020
,
0000
0000
0230
0000
,
0301
0000
0010
0100
1000
0000
0100
1000
,
0100
1000
0001
0100
,
0010
1000
0010
0000
1000
0000
0100
0000
,
1000
0001
1000
0000
0001
0000
0100
0000
,
0001
0010
0001
0000
1000
0000
0100
0000
,
1000
1000
0001
0001
,
1000
0000
0010
1000
0010
0000
1000
0000
,
0001
0000
0100
0001
0100
0000
0001
0000
,
0010
0100
0010
0000
0100
1000
0100
0000
,
1000
0001
1000
0001
1000
0001
2000
0000
,
0000
3020
0000
0000
0230
0000
0302
0000
,
0000
0000
0000
0003
0010
0100
1000
0000
,
0000
0001
0000
0000
0010
0000
0001
0000
,
0000
1000
0000
0010
,
0000
0000
0000
0000
0100
0001
0100
0000
,
0000
0000
0000
0000
0010
1000
0010
0000
,
0000
1000
0000
0000
0100
0000
0010
0000
,
0000
0001
0000
2000
,
0000
3200
0000
0000
0320
0000
0032
0000
,
0000
0000
0000
0003
1000
0100
1000
0000
,
0000
0001
0000
0000
0010
0000
0001
0000
,
0000
1000
0000
0010
,
0100
0000
0001
0000
0100
0001
0100
0000
,
0000
0000
0001
0000
1000
0100
1000
0000
,
0000
0001
0000
0000
0010
0000
0100
0000
,
1000
0010
0100
0001
,
0100
0000
0010
1000
0010
0000
1000
0000
,
0100
0010
0000
0001
,
0010
0000
0100
0000
1000
0001
1000
0000
,
0001
0100
0010
1000
,
0001
0010
0001
1000
,
0100
1000
0100
0000
1000
0000
0001
0000
,
0010
0001
1000
0010
,
1000
0000
0001
1000
0001
0000
1000
0000
,
1000
0100
0100
0010
,
0000
0001
0000
1000
,
0010
1000
0010
0000
0000
0000
1000
0000
,
0001
1000
0001
0000
0000
0000
0100
0000
,
0001
0100
0001
0000
0000
0000
1000
0000
,
0100
1000
0100
0000
0000
0000
1000
0000
,
0001
0000
0010
0000
0100
0000
1000
0001
,
1000
0001
1000
0001
0000
0000
0000
0000
;
#NOTES:
     dance-single:
     Renard:
     Beginner:
     2:
     0.300,0.328,0.000,0.184,0.000:
0000
0000
0000
0000
,
0000
0000
0000
0000
,
0000
0000
0000
0000
,
0000
0000
0000
0000
,
0000
0000
0000
0000
,
0000
0000
0000
0000
,
1000
0000
1000
0000
,
0001
0001
0000
0100
,
0001
0000
1000
0100
,
0020
0000
0032
0000
,
0023
0000
0130
1000
,
0002
0000
0013
0000
,
0001
0010
0100
1000
,
0020
0000
2030
0000
,
3001
0100
0010
1000
,
0020
0000
2030
0000
,
3010
0000
0100
0001
,
0020
0000
0032
0000
,
2003
0000
3100
0010
,
0002
0000
0013
0000
,
0010
0001
0010
0100
,
2000
0000
3200
0000
,
1300
0010
0100
0001
,
0020
0000
0032
0000
,
1003
0100
1000
0100
,
1000
0000
0100
0000
,
0010
0001
0010
0001
,
0010
0000
0001
0000
,
1000
0001
1000
0000
,
0001
0100
0001
0000
,
1000
0010
1000
0100
,
1000
0000
1000
0001
0000
0001
1000
0000
,
0000
0010
0000
0000
1000
0000
0010
0000
,
0000
0000
0100
0001
,
0000
0010
0000
0000
0100
0000
1000
0000
,
0000
0001
0000
1000
,
0000
0000
0010
0100
,
0000
0000
0001
0010
,
0000
0100
0000
0000
1000
0000
0100
0000
,
0000
1000
0000
0001
,
0000
0010
0000
0000
0100
0000
1000
0000
,
0000
0000
0010
1000
,
0000
0001
0000
0000
0100
0000
0010
0000
,
0000
1000
0000
0001
,
0000
0000
0100
0001
,
0000
0000
1000
0100
,
0000
0010
0000
0000
0001
0000
1000
0000
,
0001
0100
0010
1000
,
0010
0000
0010
0100
,
0001
0000
0001
0010
,
0100
0000
0100
1000
,
0010
0000
0000
0010
0000
0010
1000
0000
,
0010
0000
0010
0100
,
0001
0000
0001
0010
,
0100
0000
0100
1000
,
0001
0000
0000
0100
0000
0100
0010
0000
,
1000
0000
1000
0010
,
1000
0000
1000
0001
,
0100
0000
0100
0001
,
0010
0000
0010
0100
,
1000
0000
1000
0001
,
0010
0000
0010
0001
,
1000
0001
1000
0001
,
0001
1000
0000
1000
0000
0000
0000
0000
;
