#TITLE:Back On Track;
#SUBTITLE:;
#ARTIST:Evil Activities;
#TITLETRANSLIT:;
#SUBTITLETRANSLIT:;
#ARTISTTRANSLIT:;
#CRChallenge:;
#BANNER:track.jpg;
#BACKGROUND:track-bg.jpg;
#LYRICSPATH:;
#CDTITLE:!cdtitle.png;
#MUSIC:track.ogg;
#OFFSET:0.000;
#SAMPLESTART:44.740;
#SAMPLELENGTH:12.000;
#SELECTABLE:YES;
#DISPLAYBPM:171.000;
#BPMS:0.000=171.350,240.000=1.339,240.063=2.677;
#STOPS:96.000=5.252
,105.000=2.451
,134.000=1.050
,200.000=0.700
,202.000=0.700
,204.000=0.700
,206.000=0.700
,215.000=2.451
;
#BGCHANGES:;
#NOTES:
     dance-single:
     Renard:
     Hard:
     12:
     0.806,0.943,0.362,0.276,0.804:
0000
0000
0000
0000
,
0000
0000
0000
0000
,
0000
0000
0000
0000
,
0000
0000
0000
0000
,
0000
0000
0000
0000
,
0000
0000
0000
0000
,
0000
0000
0000
0000
,
0000
0000
0000
0000
,
1000
0000
1100
0000
1000
0100
0010
0001
,
0100
0000
0101
0000
0011
0011
0000
0011
,
0110
0000
1100
0000
1000
0010
0100
0001
,
1000
0000
1100
0000
1010
1010
0000
1010
,
1001
0000
1100
0000
1000
0100
0010
0001
,
1000
0000
0101
0000
0110
0110
0000
0010
,
1001
0110
1001
0110
1001
0110
1001
0110
,
2002
0000
0000
0000
0000
0000
0000
3003
,
0001
0100
0001
0100
0001
0100
0001
0100
0001
0100
0001
0100
0001
0100
0001
0100
,
0001
0100
0001
0100
0001
0100
0001
0100
0001
0100
0010
2000
0200
0000
3300
0000
,
0100
1000
0100
1000
0100
1000
0100
1000
0100
1000
0100
1000
0100
1000
0100
1000
,
0100
1000
0100
1000
0100
1000
0100
1000
0010
0100
0001
0020
0002
0000
0033
0000
,
0001
0010
0001
0010
0001
0010
0001
0010
0001
0010
0001
0010
0001
0010
0001
0010
,
0001
0010
0001
0010
0001
0010
0001
0010
0100
1000
0010
2000
0020
0000
3030
0000
,
1000
0010
1000
0010
1000
0010
1000
0010
1000
0010
1000
0010
1000
0010
1000
0010
,
1000
0010
1000
0010
1000
0010
1000
0010
0100
0001
0010
0002
2000
0000
3003
0000
,
2002
3003
0000
0000
0000
0000
0000
0000
0000
0000
0000
0000
0110
0000
0000
0000
0000
0000
1001
0000
0000
0000
0000
0000
0110
0000
0000
0000
0000
0000
1001
0000
0000
0000
0000
0000
0110
0000
0000
0000
0000
0000
1001
0000
0000
0000
0000
0000
,
0110
0000
1001
0000
0010
0100
0010
0100
0001
1000
0001
1000
0010
0100
0010
0100
,
0001
0000
0000
0000
1000
0000
0000
0000
0001
0000
0000
0000
1000
0000
0000
0000
0002
0003
0000
0000
0000
0000
0000
0000
0000
0000
0000
0000
0000
0000
0000
0000
1000
0000
0000
0000
0001
0000
0000
0000
1000
0000
0000
0000
0001
0000
0000
0000
1000
0000
0000
0000
0001
0000
0000
0000
1000
0000
0000
0000
0001
0000
0000
0000
,
1000
0001
1000
0001
1000
0001
1000
0001
1000
0001
1000
0001
1000
0001
1000
0001
,
1000
0100
0010
0002
2000
0000
3003
0000
0001
1000
0001
1000
0001
1000
0001
1000
,
0001
1000
0001
1000
0001
1000
0001
1000
0001
1000
0001
1000
0001
1000
0001
1000
,
0001
0010
0100
2000
0002
0000
3003
0000
0100
0010
0100
0010
0100
0010
0100
0010
,
0100
0010
0100
0010
0100
0010
0100
0010
0100
0010
0100
0010
0100
0010
0100
0010
,
0100
0001
0010
0200
2000
0000
3300
0000
1000
0100
2000
0000
3100
0000
0000
0000
,
0011
0000
0000
0000
0000
0000
0000
0000
1021
0030
0000
0000
0001
0000
0100
0000
,
0010
0100
1000
0100
0010
0100
0001
0010
,
0100
0010
1000
0010
0100
0010
0001
1000
,
0010
0100
0001
0100
1000
0100
0010
1000
,
0100
0010
0001
0010
0100
1000
0010
0100
,
1000
0100
0010
0100
0001
0010
0100
0010
,
1000
0010
0100
0010
0001
1000
0010
0100
,
0001
0010
0100
1000
0001
0100
0010
0000
,
0010
0000
1000
0000
0100
0000
0000
0010
0001
0000
0000
0010
0100
0000
1000
0000
,
0010
0100
0001
0100
0010
1000
0001
0000
,
1000
0000
0100
0000
0010
0000
0001
0000
1000
0000
0000
1000
0010
0000
0100
0000
,
0001
0010
0100
1000
0001
0100
0010
0000
,
0010
0000
1000
0000
0100
0000
0000
0100
0010
0000
0000
0010
0001
0000
1000
0000
,
0010
0100
0001
0100
0010
0010
0010
0000
,
1000
0000
0100
0000
0010
0000
0001
0000
1000
0000
0000
1000
0001
0000
0100
0000
,
0010
1000
0100
0010
0010
0001
1000
0000
,
0010
0000
0100
0000
0001
0000
0001
0000
1000
0000
1000
0000
0001
1000
0001
1000
,
0001
0000
MMMM
0000
1000
0001
1000
0001
1000
0000
MMMM
0000
0010
0100
0010
0100
,
0010
0000
MMMM
0000
1000
0001
1000
0001
1000
0000
MMMM
0000
0001
0100
0001
0100
,
0001
0000
0000
0000
0001
0000
0000
0000
0001
0000
0000
0000
1000
0100
1000
0100
,
1000
0000
0000
1000
0100
0010
0001
0000
0000
1001
0000
0000
,
0001
0100
0001
0100
0001
0100
0001
0100
0010
1000
0010
1000
0010
1000
0010
1000
,
0001
0100
0001
0100
0001
0100
0001
0100
0010
1000
0001
0200
0020
0000
0330
0000
,
1000
0100
1000
0100
1000
0100
1000
0100
0010
0001
0010
0001
0010
0001
0010
0001
,
1000
0100
1000
0100
1000
0100
1000
0100
0010
0001
1000
0002
2000
0000
3003
0000
,
1000
0010
1000
0010
1000
0010
1000
0010
0100
0001
0100
0001
0100
0001
0100
0001
,
1000
0010
1000
0010
1000
0010
1000
0010
0100
0001
1000
0020
0200
0000
0330
0000
,
2002
3003
0000
0000
0000
0000
0000
0000
0000
0000
0000
0000
0000
0000
0000
0000
0000
0000
0000
0000
0000
0000
0000
0000
0000
0000
0000
0000
0000
0000
0000
0000
0000
0000
0000
0000
0000
0000
0000
0000
0000
0000
0000
0000
0000
0000
0000
0000
0000
0000
0000
0000
0000
0000
0000
0000
0000
0000
0000
0000
0000
0000
0000
0000
;
#NOTES:
     dance-single:
     pyroko:
     Medium:
     10:
     0.539,0.600,0.095,0.029,0.257:
0000
0000
0000
0000
,
0000
0000
0000
0000
,
0000
0000
0000
0000
,
0000
0000
0000
0000
,
0000
0000
0000
0000
,
0000
0000
0000
0000
,
0000
0000
0000
0000
,
0000
0000
0000
0000
,
1000
0100
0010
0100
,
1000
0000
0100
0000
0010
0010
0000
0001
,
1001
0001
0100
0010
,
0100
0000
0010
0000
1000
1100
0000
0100
,
0110
0100
1000
0001
,
0100
0000
0001
0000
0010
0011
0000
0001
,
0101
0000
0001
0000
0001
0000
0001
0000
0001
1000
0001
0000
1000
0000
1000
0000
,
0002
0000
0000
0000
0000
0000
0000
0003
,
1000
0100
0010
0100
1000
0100
0010
0001
,
1000
0000
0001
0000
0100
0000
0010
0000
0100
0010
0100
0010
0100
0010
0100
0000
,
0010
1000
0100
0010
0100
1000
0001
0010
,
0001
0000
0100
0000
0010
0000
0100
0000
0001
0010
0001
0010
0001
0010
0001
0010
,
0001
0010
0001
1000
0010
0100
0010
1000
,
0010
0000
1000
0000
0100
0000
0010
0000
0100
0010
0100
0010
0100
0010
0100
0010
,
0001
1000
0001
0100
0010
0100
0010
1000
,
0100
0010
0100
1000
0100
0010
0001
1000
,
0110
0000
1000
0100
,
0010
0000
0100
0000
1000
0000
0100
0010
,
0100
1000
0101
0000
0100
0010
1000
0100
,
0010
0100
1000
0001
0010
0001
0100
0010
,
0100
0010
0100
0010
0100
0010
0100
0010
0100
0000
0010
0000
1000
0000
0100
0000
,
0010
0100
1000
0001
0010
0001
0100
0001
,
0100
0001
0100
0001
0100
0001
0100
0001
0100
0000
0001
0000
0010
0000
0100
0000
,
1000
0100
0010
0100
1000
0010
0100
0010
,
0100
0010
0100
0010
0100
0010
0100
0010
0100
0000
0010
0000
0100
0000
0001
0000
,
1000
0100
0010
0100
1100
0000
1000
0000
,
0100
0000
0010
0100
0010
0100
1000
0000
,
0001
0000
0000
0000
0010
0000
0001
0000
0100
0000
0000
0001
0010
0000
0000
0000
,
0001
0000
0100
0010
1000
0010
0100
0000
,
0010
0000
1000
0000
0100
0000
0000
0000
0010
0000
0000
0100
1000
0000
0000
0000
,
0100
0000
0010
0001
1000
0001
0100
0000
,
0010
0000
0000
0000
0100
0000
0010
0000
0100
0000
0000
0010
1000
0000
0000
0000
,
0010
0000
1000
0100
0010
0100
1000
0000
,
1000
0000
0001
0000
0010
0000
0000
0000
0010
0000
0000
0001
0100
0000
0000
0000
,
0001
0000
0010
0001
0100
0010
1000
0000
,
1000
0000
0000
0000
0010
0000
0100
0000
0010
0000
0000
0100
0001
0000
0000
0000
,
0010
0000
0001
1000
0100
0010
0100
0000
,
1000
0000
0010
0000
0100
0000
0000
0000
0010
0000
0000
1000
0100
0000
0000
0000
,
0010
0000
0100
1000
0100
0010
0001
0000
,
0100
0000
0000
0000
0010
0000
1000
0000
0010
0000
0000
0100
0010
0000
0000
0000
,
0100
0000
0010
1000
0100
0010
0100
0000
,
1000
0000
0100
0000
0010
0000
0000
0000
0001
0000
1000
0000
0001
0100
0001
0100
,
0001
0000
0000
0000
1000
0100
1000
0100
1000
0000
0000
0000
0010
0100
0010
0100
,
0010
0000
0000
0000
1000
0010
1000
0010
1000
0000
0000
0000
0100
0010
0100
0010
,
0100
0000
0000
0000
0010
0000
0000
0000
0100
0000
0000
0000
1000
0001
1000
0001
,
1000
0001
0100
0110
,
0100
0001
0100
0001
0010
0001
0010
0100
,
1000
0000
0100
0000
0010
0000
0100
0000
1000
0100
1000
0100
1000
0100
1000
0100
,
1000
0100
0010
0100
0010
0001
1000
0010
,
0100
0000
0010
0000
1000
0000
0100
0000
0010
0100
0010
0100
0010
0100
0010
0100
,
0010
0100
1000
0001
0100
0001
0010
0001
,
1000
0000
0010
0000
0100
0000
0010
0000
0100
0010
0100
0010
0100
0010
0100
0000
,
0220
0330
0000
0000
0000
0000
0000
0000
0000
0000
0000
0000
0000
0000
0000
0000
0000
0000
0000
0000
0000
0000
0000
0000
0000
0000
0000
0000
0000
0000
0000
0000
0000
0000
0000
0000
0000
0000
0000
0000
0000
0000
0000
0000
0000
0000
0000
0000
0000
0000
0000
0000
0000
0000
0000
0000
0000
0000
0000
0000
0000
0000
0000
0000
;
#NOTES:
     dance-single:
     pyroko:
     Easy:
     6:
     0.301,0.314,0.038,0.133,0.000:
0000
0000
0000
0000
,
0000
0000
0000
0000
,
0000
0000
0000
0000
,
0000
0000
0000
0000
,
0000
0000
0000
0000
,
0000
0000
0000
0000
,
0000
0000
0000
0000
,
0000
0000
0000
0000
,
1000
0000
0001
0000
,
0100
0000
0000
0000
0001
0001
0000
0000
,
0010
0100
1000
0100
,
0010
0000
0100
0000
1000
1000
0000
0000
,
0100
0010
0100
0010
,
0001
0000
1000
0000
0001
0001
0000
0000
,
0100
0001
0100
0001
,
2002
0000
0000
3003
,
0010
0010
0100
0100
,
1000
0000
1000
0000
0001
0100
0001
0000
,
0010
0010
0001
0001
,
1000
0000
1000
0000
0010
0100
0010
0000
,
0100
0100
0001
0001
,
0010
0000
0010
0000
0100
1000
0100
0000
,
1000
1000
0100
0100
,
0010
0000
0010
0000
0001
0010
0001
0010
,
0001
0001
0001
0001
,
0001
1000
1000
1000
,
1000
1100
1000
0100
,
0010
0100
0010
0001
,
1000
0001
1000
0000
0001
0000
0001
0000
,
0100
0100
0010
0010
,
1000
0010
1000
0000
0010
0000
0100
0000
,
0010
0100
0010
0100
,
0001
0100
0001
0000
1000
0000
0100
0000
,
0010
0100
1001
0100
,
0100
0010
0010
2000
,
3000
0100
0100
0020
,
0030
0001
0001
2000
,
3000
0020
0030
0100
,
0001
0010
0010
0200
,
0300
1000
0001
0200
,
0300
0010
0100
0020
,
0030
2000
3000
0001
,
0010
0001
1000
0010
,
0010
0100
0001
0010
,
0010
0100
1000
0100
,
0100
0010
0001
1000
,
0001
0100
0001
0010
,
0100
1000
0100
0010
,
0100
1000
0100
0020
,
0000
0032
0000
1003
,
1000
0001
0001
0100
,
0100
0010
0010
1000
,
1000
0100
0100
0010
,
0010
0002
0003
1001
,
0100
0100
0010
0010
,
1000
0000
1000
0000
0001
0010
0001
0000
,
0010
0010
0100
0100
,
1000
0000
1000
0000
0100
1000
0100
0000
,
0010
0010
0001
0001
,
1000
0000
1000
0000
0010
0100
0010
0000
,
0200
0300
0000
0000
0000
0000
0000
0000
0000
0000
0000
0000
0000
0000
0000
0000
0000
0000
0000
0000
0000
0000
0000
0000
0000
0000
0000
0000
0000
0000
0000
0000
0000
0000
0000
0000
0000
0000
0000
0000
0000
0000
0000
0000
0000
0000
0000
0000
0000
0000
0000
0000
0000
0000
0000
0000
0000
0000
0000
0000
0000
0000
0000
0000
;
#NOTES:
     dance-single:
     pyroko:
     Beginner:
     2:
     0.214,0.343,0.124,0.257,0.000:
0000
0000
0000
0000
,
0000
0000
0000
0000
,
0000
0000
0000
0000
,
0000
0000
0000
0000
,
0000
0000
0000
0000
,
0000
0000
0000
0000
,
0000
0000
0000
0000
,
0000
0000
0000
0000
,
1000
0000
0000
0000
,
0100
0000
0000
0000
,
0010
0000
0000
0000
,
0001
0000
0000
0000
,
1000
0000
0000
0000
,
0010
0000
0000
0000
,
0100
0001
0010
0001
,
2002
0000
0000
3003
,
0100
0001
0010
0000
,
0001
0000
0010
0100
,
1000
0100
1000
0000
,
0010
0000
0100
0001
,
0010
0001
0010
0000
,
0001
0000
1000
0001
,
1000
0001
0100
0000
,
0220
0330
0010
0000
1000
0000
0100
0000
,
0110
0000
0000
0000
,
0000
0000
0000
0000
,
0000
1001
1000
0000
,
0100
0000
0010
0000
,
0001
0010
0001
0001
,
1000
0000
0010
0100
,
0010
0000
1000
0000
,
0100
0000
0010
0000
,
0001
1000
0002
0000
,
0003
0000
0110
0200
,
0000
0320
0000
2030
,
0000
3200
0000
0320
,
0000
0032
0000
2003
,
0000
3002
0000
0203
,
0000
0320
0000
2030
,
0000
3200
0000
0320
,
0000
0032
0000
1003
,
0001
0100
0001
0011
,
0001
0000
0000
1010
,
0010
0000
0000
0110
,
0010
0000
0000
1001
,
0001
0000
0000
0110
,
0100
0000
0000
0110
,
0010
0000
0000
1001
,
0001
1000
0000
0001
,
0100
0001
0100
0002
,
0003
2000
3000
0020
,
0030
0200
0300
0020
,
0030
0200
0300
0002
,
0003
0000
0000
1001
,
0100
0000
0010
0000
,
0001
0000
1000
0001
,
0100
0000
0010
0000
,
0100
0000
0001
0010
,
0001
0000
0010
0000
,
0100
0000
1000
0100
,
2000
3000
0000
0000
0000
0000
0000
0000
0000
0000
0000
0000
0000
0000
0000
0000
0000
0000
0000
0000
0000
0000
0000
0000
0000
0000
0000
0000
0000
0000
0000
0000
0000
0000
0000
0000
0000
0000
0000
0000
0000
0000
0000
0000
0000
0000
0000
0000
0000
0000
0000
0000
0000
0000
0000
0000
0000
0000
0000
0000
0000
0000
0000
0000
;
