#TITLE:Awesome Powers;
#SUBTITLE:;
#ARTIST:The Thong Mover;
#TITLETRANSLIT:;
#SUBTITLETRANSLIT:;
#ARTISTTRANSLIT:;
#CRChallenge:;
#BANNER:thong.png;
#BACKGROUND:thong-bg.png;
#LYRICSPATH:;
#CDTITLE:;
#MUSIC:thong.ogg;
#OFFSET:0.000;
#SAMPLESTART:11.520;
#SAMPLELENGTH:12.000;
#SELECTABLE:YES;
#BPMS:0.000=250.000;
#STOPS:;
#BGCHANGES:;
#NOTES:
     dance-single:
     Renard:
     Medium:
     9:
     0.693,0.721,0.155,0.041,0.000:
0000
0000
0000
0000
,
0000
0000
0000
0000
,
0000
0000
0000
0000
,
0000
0000
0000
0000
,
0000
0000
0000
0000
,
0000
0000
0000
0000
,
0000
0000
0000
0000
,
0000
0000
0000
0000
,
0000
0000
0000
0000
,
0000
0000
0000
0000
,
0000
0000
0000
0000
,
0000
0000
0000
0000
,
0001
0100
0000
0000
0000
0001
1000
0100
,
0010
0001
0000
0000
0000
0010
0100
1000
,
0001
0100
0000
0000
0000
0001
1000
0100
,
0010
0001
0000
0000
0000
0010
0100
1000
,
0001
0100
0000
0000
0000
0001
1000
0100
,
0010
0001
0000
0000
0010
0000
0100
0000
,
1000
0000
0001
0100
0000
0000
0110
0000
,
1001
0000
0000
0000
0000
1000
0100
0010
,
0001
0010
0000
0000
0000
0100
1000
0001
,
0100
0010
1000
0000
0001
1000
0100
0010
,
0001
0000
0000
0000
0000
0010
0100
1000
,
0001
0000
0100
0000
0010
1000
0100
0010
,
0001
0000
0000
0000
0000
0010
0100
1000
,
0001
0000
0100
0000
0010
1000
0010
0100
,
0001
0000
0000
0000
0000
0100
0010
1000
,
0100
0000
0010
0000
0001
0010
0100
1000
,
0001
0000
0100
0000
0010
1000
0100
0010
,
0001
0000
0010
0000
0100
1000
0001
0100
,
0010
0000
1000
0000
0100
0010
0001
1000
,
0100
0000
1000
0000
0001
0100
0010
1000
,
0100
0000
0010
0000
0001
0010
0100
1000
,
0001
0000
0100
0000
0010
1000
0100
0010
,
0001
0000
0010
0000
0100
1000
0001
0100
,
0010
0100
0001
1001
,
1000
0000
1000
0100
0010
0000
0010
0000
,
0001
0000
0001
0010
0100
0000
0100
0000
,
1000
0000
1000
0010
0100
0000
0100
0000
,
0001
0000
0001
0010
0100
0000
0100
0000
,
1000
0000
1000
0100
0010
0000
0010
0000
,
0001
0000
0001
0010
0100
0000
0100
0000
,
1000
0000
1000
0001
0100
0000
0100
0000
,
0001
0000
0001
1000
0100
0000
0100
0000
,
0010
0000
0001
1000
0001
0000
1000
0000
,
0010
0000
0100
0010
0100
0000
0010
0000
,
1000
0000
0100
1000
0100
0000
1000
0000
,
0001
0000
0010
0001
0010
0000
0001
0000
,
1000
0000
0010
1000
0010
0000
1000
0000
,
0001
0000
0100
0001
0100
0000
0001
0000
,
1000
0000
0100
0010
0001
0000
0010
0000
,
0100
0000
1000
0002
2000
0000
0000
3003
,
0001
0100
0001
0000
0100
0000
0010
1000
,
0000
0100
0010
0000
0010
0100
1000
0001
,
00M0
0100
1000
0000
0001
0010
0100
1000
,
0001
0010
0001
1000
0100
0000
0100
0000
,
1000
0010
1000
0000
0010
0000
0100
0001
,
0000
0010
0100
0000
0100
0010
0001
1000
,
0M00
0010
0001
0000
1000
0100
0010
0001
,
1000
0100
1000
0001
0010
0000
0010
0000
,
0001
1000
0100
0000
0010
0000
0001
0010
,
0000
0100
1000
0000
0001
0100
0010
1000
,
0000
0010
0100
0000
0001
0010
0100
1000
,
0001
0010
0100
2000
0001
0000
3001
0000
,
1000
0001
0010
0000
0100
0000
1000
0100
,
0000
0010
0001
0000
1000
0010
0100
0001
,
0000
0100
0010
0000
1000
0100
0010
0001
,
1000
1000
1000
1000
,
0001
0000
0001
0010
0000
0000
0110
0000
,
1100
0000
1000
0000
0100
0010
0001
0010
,
0001
0000
1000
0001
0000
0000
0101
0000
,
0101
0001
0100
0010
,
1000
0000
1000
0001
0000
0000
0110
0000
,
0110
0000
0010
0000
1000
0100
1000
0001
,
1000
0000
0001
0100
0000
0000
1001
0000
,
1100
1000
0100
0010
,
0001
0000
0001
1000
0000
0000
0010
0000
,
0100
0000
0001
0000
1000
0100
0010
0001
,
0010
0000
0100
1000
0000
0000
0001
0000
,
0001
0010
0100
1000
,
0001
0000
0001
0100
0000
0000
0110
0000
,
0110
0000
0010
1000
0100
0010
0001
0010
,
0100
0000
0100
1000
0000
0000
0101
0000
,
1001
0000
0000
0000
0000
1000
0001
0100
,
0010
0000
0000
0000
0000
1000
0010
0100
,
0001
0000
0000
0000
0000
0001
0100
0010
,
1000
0000
0000
0000
0000
1000
0010
0100
,
0001
0000
0000
0000
0000
0001
0010
0100
,
1000
0000
0000
0000
0000
1000
0100
0010
,
0001
0000
0000
0000
0000
0001
0010
0100
,
1000
0000
0000
0000
0000
1000
0100
0010
,
0001
0000
0000
0000
0000
1000
0010
0100
,
0001
0000
0100
0000
0100
0001
0100
0010
,
1000
0000
0100
0000
0100
1000
0100
0010
,
0001
0000
0100
0000
0100
0001
0010
0100
,
1000
0000
1000
0100
0010
0001
0100
0010
,
1000
0000
0100
0000
0100
1000
0100
0010
,
0001
0000
0100
0000
0100
0001
0010
0100
,
1000
0000
1000
0100
0010
0001
0100
0010
,
2000
0001
0001
3001
;
#NOTES:
     dance-single:
     Renard:
     Hard:
     10:
     0.855,0.875,0.599,0.031,0.000:
0000
0000
0000
0000
,
0000
0000
0000
0000
,
0000
0000
0000
0000
,
0000
0000
0000
0000
,
0000
0000
0000
0000
,
0000
0000
0000
0000
,
0000
0000
0000
0000
,
0000
0000
0000
0000
,
0000
0000
0000
0000
,
0000
0000
0000
0000
,
0000
0000
0000
0000
,
0000
0000
0000
0000
,
1000
0001
1000
0000
0010
0100
0001
0010
,
0100
0010
0100
0000
0010
0001
1000
0010
,
0100
0001
0100
0000
0100
0001
1000
0010
,
0100
0001
0100
0000
0001
0010
0100
1000
,
0001
0000
0001
1000
0000
0000
0110
0000
,
0110
0000
1000
0100
0010
0001
1000
0010
,
0100
0000
0100
0010
0000
0000
1001
0000
,
0110
0000
0000
0000
0000
0010
1000
0001
,
0100
0010
1000
0000
0000
0100
0010
0001
,
0010
0100
1000
0000
0000
0001
0010
0100
,
1000
0001
0100
0000
0000
0010
1000
0100
,
0010
0100
1000
0000
0000
0001
0010
0100
,
0010
0001
1000
0000
0000
0001
0100
0010
,
1000
0100
0010
0000
0000
0100
1000
0010
,
0100
0001
0100
0000
0000
0001
1000
0100
,
0010
0001
0010
0000
0000
0100
1000
0001
,
0100
0010
1000
0000
0000
0001
0100
0010
,
1000
0100
0010
0000
0000
0001
0010
0100
,
1000
0001
0100
0000
0000
0010
1000
0100
,
0010
0001
0010
0000
0000
0001
1000
0100
,
0010
0001
0010
0000
0000
0001
0010
0100
,
1000
0001
0100
0000
0000
0010
1000
0001
,
0100
0010
1000
0000
0000
0100
0010
0001
,
0010
0110
1001
0000
,
1001
0000
0010
0100
0001
0000
M11M
0000
,
M11M
0000
0100
1000
0010
0000
M11M
0000
,
M11M
0000
0100
0001
0010
0000
M11M
0000
,
M11M
0000
0100
1000
0010
0000
M11M
0000
,
1M1M
0000
1000
0010
0100
0000
M1M1
0000
,
M11M
0000
0100
0001
0010
0000
M11M
0000
,
MM11
0000
0010
0100
1000
0000
M1M1
0000
,
1M1M
0000
0001
1000
0100
0010
0001
0010
,
0100
0000
1000
0010
0100
0000
M1M1
0000
,
M11M
0000
0010
1000
0100
0000
11MM
0000
,
M11M
0000
0010
0001
0010
0000
M11M
0000
,
11MM
0000
1000
0100
0010
0000
MM11
0000
,
M11M
0000
0100
1000
0010
0000
1M1M
0000
,
M11M
0000
0100
0001
0010
0000
MM11
0000
,
M11M
0000
0010
0100
1000
0000
M11M
0000
,
1MM1
0000
0100
0020
0200
0000
0000
0330
,
0010
1000
0010
1000
0001
0100
0001
0100
,
0001
0010
0001
0010
0100
0010
0100
0010
,
0100
1000
0100
1000
0010
1000
0010
1000
,
0010
0100
0001
0010
0100
1000
0001
0100
,
0010
1000
0010
1000
0001
0100
0001
0100
,
0001
1000
0001
1000
0100
1000
0100
1000
,
0001
0010
0100
1000
0001
0010
0100
1000
,
0100
0010
0001
1000
0100
0010
0001
1000
,
0100
1000
0100
1000
0001
0010
0001
0010
,
0001
1000
0001
1000
0010
0100
0010
0100
,
0001
0100
0001
0100
0010
0100
0010
0100
,
0010
1000
0010
1000
0100
1000
0100
1000
,
0001
0010
0001
0010
0100
0010
0100
0010
,
0100
1000
0100
1000
0010
1000
0010
0100
,
0010
0100
0001
0000
1000
0100
0010
0002
,
0010
0010
0010
0013
,
0001
0010
0100
1000
0000
0000
0101
0000
,
1010
0000
1000
0100
0010
0001
1000
0010
,
0100
0000
0100
0001
0000
0000
1100
0000
,
0011
0000
0001
0010
0100
1000
0001
0100
,
0010
0000
0010
1000
0000
0000
0101
0000
,
1010
0000
1000
0100
0010
0001
0010
0100
,
1000
0000
1000
0001
0000
0000
0101
0000
,
1010
0000
1000
0000
0100
0010
0001
0010
,
0100
0000
0100
1000
0000
0000
1010
0000
,
0101
0000
1000
0100
0010
0001
0010
0100
,
1000
0000
1000
0001
0000
0000
0110
0000
,
1001
0000
1000
0000
0001
0100
0010
1000
,
0100
0000
0100
1000
0000
0000
0011
0000
,
1100
0000
1000
0010
0100
0001
0010
0100
,
1000
0000
1000
0001
0000
0000
1010
0000
,
0101
0000
0000
0000
0000
0001
1000
0100
,
0010
0001
0010
0000
0000
0100
1000
0001
,
0100
0010
0100
0000
0000
0010
1000
0100
,
0010
0001
0010
0000
0000
0001
0010
0100
,
1000
0100
1000
0000
0000
0001
1000
0010
,
0100
0010
0100
0000
0000
0001
0010
0001
,
0010
0100
0010
0000
0000
0100
1000
0010
,
1000
0010
0100
0000
0000
0001
0100
0010
,
1000
0100
0010
0000
0000
0001
0010
0100
,
1000
0001
0100
0000
0000
0001
1000
0100
,
0010
0001
1000
0000
0000
0001
1000
0010
,
0100
0001
0010
0000
0000
0100
1000
0010
,
0100
0001
0100
0000
0000
0010
1000
0100
,
0010
0000
0001
0010
0000
0000
0110
0000
,
0110
0000
0100
1000
0010
0100
0001
0010
,
0100
0000
0100
0010
0000
0000
0110
0000
,
1100
1001
0011
1001
;
#NOTES:
     dance-single:
     Renard:
     Easy:
     7:
     0.493,0.515,0.000,0.031,0.000:
0000
0000
0000
0000
,
0000
0000
0000
0000
,
0000
0000
0000
0000
,
0000
0000
0000
0000
,
0000
0000
0000
0000
,
0000
0000
0000
0000
,
0000
0000
0000
0000
,
0000
0000
0000
0000
,
0000
0000
0000
0000
,
0000
0000
0000
0000
,
0000
0000
0000
0000
,
0000
0000
0000
0000
,
1000
0000
0000
0000
0000
0000
0001
0100
,
0001
0000
0000
0000
0000
0000
1000
0100
,
1000
0000
0000
0000
0000
0000
0001
0010
,
0001
0000
0000
0000
0000
0000
1000
0010
,
1000
0001
0100
0010
,
1000
0100
0010
0001
,
1000
0001
0100
0010
,
1000
0000
0000
0000
0000
0000
0001
0100
,
0001
1000
0100
0010
,
0001
1000
0100
0010
,
0001
1000
0100
0010
,
0001
0010
0100
1000
,
0001
0010
0100
1000
,
0100
0010
0001
1000
,
0001
0010
0100
1000
,
0001
1000
0001
1000
,
0001
0100
0010
1000
,
0010
1000
0001
0100
,
0010
1000
0001
0100
,
0010
1000
0010
1000
,
0001
0100
0001
1000
,
0010
1000
0001
0100
,
0010
1000
0001
1000
,
0100
0100
1000
0000
,
0001
1000
0010
0010
,
0100
0001
0010
0010
,
0100
1000
0010
0010
,
0100
0001
1000
1000
,
0100
0010
0001
0001
,
0010
0100
1000
1000
,
0001
0010
0001
0001
,
1000
0010
0200
0000
,
0301
0000
1000
0100
1000
0000
0100
0000
,
1000
0001
1000
0001
,
0100
0000
0001
0100
0001
0000
0100
0000
,
0001
0010
0001
0010
,
0100
0000
1000
0100
1000
0000
0100
0000
,
1000
0010
0100
0001
,
1000
0000
0010
1000
0010
0000
1000
0000
,
0002
0000
0203
0000
,
0301
1000
0100
1000
,
0001
1000
0100
1000
,
0001
1000
0100
1000
,
0001
1000
0001
1000
,
0001
1000
0001
0100
,
0001
1000
0001
0100
,
0001
1000
0001
0100
,
0001
1000
0001
0000
,
0100
0010
0100
0010
,
0100
0001
0100
0001
,
0100
0010
0100
0010
,
0100
0001
0100
0001
,
1000
0100
1000
0100
,
1000
0010
1000
0010
,
1000
0001
1000
0001
,
0100
0100
0100
0100
,
0010
0000
0010
1000
0000
0000
0010
0000
,
0100
0001
1000
0100
,
0010
0000
0010
0001
0000
0000
1000
0000
,
0100
0010
0001
1000
,
0010
0000
0010
0100
0000
0000
0001
0000
,
0010
0100
1000
0001
,
0100
0000
0100
0010
0000
0000
1000
0000
,
0010
0100
0001
1000
,
0100
0000
0100
0010
0000
0000
0001
0000
,
0010
0100
1000
0001
,
0100
0000
0100
0010
0000
0000
1000
0000
,
0001
0100
0010
1000
,
0100
0000
0100
0010
0000
0000
0001
0000
,
0010
0100
1000
0001
,
0100
0000
0100
0010
0000
0000
1000
0000
,
0100
0000
0000
0010
,
0001
0010
0000
0000
0000
0000
0100
0000
,
1000
0010
0000
0000
0000
0000
0100
0000
,
0001
1000
0000
0000
0000
0000
0001
0000
,
0010
0100
0000
0000
0000
0000
1000
0000
,
0010
0100
0000
0000
0000
0000
0001
0000
,
1000
0100
0000
0000
0000
0000
0010
0000
,
0001
0010
0000
0000
0000
0000
0100
0000
,
1000
0001
0000
0000
0000
0000
0100
0000
,
0010
1000
0000
0000
0000
0000
0001
0000
,
0100
0001
0000
0000
0000
0000
0010
0000
,
0100
1000
0000
0000
0000
0000
0001
0000
,
0010
0001
0000
0000
0000
0000
1000
0000
,
0010
0100
0000
0000
0000
0000
0001
0000
,
0010
0100
0000
0000
1000
0000
0010
0000
,
0100
0000
0100
0001
0000
0000
1000
0000
,
0100
0100
0100
0100
;
#NOTES:
     dance-single:
     Renard:
     Beginner:
     4:
     0.354,0.412,0.000,0.052,0.000:
0000
0000
0000
0000
,
0000
0000
0000
0000
,
0000
0000
0000
0000
,
0000
0000
0000
0000
,
0000
0000
0000
0000
,
0000
0000
0000
0000
,
0000
0000
0000
0000
,
0000
0000
0000
0000
,
0000
0000
0000
0000
,
0000
0000
0000
0000
,
0000
0000
0000
0000
,
0000
0000
0000
1000
,
0001
0000
0000
1000
,
0001
0000
0000
0100
,
0010
0000
0000
0100
,
0010
0000
0000
1000
,
0010
0000
0000
0100
,
0001
0000
0000
1000
,
0100
0000
0000
0010
,
0002
0000
0000
1003
,
0100
1000
0100
0000
,
0010
0001
0010
0000
,
0001
0100
0001
0000
,
1000
0010
1000
0000
,
0001
1000
0001
0000
,
0100
0010
0100
0000
,
0010
1000
0010
0000
,
0100
0001
0100
0000
,
0001
1000
0001
0000
,
0010
0100
0010
0000
,
1000
0001
1000
0000
,
0010
0100
0010
0000
,
1000
0001
1000
0000
,
0001
0010
0001
0000
,
0010
0100
0010
0100
,
2000
0000
0000
0000
,
3001
0001
0001
0001
,
0001
0001
0001
0000
,
1000
1000
1000
1000
,
1000
1000
1000
0000
,
0010
0010
0010
0010
,
0010
0010
0010
0000
,
0100
0100
0100
0100
,
0100
0100
0100
0000
,
0001
1000
0001
1000
,
0001
1000
0001
0000
,
0100
0010
0100
0010
,
0100
0010
0100
0000
,
0001
1000
0001
0000
,
1000
0001
1000
0000
,
0010
0100
0010
0100
,
0020
0000
0000
0000
,
1030
0000
1000
0100
,
0010
0000
0010
0000
,
0001
0000
0001
0010
,
0100
0000
0100
0000
,
1000
0000
1000
0100
,
0010
0000
0010
0000
,
0001
0000
0001
0010
,
0100
0000
0100
0000
,
1000
0000
1000
0100
,
0010
0000
0010
0000
,
0001
0000
0001
0010
,
0100
0000
0100
0000
,
1000
0000
1000
0100
,
0010
0000
0010
0000
,
0001
0000
0001
0010
,
0200
0000
0000
0000
,
1300
0000
1000
0001
,
0100
0000
0001
0000
,
0010
0000
0100
1000
,
0001
0000
0010
0001
,
1000
0000
0010
0100
,
0001
0000
0100
0000
,
0001
0000
1000
0100
,
0010
0000
0001
0010
,
0100
0000
1000
0000
,
0001
0000
0100
0001
,
0100
0000
0010
0000
,
1000
0000
0100
0010
,
0001
0000
0010
0000
,
0100
0000
1000
0001
,
0100
0000
0010
0000
,
2000
0000
0000
0000
,
3100
0000
0100
0010
,
0001
0000
0000
0001
,
0010
0000
0100
1000
,
0100
0000
0000
1000
,
0010
0000
0100
0001
,
0100
0000
0000
0001
,
0010
0000
0100
1000
,
0001
0000
0000
0100
,
0010
0000
1000
0010
,
1000
0000
0000
0001
,
0100
0000
0000
0001
,
0010
0000
0000
0100
,
1000
0000
0000
0001
,
0100
0000
0000
0010
,
1000
0000
0000
0001
,
0100
0100
0100
0100
;
