#TITLE:Atmosphere;
#SUBTITLE:;
#ARTIST:Cosmo Nova;
#TITLETRANSLIT:;
#SUBTITLETRANSLIT:;
#ARTISTTRANSLIT:;
#CRChallenge:;
#BANNER:atmosphere-banner.avi;
#BACKGROUND:atmosphere-bg.png;
#LYRICSPATH:;
#CDTITLE:!cdtitle.png;
#MUSIC:atmosphere.ogg;
#OFFSET:0.000;
#SAMPLESTART:60.168;
#SAMPLELENGTH:12.000;
#SELECTABLE:YES;
#DISPLAYBPM:74.000:147.000;
#BPMS:0.000=73.744,34.000=147.488,36.500=294.976,37.500=147.488;
#STOPS:37.500=0.203
;
#BGCHANGES:;
#NOTES:
     dance-single:
     Renard:
     Hard:
     11:
     0.739,0.961,0.494,0.442,0.797:
0000
0000
0000
0000
,
2000
0000
3200
0320
,
0032
0000
2003
0000
,
3002
0000
0203
0320
,
2030
0000
0000
0000
0002
0000
0000
3003
,
1001
0000
0000
0001
0010
0100
1000
0000
0000
1000
0100
0010
0001
0000
0000
1000
0100
0010
0001
0010
0100
1000
0001
0100
,
0010
0000
0000
0010
1000
0100
0010
0000
0000
0010
0001
0100
0010
0000
0000
0010
1000
0100
0010
0001
0010
0100
1000
0001
,
0100
0000
0000
0100
0001
0010
0100
0000
0000
0100
1000
0010
0100
0000
0000
0100
0010
1000
0100
0010
0001
0010
0100
1000
,
0001
0000
0000
1000
0100
0010
0001
0000
0000
0001
0010
0100
1000
0000
0000
0000
0000
0000
0000
0000
0000
0000
0000
0000
,
0002
0000
0000
MM03
1100
0000
1010
0000
,
0110
0000
0102
0010
1003
0000
1001
0000
,
0101
0011
1001
1100
,
1010
0000
0210
0001
1300
0000
1100
0000
,
0110
0101
1100
0011
,
0110
0000
0201
1000
0310
0000
0110
0000
,
1100
1001
0201
0310
,
2010
3100
1001
111M
,
M111
0000
1M11
0000
20M2
0M00
00M0
0M00
,
00M0
0M00
00M0
0M00
30M0
M000
0M00
00M0
,
M203
00M0
M320
000M
2M30
000M
00M0
0M00
,
00M0
000M
0M00
00M0
0M00
000M
00M0
000M
,
32M0
000M
M000
00M0
032M
M000
0M00
000M
,
M000
0M00
M000
000M
0M00
000M
M000
0M00
,
M032
00M0
2M03
000M
3M20
000M
M000
0M00
,
M230
000M
00M0
000M
M302
00M0
0M00
00M0
,
2M03
00M0
0M00
000M
32M0
000M
M320
0M00
,
M032
00M0
0M23
M000
023M
00M0
230M
0M00
,
32M0
000M
M320
0M30
20M2
0M00
00M0
0M00
,
00M0
0000
0M00
0000
30M3
0000
0000
0000
0001
0010
0100
1000
0001
0100
0010
1000
,
0100
0010
0001
0010
0100
1000
0001
0100
0010
1000
0100
0010
0100
1000
0001
0100
,
0010
1000
0100
0010
0100
1000
0001
0010
0100
1000
0001
0100
0010
1000
0100
0010
,
0001
0010
0100
1000
0001
0100
0010
1000
0100
0010
0100
1000
0010
0100
0001
0010
,
0100
0010
0001
0100
0010
1000
0100
0010
0100
1000
0010
0100
0001
0010
0100
1000
,
0100
0010
0001
0100
0010
1000
0100
0010
0100
1000
0001
0010
0100
1000
0001
0100
,
0010
1000
0100
0010
0100
1000
0001
0010
0100
1000
0001
0100
0010
1000
0100
0010
,
0001
1000
0100
0010
0100
1000
0001
0010
0100
1000
0001
0010
0100
1000
0001
0100
,
0010
1000
0100
0010
0001
0010
0100
1000
0001
0010
0100
1000
0001
0100
0010
1000
,
0100
0010
0001
0010
0100
1000
0001
0100
0010
1000
0100
0010
0100
1000
0001
0100
,
0010
1000
0100
0010
0100
1000
0001
0010
0100
1000
0001
0100
0010
1000
0100
0010
,
0001
0010
0100
1000
0001
0100
0010
1000
0100
0010
0100
1000
0010
0100
0001
0010
,
0100
0010
0001
0100
0010
1000
0100
0010
0100
1000
0010
0100
0001
0010
0100
1000
,
0100
0010
0001
0100
0010
1000
0100
0010
0100
1000
0001
0010
0100
1000
0001
0100
,
0010
1000
0100
0010
0100
1000
0001
0010
0100
1000
0001
0100
0010
1000
0100
0010
,
0001
1000
0100
0010
0100
1000
0001
0010
0100
1000
0001
0010
0100
1000
0001
0100
,
0010
1000
0100
0010
0001
0010
0100
1000
0002
0000
0000
0000
0010
0000
1000
0000
,
0103
0000
0101
0000
2001
0000
0010
0100
,
3001
0000
1001
0000
1200
0000
1000
0010
,
0310
0000
0110
0000
0120
0000
0001
0100
,
0130
0000
0110
0000
2100
0000
0010
0001
,
3100
0000
1100
0000
1002
0000
0100
0010
,
1003
0000
1001
0000
0201
0000
0010
0310
,
0110
0000
1010
0000
1200
0000
0010
0310
,
0110
0000
0011
0000
1001
0001
0100
0010
,
1010
1000
0100
0010
1001
0010
1001
0010
,
1001
0100
1001
0100
20M2
0M00
00M0
0M00
,
0M00
00M0
00M0
0M00
30M0
M000
0M00
00M0
,
M203
0000
0000
0000
000M
0000
0000
0000
M320
0000
0000
0000
000M
0000
0000
0000
1M30
0000
0000
0000
0000
0000
M001
01M0
M001
0000
0000
0000
0000
0000
100M
01M0
,
100M
0000
0000
0000
0000
0000
M001
0M10
M001
0000
0000
0000
0000
0000
100M
0M10
100M
0000
0000
0000
0000
0000
M001
0M10
M001
0000
0000
0000
0000
0000
100M
01M0
,
100M
0000
0000
0000
0000
0000
0000
0000
0000
0000
0000
0000
0000
0000
0000
0000
0000
0000
0000
0000
0000
0000
0000
0000
0000
0000
0000
0000
0000
0000
0000
0000
0000
0000
0000
0000
M001
0000
0000
0000
0000
0000
01M0
0000
0000
0000
0000
0000
M001
0000
0000
0000
0000
0000
0000
0000
0000
0000
0000
0000
0000
0000
0000
0000
0000
0000
0000
0000
0000
0000
0000
0000
0000
0000
0000
0000
0000
0000
0000
0000
0000
0000
0000
0000
10M0
0000
0000
0000
0000
0000
0M01
0000
0000
0000
0000
0000
10M0
0000
0000
0000
0000
0000
0000
0000
0000
0000
0000
0000
0000
0000
0000
0000
0100
0000
0000
0000
0000
0000
0000
0000
0000
0000
0000
0000
0000
0000
0000
0000
0010
0000
0000
0000
0000
0000
0000
0000
0000
0000
0000
0000
0000
0000
0000
0000
0001
0000
0000
0000
0000
0000
0000
0000
0000
0000
0000
0000
0000
0000
0000
0000
0010
0000
0000
0000
0000
0000
0000
0000
0000
0000
0000
0000
0000
0000
0000
0000
0100
0000
0000
0000
0000
0000
0000
0000
0000
0000
0000
0000
0000
0000
0000
0000
,
1000
0001
0100
0010
0000
0000
111M
0000
0000
M111
0000
0000
,
1111
0000
0000
0000
;
#NOTES:
     dance-single:
     Renard:
     Medium:
     9:
     0.506,0.961,0.217,0.182,0.333:
0000
0000
0000
0000
,
0000
0000
0000
0000
,
0000
0000
0000
0000
,
0000
0000
0000
0000
,
0000
0000
0000
0000
,
1000
0000
0000
0001
0010
0100
1000
0000
0000
1000
0100
0010
0001
0000
0000
0001
0010
0100
1000
0001
1000
0001
1000
0001
,
1000
0000
0000
1000
0010
0100
0001
0000
0000
0001
0100
0010
1000
0000
0000
1000
0010
0100
0001
1000
0001
1000
0001
1000
,
0001
0000
0000
0001
0010
0100
1000
0000
0000
1000
0100
0010
0001
0000
0000
0001
1000
0010
0100
0001
1000
0100
0010
0001
,
1000
0000
0000
1000
0001
0010
0100
0000
0000
1000
0001
0100
0010
0000
0000
0000
0000
0000
0000
0000
0000
0000
0000
0000
,
0000
1001
0000
0000
0101
0000
0101
0000
,
0011
0000
0001
0010
0100
0000
1100
0000
,
1010
1010
0110
0110
,
0101
0000
0001
0100
0010
0000
0010
0000
,
1010
1100
0011
0011
,
0110
0000
0100
1000
0010
0000
0010
0000
,
0100
0100
0102
0000
,
0023
0000
0230
1300
,
1010
1001
0201
0000
,
0000
0000
0000
0000
,
0320
2030
3200
0000
,
0000
0000
0320
0000
,
0032
2003
3200
0000
,
0000
0000
0000
0000
,
0320
0032
2003
0000
,
0000
0000
0010
0000
,
0000
0000
0100
0000
,
0100
0000
3002
0023
,
0230
2300
3001
0000
,
0000
0000
0000
0000
0001
0010
0100
1000
,
0010
0000
0100
0010
0100
0000
0010
0000
1000
0000
0100
0000
0010
0000
0001
0000
,
0100
0000
0010
0100
0010
0000
0100
0000
0001
0000
0010
0000
0100
0000
1000
0000
,
0010
0000
0100
0010
0100
0000
0010
0000
1000
0000
0100
0000
0010
0000
0001
0000
,
0100
0000
0010
0100
0010
0000
0000
0000
1000
0000
0100
0000
0010
0000
0001
0000
,
1000
0000
0001
1000
0001
0000
1000
0000
0001
0000
0010
0000
0100
0000
1000
0000
,
0001
0000
1000
0001
1000
0000
0001
0000
0100
0000
0010
0000
1000
0000
0100
1000
,
0100
0000
1000
0100
1000
0000
0000
0000
0100
0000
1000
0000
0010
0000
0100
0001
,
0100
0000
0001
0100
0001
0000
0000
0000
0100
0000
0010
0000
1000
0000
0100
0000
,
0010
0000
0001
1000
0001
0000
1000
0000
0001
0000
0010
0000
0100
0000
1000
0000
,
0001
0000
1000
0001
1000
0000
0001
0000
0100
0000
0010
0000
1000
0000
0100
0000
,
0010
0000
0001
1000
0001
0000
1000
0000
0001
0000
0100
0000
0010
0000
1000
0000
,
0100
0000
1000
0001
1000
0000
0001
0000
1000
0000
0010
0000
0100
0000
0001
0000
,
0010
0000
0100
1000
0100
0000
1000
0000
0001
0000
0100
0000
0010
0000
1000
0000
,
0001
0000
0100
0001
0100
0000
0001
0000
0100
0000
0010
0000
1000
0000
0100
0000
,
0010
0001
0010
0000
1002
0000
0000
0000
,
0100
0000
0103
0000
0011
0000
0001
0010
,
0100
0000
1000
0100
1000
0000
0000
0000
0010
0000
0100
0000
0001
0000
0000
0000
,
1000
0100
0010
0000
0001
0000
0001
0010
,
0100
0000
1000
0100
1000
0000
0010
0000
0100
0000
0000
0000
0010
0000
1000
0000
,
0100
0000
0010
0001
1000
0000
1000
0010
,
0100
0000
0001
0100
0001
0000
0100
0000
0010
0000
0000
0000
0010
0000
1000
0000
,
0100
0000
0010
0001
0010
0000
0000
0000
0001
0000
0010
0001
0010
0000
0001
0000
,
0010
0000
0100
0010
0100
0000
0010
0000
0100
0000
1000
0100
1000
0000
0100
0000
,
1000
0000
0010
0000
0100
0000
0001
0000
1000
0001
1000
0000
0001
0100
0001
0000
,
1000
0100
1000
0000
0001
0100
0001
0000
1000
0000
0100
0000
0010
0000
0001
0000
,
1000
0101
2002
0000
,
0000
0000
0000
0000
,
0000
0000
0000
0000
0000
0000
3003
0000
0001
0000
0000
0001
0100
0000
0000
0100
,
0010
0000
0000
0010
1000
0000
0000
1000
0100
0000
0000
0100
0010
0000
0000
0010
,
0001
0000
0000
0000
0000
0000
0000
0000
0000
0001
0000
0000
0010
0000
0000
0000
0000
0000
0000
0000
0000
0010
0000
0000
0100
0000
0000
0000
1000
0000
0000
0000
0001
0000
0000
0000
0010
0000
0000
0000
0001
0000
0000
0000
1000
0000
0000
0000
,
0100
1000
0001
0010
0100
1000
0001
0000
0000
0110
0000
0000
,
1011
0000
0000
0000
;
#NOTES:
     dance-single:
     Renard:
     Easy:
     5:
     0.299,0.442,0.087,0.225,0.000:
0000
0000
0000
0000
,
0000
0000
0000
0000
,
0000
0000
0000
0000
,
0000
0000
0000
0000
,
0000
0000
0000
0000
,
2000
0000
3200
0320
,
0032
0000
0203
0000
,
0320
0000
2030
3200
,
0320
0000
0031
0000
,
0000
0000
0001
0010
,
0100
0000
1000
0100
0010
0000
0010
0000
,
0001
1000
0010
0010
,
0100
0000
0001
0100
0010
0000
1000
0000
,
1000
0010
0100
0100
,
0001
0000
0010
0100
1000
0000
0001
0000
,
0010
0001
0020
0000
,
0230
0000
1300
0011
,
1100
0011
2002
0000
,
0000
0000
0000
0000
,
0000
3000
0200
0000
,
0000
0000
0000
0000
,
0000
0300
0020
0000
,
0000
0000
0000
0000
,
0000
0030
2000
0000
,
0000
0003
0020
0000
,
0000
3000
0200
0030
,
0002
0300
0020
0003
,
0200
0000
0000
0030
2000
0000
0000
0000
,
0010
0000
3300
0000
0100
1000
0100
0000
,
1000
0000
0100
0000
0010
0001
0010
0000
,
0001
0100
0001
0000
0100
0010
0100
0000
,
0010
0000
1000
0000
0100
0010
0100
0000
,
0010
0000
0001
0000
1000
0010
1000
0000
,
0001
0000
0100
0000
0010
1000
0010
0000
,
0100
0001
0100
0000
0001
0010
0001
0000
,
0010
0000
0100
0000
1000
0100
1000
0000
,
0010
0000
0100
0000
0001
1000
0001
0000
,
1000
0000
0100
0000
0010
0001
0010
0000
,
0100
1000
0100
0000
1000
0010
1000
0000
,
0001
0000
0100
0000
0001
0010
0001
0000
,
0010
0000
0100
0000
1000
0001
1000
0000
,
0001
0000
0100
0000
0010
1000
0010
0000
,
0100
0001
0100
0000
0001
1000
0001
0000
,
1000
0000
0100
0000
0010
0001
0010
0000
,
0100
0000
1000
0000
0001
0000
0100
0010
,
0100
0010
1000
0100
,
0010
0000
0010
0000
0001
0000
1000
0010
,
1000
0010
0100
0001
,
0010
0000
0010
0000
0001
0000
0100
0001
,
0100
0010
1000
1000
,
0100
0000
0010
0000
0001
0000
0010
0001
,
0010
0000
0100
0000
1000
0000
0010
1000
,
0010
0000
1000
0000
0001
0100
0001
0000
,
0100
0010
0100
0000
0010
1000
0010
0000
,
1000
0100
2002
0000
,
0000
0000
0000
0000
,
0000
3003
0001
0101
,
0100
0110
0010
1010
,
1000
0000
1100
0000
1000
0100
0010
0001
,
0010
0100
1000
0001
0010
0000
2002
0000
,
3013
0000
0000
0000
;
#NOTES:
     dance-single:
     Renard:
     Beginner:
     2:
     0.346,0.391,0.000,1.000,0.000:
0000
0000
0000
0000
,
2000
0000
3200
0320
,
0032
0000
2003
0000
,
3020
0000
0230
0302
,
2003
0000
3200
0000
,
2300
0000
3002
0023
,
0032
0000
0203
0000
,
0320
0000
2030
3200
,
0320
0000
0032
0000
,
0000
0000
2003
3200
,
0320
0032
2003
0000
,
0000
3020
0230
0302
,
0023
0230
2300
0000
,
0000
3002
0203
0320
,
2030
3002
0023
0000
,
0000
0032
2003
0000
,
3020
0000
0200
0030
,
0002
0300
2000
0000
,
0000
0000
0000
0003
,
0200
3000
0020
0000
,
0000
0300
0002
0030
,
2000
0003
0020
0000
,
0000
3000
0200
0000
,
0000
0030
0002
0000
,
0000
0300
2000
0000
,
0003
0000
0200
3000
,
0020
0300
0032
2003
,
3020
0230
0302
0000
,
0000
0000
2003
0000
,
3200
0000
0320
0000
,
0032
2003
3020
0000
,
0230
0000
0302
0000
,
0000
0000
0023
0000
,
0230
0000
2300
0000
,
3002
0203
0320
0000
,
2030
0000
3002
0000
,
0023
0230
2300
0000
,
3002
0000
0203
0320
,
2030
3002
0023
0000
,
0000
0000
0230
0000
,
2300
3020
2030
0000
,
3002
0023
0230
2300
,
3002
0203
0320
0000
,
0230
0302
0023
0000
,
0230
2300
3002
0203
,
0320
2030
0002
0003
,
0200
0300
3002
0203
,
0320
2030
3200
0000
,
0020
0030
2300
3020
,
0230
0302
2000
3000
,
0200
0300
0203
0320
,
2030
0002
0003
0020
,
0030
3002
0000
0200
,
0300
0020
0030
2003
,
3200
0320
0002
0000
,
0000
0000
0000
0000
,
0000
0030
2000
0003
,
0020
3000
0200
0030
,
0002
0300
2003
3200
,
0320
0032
2003
0002
,
0020
3033
0000
0000
;
