#TITLE:Artificial Intelligence Bomb;
#SUBTITLE:;
#ARTIST:Naruto;
#TITLETRANSLIT:;
#SUBTITLETRANSLIT:;
#ARTISTTRANSLIT:;
#CRChallenge:;
#BANNER:;
#BACKGROUND:;
#LYRICSPATH:;
#CDTITLE:!cdtitle.png;
#MUSIC:bomb.ogg;
#OFFSET:0.000;
#SAMPLESTART:38.276;
#SAMPLELENGTH:12.000;
#SELECTABLE:YES;
#BPMS:0.000=150.250;
#STOPS:;
#BGCHANGES:;
#NOTES:
     dance-single:
     Renard:
     Hard:
     10:
     0.794,0.736,0.413,0.011,0.671:
0000
0000
0000
0000
,
0000
0000
0000
0000
,
0001
0000
1000
0100
0000
1000
0000
0001
0000
0000
0010
0000
0001
0000
1000
0000
,
0010
0000
1000
0001
0000
0100
0000
1001
0000
0000
0000
0000
0110
0000
0000
0000
,
0010
0000
1000
0010
1000
0000
0001
0000
0100
0000
0001
0000
0011
0000
0010
0000
,
0100
0000
1000
0100
1000
0000
0100
0000
1000
0000
0010
0000
1010
0000
0010
0000
,
0100
0000
0001
0100
0001
0000
0010
0000
0001
0000
0010
0000
0011
0000
0010
0000
,
0100
0000
1000
0010
0000
0100
0001
0000
0100
0000
0010
1000
0000
0100
1000
0000
,
0001
0000
1000
0000
0010
0000
1000
0100
1000
0000
0001
0000
0010
0000
0001
0000
,
1000
0000
0010
0000
0100
0000
0001
0100
0001
0000
0010
0000
0100
0000
1000
0001
,
1000
0000
0010
1000
0001
0000
1000
0100
1000
0000
0001
0010
0100
0000
1000
0000
,
0001
0000
0100
0000
0010
1000
0000
0010
0000
1000
0000
0001
0000
0000
1000
0000
,
0100
0000
0000
1000
0000
0000
0010
0000
0100
0000
0001
0000
0100
0001
0000
0000
,
1000
0000
0100
0000
0010
0000
0001
0000
0010
0000
0010
0100
0000
0100
1000
0000
,
0010
0000
0100
0001
0000
0000
0100
0000
0010
0000
1000
0000
0100
0000
0010
0000
,
0001
0000
0010
0100
0000
1000
0001
0000
0010
0000
0100
1000
0000
0001
0010
0000
,
0100
0000
1000
0000
0100
0000
1000
0100
1000
0000
0010
0000
1000
0000
0010
1000
,
0010
0000
0100
0000
0001
0000
0100
0001
0100
0000
0001
0000
0010
0000
0001
0010
,
0001
0010
0100
1000
0001
0100
0010
1000
,
0010
0000
1001
0000
0000
1100
0000
0000
1001
0000
0000
0000
0110
0000
0000
0000
,
0010
1000
0010
1000
0000
0000
0001
0000
0100
0000
0000
0001
0000
0000
0100
0000
,
0001
0000
0001
0010
0000
0010
0100
0000
1000
0000
0010
0000
0100
0000
0001
0000
,
1000
0000
0000
0100
0000
0000
1000
0000
0010
0000
0100
0000
0001
0000
0010
0000
,
0100
0100
0100
1000
1000
1000
0010
0000
0000
0200
0000
0000
,
0301
0000
0000
0100
0000
0010
0000
1000
0000
0000
0010
0000
1000
0000
0100
0000
,
1000
0000
0001
0010
0000
0000
0100
0000
1000
0000
0010
1000
0000
0000
0010
0000
,
0100
0000
0001
0100
0000
0000
0001
0000
1000
0000
0100
1000
0000
0000
0001
0000
,
1001
0110
1001
1100
,
0011
0000
0000
0101
0000
0000
1001
0000
0000
0000
0001
0100
0001
0000
0100
0000
,
0010
0000
0010
1000
0000
1000
0100
0000
1000
0000
0010
0000
0100
0000
0001
0000
,
1000
0000
0100
1000
0100
0000
1000
0001
1000
0000
0001
0100
0001
0000
0100
0000
,
0001
0000
0100
0000
0010
1000
0000
0100
1000
0000
0001
0010
0000
0100
1000
0000
,
1001
0000
0110
0000
0110
0000
0000
0000
1001
0000
0000
1100
0000
0000
0000
0000
,
1001
0000
0110
0000
0110
0000
0000
0000
1001
0000
0000
0101
0000
0000
0000
0000
,
0001
0000
0100
0001
0100
0000
0010
0000
1000
0000
0100
1000
0100
0000
1000
0000
,
0001
0000
1000
0100
0000
1000
0001
0000
1000
0000
0010
1000
0000
0100
1000
0000
,
0001
0000
0010
0000
0100
0000
1000
0100
1000
0000
0001
0100
0001
0000
0010
0001
,
0010
0000
0001
1000
0000
0010
1000
0000
0001
0000
1000
0100
0000
1000
0001
0000
,
1000
0000
0100
0000
1100
0000
0100
0000
1000
0001
0100
0000
1001
0000
0000
0000
,
0001
0000
0100
0000
0101
0000
0001
1000
0100
0000
1000
0000
1001
0000
0000
0000
,
1000
0000
0100
0000
1100
0000
0100
1000
0010
1000
0001
0000
1001
0000
0000
0000
,
1000
0100
1000
0000
0001
0000
0010
0001
1000
0001
1000
0000
1001
0000
1000
0000
,
0001
0000
0100
0001
0100
0000
0010
1000
0010
0000
1000
0100
0000
1000
0001
0000
,
0010
0000
0001
0000
1000
0000
0010
0000
1000
0001
1000
0100
1000
0000
0001
0000
,
1000
0000
0010
0000
0100
0000
0001
0000
0010
0000
0001
1000
0001
0000
0100
0000
,
0001
0010
0100
1000
0001
1000
1001
0000
,
1010
0000
0000
0000
1000
0000
0100
1000
0100
0000
1000
0000
0001
0000
0010
0000
,
0001
0000
1000
0001
0100
0001
0000
0001
0000
1000
0100
1000
0001
0000
1000
0000
,
0010
0000
1000
0001
1000
0000
0100
0000
1000
0000
0001
0010
0000
0001
1000
0000
,
0010
0000
1000
0001
0000
1000
0100
0000
1000
0000
0001
0000
1000
0000
0010
0000
,
1000
0010
1000
0010
1000
0000
0000
0000
0001
0000
0001
0100
0000
0100
0010
0000
,
1000
0000
1000
0100
0000
0100
1000
0000
0001
0000
0010
0000
0001
0010
0000
0000
,
0001
0000
0010
0100
0000
0000
1000
0000
0010
0000
1000
0000
0001
0000
0100
0000
,
0001
0100
0010
1000
0100
0010
1001
0000
0000
0000
0000
0000
;
#NOTES:
     dance-single:
     Renard:
     Medium:
     8:
     0.572,0.552,0.608,0.000,0.235:
0000
0000
0000
0000
,
0000
0000
0000
0000
,
1000
0000
0000
0001
0000
0100
0000
0010
0000
0000
1000
0000
0100
0000
0010
0000
,
0001
0000
0000
1000
0000
0010
0000
0100
0000
0000
0000
0000
1001
0000
0000
0000
,
1000
0000
0000
0100
0000
0000
0010
0000
0001
0000
1000
0000
0010
0000
0100
0000
,
0010
0000
0010
0000
1000
0000
0100
0000
0010
0000
0000
0001
0000
0000
0010
0000
,
0100
0000
0000
1000
0000
0000
0010
0000
0000
0000
0100
0000
0010
0000
0000
0000
,
1000
0000
0000
1010
0000
0000
0010
0000
0100
0000
0000
0110
0000
0000
0100
0000
,
0001
0000
0000
0000
0010
0000
0001
0000
1000
0000
0000
0100
0000
0000
0010
0000
,
0001
0000
1000
0010
0100
0000
0010
1000
,
0100
0000
0010
0001
1000
0010
0100
0001
,
0010
0100
1000
0001
0100
0010
1000
0000
,
0010
0000
1000
0100
0010
0000
0001
0100
,
0001
0000
0100
0010
1000
0000
0001
0010
,
0100
0000
1000
0100
0010
0000
0001
0000
,
1000
0000
0000
1010
0000
0000
0010
0000
0100
0000
0000
0101
0000
0000
0100
0000
,
0001
0000
0000
0000
0010
0000
0100
0000
1000
0000
0000
0100
0000
0000
1000
0000
,
0001
0000
0100
0010
1000
0000
0010
0100
,
0001
1000
0100
0010
,
0000
0000
0011
0000
0000
0110
0000
0000
1100
0000
0000
0000
1001
0000
0000
0000
,
1000
0000
1001
0000
0001
1000
0001
1000
,
0010
0000
0000
0010
0000
0000
0010
0000
0000
0000
0100
0000
0001
0000
0010
0000
,
0100
1000
0100
0010
0001
1000
0010
0100
,
0001
0100
0010
1000
0010
0100
0001
0000
0000
0100
0000
0000
,
0010
0000
0000
1000
0000
0100
0000
0010
0000
0000
0001
0000
1000
0000
0010
0000
,
0100
0000
0000
0010
0000
0000
1000
0000
0000
0000
0100
0000
0010
0000
0001
0000
,
1000
0000
0010
0000
0100
0000
0001
1000
,
0100
1100
0011
1001
,
0101
0000
0000
0110
0000
0000
1010
0000
0000
0000
1000
0000
0100
0000
0010
0000
,
0001
0000
0000
0011
0000
0000
0110
0000
0000
0000
0010
0000
0100
0000
1000
0000
,
0010
0110
0100
0101
,
0001
0000
1000
0000
0000
1100
0000
0000
1001
0000
0000
1010
0000
0000
1001
0000
,
1000
0000
0100
0000
0010
0000
0000
0000
0011
0000
0000
0110
0000
0000
0000
0000
,
0100
0000
1000
0000
0010
0000
0000
0000
0110
0000
0000
0101
0000
0000
0000
0000
,
0001
0000
0101
0000
0100
0010
1000
0000
,
0010
0000
1010
0000
1000
0100
0010
0001
,
1000
0000
1001
0000
0001
0100
0010
0000
,
1000
1001
0110
1001
,
1000
0000
1100
0000
0010
0001
0100
0000
,
0001
0000
1001
0000
1000
0100
0010
0000
,
0001
0000
1001
0000
0010
0100
0001
0000
,
0100
0010
1000
0100
0010
0000
1001
0000
,
1010
0000
0000
0000
0101
0000
0000
0000
0011
0000
0000
1100
0000
0000
1001
0000
,
0000
1000
0010
0100
0001
0000
0100
0000
,
0010
0000
1000
0100
0010
0000
0001
0010
,
0100
0000
1000
0010
0100
0001
0100
0010
,
1000
0000
1010
0000
1000
0010
0100
0001
,
0100
0000
0001
0100
0010
0000
1000
0100
,
0010
0000
0100
1000
0010
0100
0001
0010
,
0100
0110
1100
0011
,
1000
0000
0000
1100
0000
0000
0000
0000
0010
0000
0000
0011
0000
0000
0000
0000
,
1100
0000
0000
0011
0000
0000
1100
0000
0000
0000
1001
0000
0100
0010
0000
0000
,
1000
0000
0000
0010
0000
0000
0100
0000
0000
0000
0000
0000
0001
0000
0000
0000
,
0100
0001
0100
0010
1000
0010
1000
0000
0000
0000
0000
0000
;
#NOTES:
     dance-single:
     Renard:
     Easy:
     5:
     0.398,0.429,0.241,0.000,0.000:
0000
0000
0000
0000
,
0000
0000
0000
0000
,
0000
0000
0000
0000
,
0000
0000
0000
1001
,
0001
0000
0100
0000
0010
0000
1000
0010
,
1000
0100
0010
0010
,
0001
0001
1000
1000
,
0010
0100
0010
0000
1000
0001
1000
0000
,
0001
0010
0100
1000
,
0001
0000
0100
0000
0010
0000
1000
0010
,
1000
0000
0001
0100
0001
0000
1000
0000
,
0100
0000
0010
0000
0001
0010
0100
1000
,
0001
0001
0010
0010
,
0100
1000
0001
0100
,
0010
0010
1000
1000
,
0010
0100
0010
0000
1000
0010
1000
0000
,
0010
0000
0100
0001
,
0010
0000
0100
1000
,
0001
0010
0100
1000
,
0001
0100
0010
0000
,
1000
1010
0100
0101
,
0001
0011
0010
0110
,
0100
1100
1000
0010
,
1000
0010
1001
0000
,
0001
0000
0100
0000
0010
0000
1000
0100
,
1000
0000
0001
0000
0010
0000
0100
1000
,
0001
0000
0100
0000
0001
0000
0010
0001
,
0010
0100
1001
0110
,
0010
0000
1000
0000
0100
0000
0010
0001
,
0010
0000
0100
0000
1000
0000
0001
0100
,
0001
0000
0100
0010
0100
0000
0010
1000
,
0010
1000
0010
0100
,
0001
1000
0001
0000
0100
0000
0100
0000
,
0001
1000
0001
0000
0100
0000
0100
0000
,
0001
1001
1000
1001
,
0001
0000
1001
0000
0001
0100
0010
1000
,
0001
1001
1000
1001
,
0001
0000
1001
0000
0001
0100
0010
1000
,
0001
1001
1000
1001
,
1000
0000
1001
0000
0001
0000
0100
0010
,
1000
0000
1010
0000
0100
0001
0010
0000
,
0001
0010
0100
0000
0010
0100
1000
0000
,
0001
1000
0010
0100
,
0010
0000
1000
0000
0100
0010
0001
0010
,
0100
1000
0100
0010
,
0001
0000
0001
0000
0010
0000
0010
0100
,
1000
1000
0001
0100
,
0010
1000
0001
0001
,
0100
0010
1000
0100
,
0010
0010
0001
0010
,
0100
0000
0100
0000
,
1100
0000
0000
0011
0000
0000
0001
0000
,
0100
0000
0000
0010
0000
0000
1000
0000
,
0010
0000
0100
0001
1000
0000
0000
0000
;
#NOTES:
     dance-single:
     Renard:
     Beginner:
     3:
     0.257,0.399,0.103,0.115,0.000:
0000
0000
0000
0000
,
0000
0000
0000
0000
,
0000
0000
0000
0000
,
0000
0000
0000
1000
,
0001
0000
0100
0000
,
0010
0000
1000
0000
,
0200
0000
0000
0000
,
0310
0010
0010
0010
,
0001
0000
1000
0000
,
0010
0100
0001
0000
,
1000
0000
0001
0000
,
2000
0000
0000
0000
,
3001
0000
1000
0000
,
0010
0000
0100
0000
,
0001
1000
0200
0000
,
0320
0000
0000
0000
,
0031
0000
1000
0010
,
0200
0000
0301
0000
,
0010
0100
1000
0001
,
0000
0000
0000
1001
,
0001
0000
0100
0000
,
0010
1000
0010
0000
,
0100
0001
0010
0000
,
0100
1000
1001
0000
,
0002
0000
0103
0010
,
1000
0100
0010
0000
,
0002
0000
0013
0100
,
1000
1000
0001
0001
,
0100
0000
0010
1000
,
0100
0000
0010
0001
,
0010
0010
0100
0100
,
2000
0000
0000
0000
,
0001
0010
0010
0000
,
0001
0010
3010
0000
,
1000
0000
0010
0000
,
0100
0001
0100
0010
,
1000
0000
0100
0000
,
0010
0001
0010
1000
,
0010
0000
0100
0000
,
0010
0100
1000
0010
,
0100
0000
0010
0000
,
0100
0001
0010
0100
,
1000
1000
1000
0000
,
1000
0000
0001
0100
,
0010
0010
0010
0000
,
0010
0000
0100
0000
,
0001
0001
0001
0000
,
0010
0000
0001
0000
,
1000
0100
1000
0000
,
0100
0100
0100
0100
,
0010
0011
0010
0011
,
0010
0011
0010
0011
,
1000
1100
1000
1100
,
2002
0000
3013
0000
;
