#TITLE:April;
#SUBTITLE:;
#ARTIST:Emoticon & Kitsune?;
#TITLETRANSLIT:;
#SUBTITLETRANSLIT:;
#ARTISTTRANSLIT:;
#CRChallenge:;
#BANNER:april.png;
#BACKGROUND:april-bg.png;
#LYRICSPATH:;
#CDTITLE:;
#MUSIC:april.ogg;
#OFFSET:0.000;
#SAMPLESTART:23.273;
#SAMPLELENGTH:12.000;
#SELECTABLE:YES;
#BPMS:0.000=165.000;
#STOPS:;
#BGCHANGES:;
#NOTES:
     dance-single:
     Renard:
     Medium:
     7:
     0.515,0.498,0.198,0.021,0.000:
0000
0000
0000
0000
,
0000
0000
0000
0000
,
0000
0000
0000
0000
,
0000
0000
0000
0000
,
1000
0001
0000
0000
0100
0010
0000
0000
,
1000
0001
0000
0000
0100
0010
0000
0000
,
0010
0100
0000
0000
0001
1000
0000
0000
,
0010
0100
0000
0000
0001
1000
0100
0000
,
0010
0001
0010
0100
1000
0000
0001
0000
,
0100
0000
0010
0000
1000
0010
1000
0000
,
0001
0000
0100
0001
1000
0000
1100
0000
,
1000
0000
0001
0000
0010
0001
1000
0000
,
0001
0000
0100
0010
1000
0000
1010
0000
,
1001
0000
1000
0000
0100
0010
0001
0000
,
0010
0000
0100
1000
0001
0000
0101
0000
,
1001
0000
1000
0000
0100
0010
0100
0000
,
1000
0000
1000
0001
0100
0000
0100
0010
,
1000
0000
0010
0000
0100
0001
0100
0000
,
0010
0000
0010
1000
0100
0000
0100
0000
,
0010
0000
0010
0000
0001
0010
0100
0000
,
0100
0000
1000
0010
0100
0000
0100
0001
,
0010
0000
0010
0000
0001
0010
0100
0000
,
0100
0000
1000
0001
1000
0000
0001
0000
,
0100
0000
0010
1000
0001
0010
0100
0000
,
1000
0000
1000
0001
0100
0000
0100
0010
,
1000
1001
0110
1001
,
1000
0000
0100
0010
0001
0000
0010
0000
,
0100
1000
0001
0100
,
0010
0000
0010
0100
0001
0000
0001
1000
,
0100
0010
0001
0010
0100
1000
0001
0000
,
0100
0010
0000
1000
0010
0000
0100
0000
,
1001
0110
1001
0000
,
1000
0000
0100
0010
0001
0000
0010
0100
,
1000
0000
0001
0010
0100
0000
1000
0100
,
0010
0000
0001
0010
0100
0000
1000
0100
,
0010
0100
1000
0010
,
0100
0000
0001
0100
0010
0000
1000
0010
,
0100
0000
0001
0100
0010
0000
1000
0010
,
0100
0000
0010
1000
0001
0000
0100
0001
,
1000
0100
0010
1001
,
0001
0000
0100
0001
1000
0000
0100
1000
,
0001
0000
0100
0001
1000
0000
0100
1000
,
0001
0000
0010
0001
1000
0000
0010
1000
,
0001
0000
0010
0001
1000
0000
0010
1000
,
0001
0000
0100
0001
1000
0000
0100
1000
,
0001
0000
0010
0001
1000
0000
0010
1000
,
0001
0000
0100
0001
1000
0000
0100
1000
,
0001
0000
0010
0001
1000
0010
0100
0000
,
0001
0000
0001
0100
0010
0000
0010
1000
,
0100
0010
0001
0010
0100
1000
0001
0100
,
0010
0000
0010
1000
0100
0000
0100
0010
,
0001
0010
0100
1000
0010
0100
0001
0000
,
0100
0000
0100
0010
1000
0000
1000
0100
,
0010
0000
0010
0001
0100
0000
0100
0001
,
0010
0000
0010
0100
1000
0000
0010
0100
,
0001
0100
0010
1000
0100
0010
0001
0000
,
0010
0000
0010
0100
1000
0000
1000
0010
,
0100
0000
0100
0000
0001
0010
0100
0000
,
0010
0000
0010
0001
0100
0000
0100
0001
,
0010
0000
0011
0000
0010
0100
1000
0000
,
0101
0000
0010
1000
0100
0000
1100
0000
,
1001
1100
1001
1000
,
0100
0000
0010
0001
0010
0000
0100
0000
,
1000
0002
0200
1313
;
#NOTES:
     dance-single:
     Renard:
     Hard:
     10:
     0.782,0.731,0.532,0.021,0.287:
0000
0000
0000
0000
,
0000
0000
0000
0000
,
0000
0000
0000
0000
,
0000
0000
0000
0000
,
1000
0001
0000
0100
0001
1000
0000
0100
,
1000
0001
0000
0100
0001
1000
0000
0100
,
1000
0001
0000
0100
0001
1000
0000
0100
,
0010
0001
1000
0010
0100
0010
0110
0000
,
0010
0000
1000
0001
0100
0000
1001
0000
,
1100
0000
1000
0000
0100
0010
0001
0000
,
1001
0000
0001
0100
0010
0000
0110
0000
,
0101
0000
0101
0000
0001
0100
0010
0000
,
1010
0000
1000
0100
0010
0000
0011
0000
,
0110
0000
0100
0000
1000
0001
0100
0000
,
0110
0000
0010
1000
0001
0000
0101
0000
,
1001
0000
1001
0000
1000
0100
0010
0000
,
0010
0000
0001
0010
0100
0000
1000
0001
,
0100
0000
0010
0000
1000
0000
0100
0000
0010
0000
0001
0000
0010
0000
0100
1000
,
0100
0000
1000
0000
0001
0000
0100
0001
0100
0000
0001
0000
0010
0000
0100
0000
,
1000
0000
1000
0001
0100
0010
1000
0000
,
1010
0000
1000
0010
0100
0000
0001
0010
,
0100
0000
1000
0000
0001
0000
0100
0000
0010
0000
1000
0000
0001
0000
0100
0001
,
0100
0000
0001
0000
1000
0000
0100
1000
0100
0000
1000
0000
0001
0000
0010
0000
,
0100
1000
0010
0100
0001
1000
1001
0000
,
0101
0000
0001
0100
1100
0000
0100
0010
,
0110
0000
1000
0100
0010
0001
0010
0000
,
0110
0000
0100
1000
1100
0000
1000
0100
,
0101
0000
0100
0010
0001
0010
0100
0000
,
1100
0000
1000
0010
1010
0000
0010
0001
,
0011
0000
0010
0100
0001
0100
0010
0000
,
1010
0000
1000
0100
1100
0000
0100
0001
,
0101
0000
0110
1100
1001
0000
0000
0000
,
1000
0001
1000
0000
0010
0100
0010
0000
1000
0000
0100
0000
0010
0000
0001
0000
,
1000
0100
1000
0000
0001
0010
0001
0000
1000
0000
0010
0000
0100
0000
0001
0000
,
1000
0100
1000
0000
0001
0010
0001
0000
1000
0000
0010
0000
0100
0000
0001
0000
,
1000
0100
1000
0000
0001
0010
0001
0000
1000
0000
0001
0000
0100
0000
0010
0000
,
1000
0010
1000
0000
0001
0100
0001
0000
1000
0000
0100
0000
0010
0000
0001
0000
,
1000
0001
1000
0000
0010
0100
0010
0000
0100
0000
0001
0000
0010
0000
0100
0000
,
1000
0100
1000
0000
0001
0010
0001
0000
0100
0001
0100
0000
0010
1000
0010
0000
,
1000
0100
0010
0001
0010
1001
1001
0000
,
0001
0000
0100
0010
0100
0000
0010
0000
1000
0000
0100
1000
0100
0000
1000
0000
,
0001
0000
0010
0001
0010
0000
0001
0000
1000
0000
0010
0000
0100
0010
0100
0000
,
0010
0000
1000
0001
1000
0001
1000
0000
0010
0000
0100
0000
0001
0010
0001
0000
,
0010
0000
0100
1000
0100
0000
1000
0000
0001
0000
0100
0010
0100
0000
0000
0000
,
0010
0000
1000
0010
1000
0000
0010
0000
0100
0000
0001
0100
0001
0000
1000
0000
,
0100
0000
1000
0100
1000
0000
0001
0000
0010
0000
0001
0000
1000
0001
1000
0000
,
0001
0000
0100
0010
0100
0010
0100
0000
0010
0000
1000
0000
0010
0100
0010
0000
,
0100
0000
0001
0100
0001
0000
0100
0000
0001
0000
1000
0000
1001
0000
0000
0000
,
1000
0000
0100
0010
0001
0000
0010
0000
0100
0000
1000
0100
0010
0000
0100
0000
,
0010
0000
0001
0010
0100
0000
0010
0000
0100
0000
1000
0000
0001
0100
0001
0000
,
0100
0000
0010
1000
0001
0100
0010
0000
1000
0000
0100
0000
0010
0001
0010
0000
,
0100
0000
1000
0100
0010
0000
0001
0000
0010
0000
0100
1000
0001
0000
0000
0000
,
0100
0000
0010
1000
0010
0000
0100
0000
0001
0000
1000
0100
1000
0000
0100
0000
,
0010
0000
0001
0010
0100
0000
1000
0000
0001
0000
0100
0000
0010
1000
0001
0000
,
0100
0000
0010
1000
0001
0100
0010
0000
1000
0000
0100
0000
0010
0001
0010
0000
,
0100
0000
1000
0001
0100
0000
0010
0000
1000
0000
0001
0100
0010
0000
0000
0000
,
1010
0100
0001
0010
0011
0010
0110
0100
,
1100
1000
0010
0100
0001
1000
0010
1000
,
1100
0010
0001
0100
0110
1000
0101
0010
,
1001
1000
0100
0010
0001
1000
0010
0100
,
0101
0100
0010
1000
1100
0010
0011
0010
,
0110
0100
1000
0010
0100
0001
0100
0010
,
1010
0100
0001
0010
0110
0001
0110
1000
,
0010
0010
0010
0010
0202
0000
1313
0000
;
#NOTES:
     dance-single:
     Renard:
     Easy:
     6:
     0.421,0.432,0.135,0.021,0.000:
0000
0000
0000
0000
,
0000
0000
0000
0000
,
0000
0000
0000
0000
,
0000
0000
0000
0000
,
1000
0001
0000
0000
0100
0010
0000
0000
,
1000
0001
0000
0000
0100
0010
0000
0000
,
1000
0001
0000
0000
0100
0010
0000
0000
,
1000
0001
0000
0000
1000
0000
0001
0000
,
1000
0000
1000
0001
1000
0000
0001
0000
,
1000
0000
1000
0000
0001
1000
0001
0000
,
1000
0000
1000
0001
1000
0000
0001
0000
,
1000
0000
0001
0000
1000
0001
1000
0000
,
0001
0000
1000
0001
1000
0000
0001
0000
,
1000
0000
0001
0000
1000
0001
1000
0000
,
0001
0000
1000
0001
1000
0000
0001
0000
,
1000
0000
1000
0000
0001
1000
0001
0000
,
1000
0000
1000
0001
1000
0000
0001
1000
,
0001
0000
1000
0000
0001
1000
0001
0000
,
1000
0000
0001
1000
0001
0000
1000
0000
,
0001
0000
1000
0001
1000
0001
1000
0000
,
0001
0000
1000
0001
1000
0000
0001
1000
,
0001
0000
1000
0000
0001
1000
0001
0000
,
1000
0000
0001
1000
0001
0000
1000
0000
,
0001
0000
1000
0001
1000
0001
1000
0000
,
0001
0000
0001
1000
0001
0000
0001
1000
,
0001
0000
0001
1000
0001
0000
1000
0000
,
1000
0000
1000
0001
1000
0000
1000
0001
,
1000
0000
1000
0001
1000
0001
1000
0000
,
0001
0000
0001
1000
0001
0000
0001
1000
,
0001
0000
0001
1000
0001
1000
0001
0000
,
1000
0000
1000
0001
1000
0000
1000
0001
,
1000
0000
1000
0001
1000
0000
0000
0000
,
0010
0000
0010
0100
0010
0000
0010
0000
,
0100
0100
0100
0000
,
0010
0000
0010
0100
0010
0000
0100
0000
,
0010
0010
0010
0000
,
0100
0000
0100
0010
0100
0000
0010
0000
,
0100
0100
0100
0000
,
0100
0000
0100
0010
0100
0000
0100
0000
,
0010
0010
0010
0000
,
0100
0100
0001
0001
,
1000
1000
0100
0100
,
0010
0010
0001
0001
,
1000
0000
0001
0000
1000
0001
1000
0000
,
0001
0001
0100
0100
,
0010
0010
1000
1000
,
0001
0001
1000
1000
,
0100
0010
0001
1000
,
0001
0000
0100
0000
,
0010
0000
1000
0000
0001
0000
0100
0001
,
1000
0000
0100
0000
,
0010
0000
0001
0000
1000
0100
1000
0000
,
1000
0000
0001
0000
,
0100
0000
0010
0000
1000
0000
0001
1000
,
0001
1000
0001
0100
,
0010
0000
1000
0000
0010
1000
0010
0000
,
1000
0000
1010
1001
,
1100
0000
1000
0000
0001
0010
0001
0000
,
1000
0000
0101
0011
,
1001
0000
0001
0000
0100
0001
1000
0000
,
0001
0000
1100
1001
,
1010
0000
0000
0000
0001
1000
0001
0000
,
1000
0000
1100
1001
,
0202
0000
0000
1313
;
#NOTES:
     dance-single:
     Renard:
     Beginner:
     2:
     0.247,0.299,0.115,0.073,0.000:
0000
0000
0000
0000
,
0000
0000
0000
0000
,
0000
0000
0000
0000
,
0000
0000
0000
0000
,
1000
0000
1000
0000
,
0001
0000
0001
0000
,
0100
0000
0100
0000
,
0010
0000
0010
0010
,
1000
0000
0010
1000
,
0010
0000
0100
0001
,
0100
0000
0001
0010
,
0001
0000
1000
0100
,
1000
0000
0001
0100
,
0001
0000
1000
0010
,
1000
0000
0100
1000
,
0100
0000
0010
0001
,
0010
0000
0010
0000
,
0001
1000
0001
1000
,
0001
0000
0100
0000
,
0010
1000
0010
1000
,
0001
0000
0100
0001
,
1000
0000
0100
0000
,
0010
0001
0010
0100
,
1000
0001
1000
0001
,
1000
0000
0001
0000
,
0100
0100
0100
0000
,
0010
0000
1000
0000
,
0001
0001
0001
0000
,
0100
0000
0100
0010
,
1000
0000
1000
0000
,
0001
0100
0001
1000
,
0100
0100
0100
0000
,
0010
0000
0001
0000
,
1000
0001
1000
0000
,
0001
0000
1000
0000
,
0100
0010
0100
0000
,
0010
0000
0001
0000
,
1000
0010
1000
0000
,
0010
0000
0100
0000
,
1001
0000
0110
0000
,
0010
0000
0110
0000
,
0100
0000
0110
0000
,
0001
0000
1001
0000
,
1000
0000
1001
0000
,
1000
0000
1001
0000
,
0001
0000
1001
0000
,
0010
0000
0110
0000
,
0100
0000
0110
0000
,
0010
0000
1000
0000
,
0002
0000
0000
0103
,
0100
0000
0010
0000
,
2000
0000
0000
3100
,
0010
0000
0001
0000
,
0100
0000
0010
0000
,
2000
0000
3200
0000
,
0320
0000
0000
0031
,
1000
0000
0001
1000
,
0001
0000
0000
0000
,
1000
0000
0001
0100
,
0010
0000
0000
0000
,
1000
0000
1000
0001
,
0100
0000
0000
0000
,
0010
0000
1000
0001
,
2002
0000
0000
3013
;
