#TITLE:Another Truth;
#SUBTITLE:;
#ARTIST:Novasonic;
#TITLETRANSLIT:;
#SUBTITLETRANSLIT:;
#ARTISTTRANSLIT:;
#CRChallenge:;
#BANNER:truth-banner.avi;
#BACKGROUND:truth-bg.png;
#LYRICSPATH:truth.lrc;
#CDTITLE:!cdtitle.png;
#MUSIC:truth.ogg;
#OFFSET:0.000;
#SAMPLESTART:3.422;
#SAMPLELENGTH:12.000;
#SELECTABLE:YES;
#BPMS:0.000=136.000;
#STOPS:120.000=1.324
;
#BGCHANGES:;
#NOTES:
     dance-single:
     Renard:
     Medium:
     9:
     0.649,0.663,0.780,0.018,0.261:
0000
0000
0000
0000
,
0000
0000
0000
0000
,
1100
0000
0000
0000
1100
0000
0000
0100
1000
0000
0100
0000
0010
0000
0001
0000
,
0100
0001
1000
0100
0010
0001
1000
0001
,
0000
0101
1001
0000
0011
0000
1001
0000
,
0101
0000
0000
0110
0000
0000
1010
0000
1100
0000
0000
0110
0000
0000
0011
0000
,
0011
0000
0000
0000
0011
0000
0000
0010
0001
0000
0010
0000
0100
0000
1000
0000
,
0010
1000
0001
0010
0100
1000
0001
1000
,
0000
1010
1001
0000
1100
0000
1001
0000
,
1010
1010
0000
1000
0010
0100
0001
0000
,
0001
0100
0000
0100
1000
0100
0000
0100
,
0001
0010
1000
0010
0001
0010
0100
1000
,
0000
1000
0100
0001
0100
1000
0010
0001
,
0010
0000
0010
1000
0010
0100
0001
0000
,
0101
0000
0000
0000
0011
0000
0000
0001
0100
0000
0000
0000
0011
0000
0000
0000
,
0012
0100
0103
1111
,
0101
0000
0000
0000
0011
0000
0000
0001
1000
0000
0100
0000
1000
0000
0010
0000
,
0100
0010
0000
1000
0100
0010
0001
1000
,
0001
0100
1000
0100
0001
0100
0000
0001
,
0000
0010
1000
0010
0001
0010
0100
1000
,
0000
1000
0000
0100
1000
0010
0100
0001
,
0010
0000
0010
0001
1000
0010
0100
0000
,
0110
0000
0000
0000
1010
0000
0000
0010
1000
0000
0010
0000
0100
0000
0000
0000
,
0210
0001
0301
1111
,
0101
0000
0000
0000
1001
0000
0000
1000
0100
0000
0010
0000
0001
0000
0010
0000
,
0100
1000
0000
1000
0100
0000
1001
0000
,
1000
0100
1000
0100
1000
0001
1000
0001
,
0100
0001
0100
0001
1000
0001
1000
0001
,
1000
0100
1000
0100
1000
0001
1000
0001
,
0100
0000
0000
0101
0000
0000
0001
0000
1000
0000
0000
1001
0000
0000
0001
0000
,
0000
0000
1000
0100
0001
0100
0010
0001
,
0010
0100
1000
0100
0001
0100
0010
0001
,
0010
0100
1000
0000
0001
0100
1000
0100
,
0001
0100
0010
1000
0010
0100
0001
0100
,
1000
0100
0001
0000
0001
0010
0100
1000
,
0100
1000
0001
0010
0100
1000
0100
1000
,
0010
1000
0000
0001
1000
0001
0100
0010
,
1000
0000
0010
0000
1010
0000
0000
0000
0001
0100
0001
0100
0001
0100
0001
0100
,
0001
0000
0000
0000
1000
0000
0000
0000
0001
0000
0000
0000
1000
0000
0000
0000
0000
0000
0000
0000
0000
0100
0000
0000
0000
0000
0000
0000
0000
0000
1100
0000
0000
0000
0000
0000
0000
0000
0000
1000
0000
0000
0000
0000
0000
0000
0000
0000
,
0101
0000
0000
0000
0001
0000
0000
1000
0000
0000
0011
0000
0000
1000
0000
0000
,
1100
0000
0000
0000
1000
0000
0000
0001
0000
0000
0110
0000
0000
1000
0000
0000
,
0011
0000
0000
0000
1100
0000
0000
1001
0000
0000
0101
0000
1001
0000
0000
1100
,
0000
0000
1001
0000
0001
0000
0100
0001
0100
0000
0001
0000
1000
0000
0100
1000
,
0100
0000
1000
0000
0001
0010
0001
0000
1000
0000
0010
1000
0010
0000
1000
0000
,
0001
0000
0100
0000
0001
0000
1000
0100
1000
0000
0001
0100
0001
0000
1000
0000
,
0001
0000
1000
0000
0001
0000
0000
0010
0000
0000
0100
0000
1000
0000
0000
0001
,
0000
0000
0100
0000
0010
0000
1000
0010
1000
0000
0001
0000
0100
0001
0100
0001
,
0100
0000
0001
0000
1000
0000
0100
1000
0100
0000
1000
0000
0001
0010
0001
0010
,
0001
0000
0010
0000
0100
1000
0100
1000
0100
0000
1000
0000
0001
1000
0001
1000
,
0001
0000
0100
0000
0010
0000
0000
1000
0000
0000
0100
0000
0010
0000
0000
0001
,
0000
0000
0010
0000
0011
0000
0000
0000
0110
0000
0000
0100
1000
0000
0010
0000
,
0100
0000
0000
1010
1010
0000
1000
0010
,
0100
0000
0001
0000
0010
0000
0100
0000
1000
0000
0000
1000
0100
0000
0010
0000
,
0001
0000
1000
0000
0101
0000
0000
0101
0000
0000
0101
0000
0101
0000
0000
0101
,
0000
0000
0101
0000
1010
0000
0000
1100
0000
0000
1010
0000
0101
0000
0000
0011
,
0000
0000
0101
0000
1001
0000
0000
0000
1010
0000
0000
0010
0100
0000
0001
0000
,
0010
0000
0100
0000
1000
0000
0100
0000
1000
0000
0001
1000
0001
0000
0100
0000
,
0010
0000
0000
0000
1000
0000
0000
0000
1100
0000
0000
0001
0010
0000
0100
0000
,
1000
0000
0001
0000
0101
0000
0000
1001
0000
0000
1010
0000
1001
0000
0000
1100
,
0000
0000
1001
0000
0101
0000
0000
0011
0000
0000
1001
0000
1010
0000
0000
1100
,
0000
0000
1001
0000
0101
0000
0000
0011
0000
0000
1100
0000
1010
0000
0000
0000
,
0000
0000
0000
0000
1100
0000
0000
0000
0011
0000
0000
0001
0100
0000
0010
0000
,
1000
0100
0110
0110
0000
0000
0000
0000
;
#NOTES:
     dance-single:
     Renard:
     Hard:
     11:
     0.885,0.884,0.930,0.000,0.704:
0000
0000
0000
0000
,
0000
0000
0000
0000
,
1110
0000
0000
0000
1101
0000
0000
0100
1000
0000
0010
0000
0100
0000
0001
0000
,
0010
0000
0100
1000
0100
0000
0010
0001
0010
0000
0001
0100
0001
0000
1000
0010
,
1000
0000
0101
0000
1001
0000
0001
0010
0100
0000
1000
0000
0100
0000
1010
0000
,
0101
0000
0001
0100
0000
0100
0010
0000
1010
0000
0010
0100
0000
0100
0001
0000
,
0111
0000
0000
0000
1011
0000
0000
0001
0100
0000
0010
0000
1000
0000
0100
0000
,
0010
0000
0001
0010
0001
0000
1000
0100
1000
0000
0001
0100
0001
0000
1000
0010
,
1000
0000
0101
0000
1001
0000
0001
0100
0010
0000
1000
0000
0100
0000
1010
0000
,
0101
0000
0011
0000
0000
0000
1100
0000
1010
0000
0010
0100
0001
0000
1000
0000
,
0001
0100
1000
0100
0010
0001
0010
1000
,
0010
0100
0001
0100
1000
0100
0001
0100
,
0010
1000
0100
0001
0100
0010
0001
0010
,
1000
0010
0100
0001
0100
1000
0010
0100
,
0101
0000
0010
0000
1001
0000
0010
1000
0100
0000
0010
0000
0001
0000
0100
0000
,
1010
1001
0100
1010
0100
0011
1001
0000
,
1010
0000
0100
0000
1001
0000
0100
0001
0010
0000
0100
0000
1000
0000
0010
0000
,
0101
1001
0010
0101
0010
1100
1001
0000
,
0001
0100
1000
0100
0001
0100
0010
1000
,
0010
0001
0010
0100
1000
0100
0001
0100
,
0010
1000
0100
0001
0100
0010
0001
0010
,
1000
0010
0100
0001
0100
1000
0010
0100
,
0011
0000
0100
0000
1001
0000
0000
0001
0100
0000
0010
0000
1000
0000
0100
0010
,
0001
0010
1100
0001
0110
1001
0110
1001
,
0000
0000
1100
0000
0011
0000
0001
0100
0010
0000
1000
0000
0100
0000
0010
0000
,
0011
1100
0000
1010
0101
1000
0101
0000
,
0001
0000
0001
0100
0010
1000
0100
0010
0001
0010
0100
1000
0001
0000
0100
0000
,
0010
0000
1000
0100
0010
0001
0010
0100
1000
0001
0100
0010
1000
0000
0010
0000
,
1000
0000
0001
0100
0010
1000
0100
0010
0001
0010
0100
1000
0001
0100
0010
1000
,
1010
0000
0000
0101
0000
0000
1001
0000
1100
0000
0000
0011
0000
0000
1001
0000
,
0000
0000
0000
0000
1000
0000
0001
0100
0001
0000
1000
0100
1000
0000
0001
0010
,
0001
0000
1000
0010
1000
0000
0001
0000
0100
0000
0010
0000
1000
0000
0100
0000
,
0010
0000
0001
0000
1000
0000
0001
0100
0001
0000
1000
0100
1000
0000
0001
0010
,
0001
0000
1000
0010
1000
0000
0001
0000
0100
0000
0010
0000
1000
0000
0100
0000
,
0010
0000
0001
0000
1000
0000
0001
0100
0001
0000
1000
0010
1000
0000
0001
0010
,
0001
0000
1000
0100
1000
0000
0001
0000
0100
0000
0010
0000
1000
0000
0100
0000
,
0010
0000
0001
0000
1000
0000
0010
0100
0010
0000
1000
0010
1000
0000
0001
0100
,
0001
0000
1000
0000
0100
0000
0010
0000
0001
0010
0100
1000
0001
0010
0100
1000
,
0001
0000
0000
0000
0001
0000
0000
0000
0001
0000
0000
0000
1000
0000
0000
0100
0000
0000
0010
0000
0000
0001
0000
0000
0100
0000
0000
0010
0000
0000
1000
0000
0000
0100
0000
0000
0010
0000
0000
0001
0000
0000
0010
0000
0000
0100
0000
0000
,
1000
0001
0100
0010
1000
0100
1000
0001
0010
0100
0010
0001
0100
0010
1000
0100
,
0010
0001
0010
0100
1000
0001
0100
0010
1000
0100
0010
0100
1000
0001
0010
0100
,
0010
0001
1000
0010
0110
0000
0000
1001
0000
0000
0110
0000
1001
0000
0000
1100
,
0000
0000
0011
0000
0001
0010
0100
1000
0001
0100
0010
1000
0100
0010
0100
1000
,
0001
0100
0010
1000
0100
0010
0100
1000
0001
0010
0100
1000
0001
0100
0010
1000
,
0100
1000
0001
0010
0100
1000
0001
0100
0010
1000
0100
0010
0001
0010
0100
1000
,
0001
0100
0010
1000
1100
0000
0000
1100
0000
0000
1010
0000
1001
0000
0000
1001
,
0000
0000
0101
0000
0001
0100
0010
1000
0100
0010
0100
1000
0001
0010
0100
1000
,
0001
0100
0010
1000
0100
1000
0001
0010
0100
1000
0001
0100
0010
1000
0100
0010
,
0001
0010
0100
1000
0001
0100
0010
1000
0100
0010
0100
1000
0001
0100
0010
1000
,
0100
0010
0001
1000
1001
0000
0000
0101
0000
0000
0110
0000
0110
0000
0000
1010
,
0000
0000
1001
0000
0110
0000
0000
0000
1001
0000
0000
0001
0100
0000
0010
0000
,
1000
0000
0100
0000
0010
0000
0011
0000
0110
0000
0100
1000
0001
0000
0100
0000
,
0010
1000
0001
0110
1001
0110
1001
0000
,
1100
0000
0011
0000
0101
0000
0000
0101
0000
0000
0101
0000
0110
0000
0000
0110
,
0000
0000
0110
0000
1010
0000
0000
1000
0000
0000
0100
0000
0110
0000
0000
0010
,
0000
0000
0001
0000
0101
0000
0000
0000
0110
0000
0000
0010
1000
0000
0100
0000
,
0010
0000
0001
0000
1000
0000
0110
0000
1010
0000
1000
0100
0010
0000
0001
0000
,
0010
0100
1000
0101
1010
1000
0100
0010
,
0011
0000
1100
0000
1001
0000
0001
0100
0000
0100
0010
0000
0110
0000
0010
1000
,
0000
1000
0100
0000
0110
0000
0010
0001
0000
0001
0100
0000
0110
0000
0010
1000
,
0000
1000
0100
0000
0110
0000
0010
0001
0000
0001
1000
0000
1010
0000
0000
0000
,
0000
0000
0000
0000
1001
0000
0100
0000
1010
0000
1000
0100
0010
0000
0001
0000
,
1001
0010
1001
1010
0000
0000
0000
0000
;
#NOTES:
     dance-single:
     Jinxie:
     Easy:
     6:
     0.390,0.000,0.452,0.000,0.000:
0000
0000
0000
0000
,
0000
0000
0000
0000
,
1010
0101
0011
0110
,
1100
1010
1001
1010
,
0001
0010
0100
1000
,
0010
0100
0001
0100
,
1010
0101
0011
1100
,
1010
1001
0110
1001
,
0010
1000
0100
0010
,
0001
0100
0010
0100
,
0001
0000
1000
0000
0010
1000
0100
0000
,
0010
0000
0001
0000
0010
0100
1000
0000
,
0010
0000
1000
0000
0001
1000
0001
0000
,
1000
0000
0010
0000
0100
0001
0100
0000
,
1001
1100
0011
0110
,
0011
0110
1010
1001
,
1000
0010
0100
0001
,
0100
0010
1000
0100
,
1000
0000
0001
0000
1000
0010
1000
0000
,
0100
0000
0010
0000
0001
0010
0001
0000
,
0010
0000
0100
0000
1000
0100
1000
0000
,
0010
0000
1000
0000
0100
0010
0100
0000
,
0011
1100
1001
0110
,
0101
1010
1001
0110
,
0001
1000
0010
0100
,
0001
0100
0010
1000
,
0001
1000
0001
1000
,
0010
0100
0001
0100
,
0010
1000
0100
0010
,
0001
0010
0100
1000
,
0001
1000
0010
0100
,
0001
0100
0010
1000
,
0100
0011
0010
0100
,
1000
0010
0100
0001
,
0100
1010
1000
0100
,
0010
0001
0010
0100
,
1000
1100
1000
0010
,
0100
0001
0100
0010
,
1000
0000
1000
0000
0010
0000
0100
0001
,
0100
0000
0100
0000
0010
0000
0100
0001
,
0100
0000
0010
0000
1000
0000
0100
0010
,
0100
0010
0001
0100
,
0010
0000
1000
0000
0001
0000
1000
0100
,
1000
0000
0010
0000
0100
0000
0001
0100
,
0001
0000
0100
0000
0010
0000
0100
0010
,
0100
0010
1000
0100
,
0010
0000
0001
0000
1000
0000
0010
1000
,
0100
0000
0010
0000
0001
0000
0100
0010
,
0100
0000
0001
0000
0010
0000
0100
1000
,
0100
1000
0010
0100
,
0001
0011
1100
1010
,
0101
0110
1010
1100
,
0011
0010
0100
1000
,
0001
1000
0010
0100
,
0001
0000
0000
0000
,
0000
1010
1001
0110
,
0011
1001
1010
0101
,
0110
1000
0100
1000
,
0010
0100
0001
0100
,
0010
1000
0100
0010
,
0001
0000
0100
0000
0010
0000
1000
0100
,
0000
0010
0001
0000
1000
0000
0010
0000
,
0100
0000
0001
1000
0000
0000
0000
0000
;
#NOTES:
     dance-single:
     Jinxie:
     Beginner:
     3:
     0.296,0.000,0.372,0.000,0.000:
0000
0000
0000
0000
,
0000
0000
0000
0000
,
1001
0010
1000
0100
,
0110
0010
0001
0100
,
0110
0010
1000
0001
,
1001
0000
1001
0000
,
1001
0010
0100
0001
,
0101
0010
1000
0100
,
1100
0100
0010
0001
,
0011
0000
0011
0000
,
1001
0010
1000
0100
,
0000
1000
0010
0100
,
0000
0100
0001
0010
,
0000
0010
0100
1000
,
1001
0010
0100
0001
,
0101
0010
1000
0100
,
0110
0010
0001
0010
,
0110
0000
0110
0000
,
1100
0010
1000
0100
,
0000
0100
0010
0001
,
0000
0001
1000
0010
,
0000
0010
0100
0001
,
0101
0010
1000
0100
,
1100
1000
0010
0100
,
0101
0001
1000
0010
,
1010
0000
1010
0000
,
1001
0010
0100
0001
,
0000
0100
0010
1000
,
0000
1000
0100
0010
,
0000
0010
0001
0100
,
1001
0010
1000
0100
,
0000
0100
1000
0010
,
0000
0010
0100
0001
,
0000
0001
0100
0010
,
0000
0010
1000
0001
,
0000
0001
1000
0010
,
0000
0010
0100
0001
,
0000
1001
0000
1001
,
0000
0010
1000
0100
,
0100
1000
0000
0010
,
0000
0100
0001
0010
,
0010
0001
0000
0100
,
0000
0010
1000
0100
,
0010
0001
0000
0001
,
0000
0001
1000
0010
,
0100
0001
0000
0001
,
0000
0001
1000
0010
,
0100
0001
0000
0001
,
0000
0001
1000
0100
,
0010
0001
0000
0001
,
0000
1001
0010
1000
,
0100
1100
1000
0010
,
0100
0101
0001
0010
,
0100
1100
0000
1100
,
0000
0000
0000
0000
,
0000
1001
0010
0100
,
0001
0101
0010
1000
,
0100
0110
0010
0001
,
0100
1010
0000
1010
,
0000
1001
0000
1001
,
0000
0011
0000
0011
,
0000
1001
0010
1000
,
0100
1001
0000
0000
;
