#TITLE:Another Run;
#SUBTITLE:;
#ARTIST:Novasonic Remix;
#TITLETRANSLIT:;
#SUBTITLETRANSLIT:;
#ARTISTTRANSLIT:;
#CRChallenge:;
#BANNER:another run.png;
#BACKGROUND:another run-bg.png;
#LYRICSPATH:;
#CDTITLE:;
#MUSIC:another run.ogg;
#OFFSET:0.000;
#SAMPLESTART:3.418;
#SAMPLELENGTH:12.000;
#SELECTABLE:YES;
#BPMS:0.000=138.000;
#STOPS:;
#BGCHANGES:;
#NOTES:
     dance-single:
     Nonstop:
     Challenge:
     10:
     0.819,0.768,0.626,0.043,0.611:
0000
0000
0000
0000
,
0000
0000
0000
0000
,
0011
0000
0000
0000
0110
0000
0000
0100
1000
0000
0010
0000
0100
0000
0001
0010
,
0100
0000
1000
0001
0100
0000
0010
1000
0100
0000
0010
0000
0110
0000
1100
0000
,
0000
0000
0100
1000
0010
0000
0100
0001
0010
0000
0100
0000
1000
0000
0001
0000
,
0110
0000
0000
0110
0000
0000
0110
0000
1001
0000
0000
1001
0000
0000
1001
0000
,
0101
0000
0000
0000
0110
0000
0000
0010
1000
0000
0100
0000
0010
0000
0001
0010
,
0100
0000
1000
0100
1000
0000
0010
1000
0001
0000
0100
0010
1000
0000
0100
0000
,
0010
0000
0110
0000
0011
0000
0001
0010
0100
0000
1000
0000
0001
0000
0100
0000
,
0110
0110
0000
1010
0100
1001
0110
0000
,
1010
0000
0010
0100
0001
0000
0100
0000
0010
0000
1000
0000
0100
0000
0010
0001
,
0010
0000
0100
1000
0100
0000
1000
0001
1000
0000
0001
0000
0100
0000
0010
0000
,
1000
0000
0010
0100
0001
0000
0100
0000
0010
0000
1000
0100
1000
0000
0001
0000
,
0011
0000
0000
0110
0000
0000
1100
0000
0000
0000
1000
0000
0010
0000
0000
0000
,
0100
0000
0000
0000
0110
0000
0000
0100
0001
0000
0100
0000
0010
0000
0100
0000
,
1000
0100
0010
0200
0002
0000
1313
0000
,
0000
0000
0101
0000
0110
0000
0010
1000
0100
0000
1100
0000
0011
0000
0100
1000
,
0001
0100
0010
1000
1010
0101
0110
0000
,
0010
0000
0000
0010
1000
0000
0100
0000
0010
0000
0000
0010
0001
0000
0100
0000
,
0010
0000
0000
0010
1000
0000
0100
0000
0010
0000
0000
0010
0001
0000
0100
0000
,
0001
0000
0001
1000
0001
0000
1000
0000
0100
0000
0010
0100
0010
0000
0001
0000
,
1000
0000
0010
0100
0001
0000
0100
0010
1000
0000
0100
0000
0010
0000
0000
0000
,
0011
0000
0000
0000
0110
0000
0000
0100
1000
0000
0010
0000
0100
0000
0001
0000
,
0100
0010
0100
0000
0202
0000
1313
0000
,
0001
0000
0100
0000
0010
0000
1000
0010
1000
0000
0100
0000
0010
0000
0001
0010
,
0100
1000
0000
0101
1000
0110
1001
0000
,
0010
0000
0000
0010
1000
0100
0010
0001
0010
0100
1000
0001
0100
0000
0010
0000
,
1000
0000
0000
1000
0010
0100
0001
0010
0100
1000
0001
0100
0010
0000
1000
0000
,
0100
0000
0000
0100
1000
0001
0010
0100
1000
0000
0001
0100
0010
1000
0100
0000
,
1100
0000
0000
1100
0000
0000
0011
0000
1100
0000
0000
1100
0000
0000
0011
0000
,
0100
1000
0000
0001
0000
1000
0100
0010
0001
0010
0100
1000
0001
0000
0010
0001
,
0010
0100
1000
0001
0010
0000
0001
0000
0001
0000
0001
0000
1000
0000
0010
0100
,
0001
0000
0100
0000
0010
1000
0100
0010
0001
0000
0010
0000
0100
0000
0000
0000
,
1000
0010
0100
0001
0100
0000
0010
0000
0010
0000
0010
0000
1000
0000
0100
0010
,
0001
0000
0010
0000
0100
1000
0001
0010
0100
0000
1000
0000
1000
0000
0000
0000
,
0001
0100
0010
1000
0010
0000
0100
0000
0100
0000
0100
0000
0010
0000
1000
0100
,
0010
0000
0001
0000
0010
0100
1000
0001
0100
0000
0010
0000
1000
0000
0000
0000
,
0100
1000
0001
0010
0100
0000
1000
0000
1000
0000
0001
0000
0100
0000
0010
1000
,
0001
0000
0000
0000
0000
1001
0000
1001
,
0001
0000
0100
0010
1000
0000
0100
0000
0010
0001
0010
0100
1000
0000
0001
0000
,
0100
0000
0010
1000
0100
0000
0010
0001
0010
0000
0100
1000
0001
0000
0100
0000
,
0010
1000
0100
0010
0001
0000
0010
0000
0100
1000
0001
0100
0010
0000
1000
0000
,
0000
0000
0100
0010
0001
0000
0010
0100
1000
0000
0100
0010
0100
0000
1000
0000
,
0010
0100
0001
0100
0010
0000
1000
0000
0010
0100
0001
0100
0010
0000
1000
0000
,
0100
0000
0010
0001
0010
0000
0100
1000
0001
0000
0100
0010
1000
0000
0100
0000
,
0010
0000
0001
0010
0100
1000
0001
0100
0010
1000
0100
0010
0001
0000
0010
0000
,
0100
0000
1000
0001
0100
0000
0010
0000
1000
0100
0010
0000
0001
0000
0010
0000
,
0011
0010
0110
0000
0100
0000
1000
0010
,
0110
1000
0100
0110
0010
0001
0100
0010
,
1010
0100
1010
0000
1000
0000
0010
1000
,
0100
0100
0010
0010
0001
0010
0011
0000
,
0110
0100
1100
0000
1000
0010
0100
0001
,
0100
0100
0010
1000
0100
1100
0110
0000
,
0011
0001
0101
0000
0100
0010
1000
0100
,
0010
0000
0010
0001
0010
0000
0100
1000
0100
0000
1000
0000
0010
0000
0000
0000
,
0100
0001
0100
0010
1000
0000
0010
0000
0010
0000
0010
0000
1000
0000
0100
0010
,
0001
0000
0010
0000
0100
1000
0001
0010
0100
0000
1000
0000
0001
0000
0000
0000
,
0100
0010
0100
0010
1000
0000
0010
0000
1000
0000
0100
0000
0010
0000
0001
0010
,
0100
0000
1000
0000
0001
0100
0010
1000
0100
0000
0010
0000
0010
0000
0010
0000
,
0001
0010
0100
1000
0001
0000
0100
0000
0100
0000
0100
0000
0010
0000
1000
0100
,
0010
0000
0001
0000
0010
0100
1000
0001
0100
0000
0010
0000
0010
0000
1000
0000
,
0010
0100
0001
0100
0010
0000
1000
0000
0100
0000
0010
0000
0001
0000
0010
0100
,
1000
0000
0000
0000
0000
1001
0000
1001
,
0001
0000
0100
0010
1000
0000
0100
0000
0010
0000
0001
0000
0010
0000
0100
0000
,
1000
0000
0001
0100
0010
0000
1000
0100
0010
0000
0001
0000
0010
0000
0100
0000
,
1000
0000
0001
0100
0010
1000
0100
0010
0001
0010
0100
1000
0001
0000
0100
0000
,
0010
1000
0100
0010
0001
0010
0100
1000
0001
0100
0010
1000
0100
0000
1000
0000
,
0010
0100
0001
1000
0100
0000
1000
0000
0001
0100
0010
1000
0100
0000
0010
0000
,
0001
0000
0010
0100
1000
0000
0001
0100
0010
0000
1000
0100
0010
0000
0001
0000
,
0010
0000
0100
1000
0001
0100
0010
1000
0100
0010
0001
0010
0100
0000
1000
0000
,
0001
0100
0010
1000
0100
0010
0001
0010
0100
1000
0001
0100
0010
0000
1000
0000
,
1010
0000
0000
0100
0000
0000
0100
0000
0110
0000
0000
0100
0000
0000
0100
0000
,
0010
0000
1000
0000
0010
0000
0000
0100
0001
0000
0100
0000
0010
0000
1000
0000
,
0100
0110
0110
0011
0011
0011
0010
0100
,
1000
0000
0001
0100
0010
0000
1000
0100
0010
0000
0100
1000
0010
0000
0100
0000
,
0101
0000
0000
0110
0000
0000
1010
0000
0110
0000
0000
1010
0000
0000
0110
0000
,
0101
0000
0000
0110
0000
0000
1010
0000
1001
0000
0000
1100
0000
0000
0011
0000
,
0110
0000
0000
1001
0000
0000
2002
0000
3013
0000
0000
0000
0000
0000
0000
0000
,
0101
0000
0100
0010
1000
0000
0100
0010
0001
0000
0010
0100
1000
0000
0001
0000
,
1001
0110
0000
0000
0000
0000
0000
0000
;
