#TITLE:Angels;
#SUBTITLE:;
#ARTIST:Chavbots From Outta Space;
#TITLETRANSLIT:;
#SUBTITLETRANSLIT:;
#ARTISTTRANSLIT:;
#CRChallenge:;
#BANNER:angels-banner.avi;
#BACKGROUND:angels-bg.jpg;
#LYRICSPATH:;
#CDTITLE:;
#MUSIC:angels.ogg;
#OFFSET:0.000;
#SAMPLESTART:21.051;
#SAMPLELENGTH:12.000;
#SELECTABLE:YES; #DISPLAYBPM=82:165;
#BPMS:0.000=82.500,32.000=165.000,104.000=82.500,112.000=165.000,208.000=82.500,212.000=41.250,213.000=20.625,213.500=10.313,213.938=20.625;
#STOPS:;
#BGCHANGES:;
#NOTES:
     dance-single:
     Renard:
     Medium:
     8:
     0.471,0.518,0.097,0.204,0.010:
0000
0000
0000
0000
,
0000
0000
0000
0000
,
2000
0100
0001
0100
,
0100
0001
0100
0001
,
3002
0100
1000
0023
,
0230
0000
0010
0000
1000
0310
0001
0100
,
0020
0000
0100
0000
2030
0001
3200
0010
,
0320
0000
0000
0000
1000
0000
0031
0000
1000
0000
0010
0000
0100
0010
0100
0010
,
1000
0100
0010
0001
0000
0000
1000
0100
,
0010
0001
0000
0000
1000
0100
0010
0001
,
0001
0010
0100
1000
0000
0000
0001
0010
,
0100
1000
0000
0000
0001
0010
0100
1000
,
1000
0010
0100
0001
0000
0000
1000
0010
,
0100
0001
0000
0000
1000
0010
0100
0001
,
0001
0100
0010
1000
0000
0000
0001
0100
,
0010
1000
0000
0000
0001
0100
0010
1000
,
1000
0100
1000
0000
1000
0000
0100
1000
,
0100
0000
0100
0000
1000
0100
1000
0000
,
0100
0001
0100
0000
0100
0000
0001
0100
,
0001
0000
0001
0000
0100
0001
0001
0000
,
0001
0010
0001
0000
0001
0000
0010
0001
,
0010
0000
0010
0000
0001
0010
0001
0000
,
0010
1000
0010
0000
0010
0000
1000
0010
,
1000
0000
0100
0000
1000
0010
0100
0000
,
0001
0200
0010
0000
1000
0000
0310
1000
,
0100
0020
0001
0000
0100
0000
0031
0000
,
2000
0000
0000
0000
3002
0000
0000
0000
0020
0000
0000
0003
0200
0000
0000
0030
,
2000
0000
0000
0000
0010
0010
0010
3310
,
1000
0100
1000
0010
1000
0001
0100
0010
,
1000
0001
0100
0001
1000
0000
1001
0000
,
1000
0001
0100
0001
0010
0001
1000
0001
,
0100
0010
1000
0100
1000
0001
0010
0000
,
0001
0100
0001
1000
0100
1000
0010
1000
,
0001
0010
0100
1000
0100
0010
0001
0000
,
1000
0100
1000
0010
1000
0001
1000
0100
,
1000
0100
0010
0001
0010
0100
1000
0000
,
0001
0100
0001
1000
0001
0010
0001
1000
,
0100
1000
0010
1000
0001
1000
0001
0000
,
0001
1000
0001
0100
0001
0010
0001
1000
,
0100
1000
0010
1000
0001
1000
0001
0000
,
0100
0001
0100
0010
0100
0001
0100
0001
,
1000
0100
1000
0100
1000
0010
1000
0000
,
0001
1000
0100
0010
1000
0010
0100
0000
,
1000
0020
0000
0230
,
0301
0100
0010
0000
0110
0000
0010
1000
,
0100
0010
0001
0000
1000
0000
0110
0000
,
0010
1000
0100
0010
0001
0000
0011
0000
,
0001
0010
0100
1000
0010
0000
0110
0000
,
0010
1000
0001
0000
0011
0000
0010
0100
,
1000
0001
0100
0010
0100
0000
0110
0000
,
0010
1000
0100
0010
0001
0000
0011
0000
,
0001
0010
0100
0000
1100
0000
1001
0000
,
0200
0000
0000
0000
,
0320
0000
0000
0000
0000
0000
0000
0000
0000
0000
0000
0000
0000
0000
0000
0000
2030
0000
0000
0000
0000
0000
0000
0000
3200
0000
0000
0000
0000
0000
0000
0300
0000
0000
0000
0000
0000
0000
0000
0000
0000
0000
0000
0000
0000
0000
0000
0000
0000
0000
0000
0000
0000
0000
0000
0000
0000
0000
0000
0000
0000
0000
0000
0000
;
#NOTES:
     dance-single:
     Renard:
     Hard:
     8:
     0.469,0.441,0.271,0.136,0.12:
0000
0000
0000
0000
,
0000
0000
0000
0000
,
2000
0100
0010
0001
,
3002
0010
0100
1000
,
2003
0100
0010
0001
,
3002
0010
0100
0010
,
0203
0010
1000
0001
,
0320
0100
1000
0130
,
0010
1000
0010
1000
0010
0000
0100
0001
,
0100
0001
0100
0000
0001
0010
0100
1000
,
0001
0010
0001
0010
0001
0000
1000
0100
,
1000
0100
1000
0000
0010
1000
0001
0100
,
0010
1000
0010
1000
0010
0000
0100
0001
,
0100
0001
0100
0000
0001
0010
0001
0000
,
1000
0100
1000
0100
1000
0000
0001
0100
,
0001
0100
0001
0000
1000
0010
1000
0000
,
0001
0010
0100
1000
0001
0000
1000
0100
,
0010
0001
1000
0000
0001
0010
0100
1000
,
0001
0100
0010
1000
0001
0000
1000
0010
,
0100
0001
1000
0000
0001
0100
0010
1000
,
0001
1000
0100
1000
0010
0000
1000
0100
,
1000
0010
1000
0000
0001
1000
0001
0100
,
0001
0010
0001
1000
0001
0000
1000
0001
,
0100
0001
0010
0000
0001
1000
0010
1000
,
0100
0000
1000
0000
0000
0001
0010
0000
,
0001
0000
1000
0000
0000
0010
1000
0000
,
0002
0000
0203
0000
,
0020
0000
0000
0000
1000
1000
0001
0331
,
0110
0000
0010
1000
0100
0010
0001
0000
,
0011
0110
1100
1001
,
1001
0000
0001
0100
0010
1000
0100
0010
,
0001
0001
0010
0010
0100
0100
1000
0000
,
1001
0000
1000
0100
0010
0001
1000
0001
,
1000
1000
0010
0010
0100
0100
0001
0000
,
0101
0000
0001
0100
0010
1000
0001
0100
,
0010
0010
1000
1000
0001
0001
0100
0000
,
0101
0000
0001
1000
0100
0010
0001
1000
,
0001
0001
1000
1000
0010
0010
1000
0000
,
1001
0000
1000
0100
0010
0001
1000
0010
,
0100
0100
0010
0010
0100
0100
0001
0000
,
1001
0000
1000
0100
1000
0001
0010
0001
,
1000
1000
0010
0010
1000
1000
0001
0000
,
0101
0000
0001
0010
0100
1000
0100
0010
,
0001
2000
0000
3001
,
1001
0000
1000
0010
0100
0000
0110
0000
,
0100
0001
0010
0000
0011
0000
0110
0000
,
1100
0000
1000
0100
0010
0000
0110
0000
,
0010
0001
1000
0000
0110
0000
1001
0000
,
1100
0000
1000
0100
0010
0000
0011
0000
,
0010
0100
1000
0000
0110
0000
1010
0000
,
1010
0000
1000
0010
0100
0000
0101
0000
,
0100
0001
0010
0000
0110
0000
1100
0000
,
200M
00M0
0M00
00M0
000M
00M0
0M00
00M0
000M
00M0
0M00
00M0
000M
00M0
0M00
00M0
000M
00M0
0M00
00M0
000M
00M0
0M00
00M0
,
020M
0000
0000
0000
0000
0000
00M0
0000
0000
0000
0000
0000
000M
0000
0000
0000
0000
0000
00M0
0000
0000
0000
0000
0000
000M
0000
0000
0000
0000
0000
00M0
0000
0000
0000
0000
0000
000M
0000
0000
0000
0000
0000
0000
0000
000M
0000
0000
0000
002M
0000
0000
0000
000M
0000
000M
0000
0000
000M
0000
0000
000M
0000
0000
0000
0000
0000
0000
0000
0000
0000
0000
0000
0002
0000
0000
0000
0000
0000
0000
0000
0000
0000
0000
0000
0000
0000
0000
0000
0000
0000
0000
0000
0000
0000
0000
0000
3333
0000
0000
0000
0000
0000
0000
0000
0000
0000
0000
0000
0000
0000
0000
0000
0000
0000
0000
0000
0000
0000
0000
0000
0000
0000
0000
0000
0000
0000
0000
0000
0000
0000
0000
0000
0000
0000
0000
0000
0000
0000
0000
0000
0000
0000
0000
0000
0000
0000
0000
0000
0000
0000
0000
0000
0000
0000
0000
0000
0000
0000
0000
0000
0000
0000
0000
0000
0000
0000
0000
0000
0000
0000
0000
0000
0000
0000
0000
0000
0000
0000
0000
0000
0000
0000
0000
0000
0000
0000
0000
0000
0000
0000
0000
0000
;
#NOTES:
     dance-single:
     Renard:
     Easy:
     6:
     0.317,0.311,0.155,0.155,0.000:
0000
0000
0000
0000
,
0000
0000
0000
0000
,
2000
0100
0100
3100
,
0002
0100
0100
0103
,
2000
0010
0010
3010
,
0002
0010
0010
0013
,
2000
0100
0100
3100
,
0002
0000
0100
0000
0100
0100
0103
0000
,
0001
0000
0000
0101
0000
0000
0100
0000
,
0000
0101
0000
0000
0001
0000
0100
0000
,
0010
0000
0000
1010
0000
0000
1000
0000
,
0000
1010
0000
0000
0010
0000
1000
0000
,
0100
0000
0000
1100
0000
0000
1000
0000
,
0000
2100
0000
3000
0100
0000
0010
0000
,
0001
0000
0000
1001
0000
0000
0001
0000
,
0000
0101
0000
0000
0001
0000
0010
0000
,
0100
0000
0000
1100
0000
0000
0001
0000
,
0000
0011
0000
0000
1000
0000
0010
0000
,
0100
0000
0000
0101
0000
0000
0001
0000
,
0000
0011
0000
0000
0010
0000
0100
0000
,
1000
0000
0000
1010
0000
0000
0100
0000
,
0000
0101
0000
0000
0001
0000
0010
0000
,
0100
0000
0000
1100
0000
0000
0010
0000
,
0000
0011
0000
0000
0001
0000
1000
0000
,
0010
0100
0000
0100
,
0010
0000
1000
0000
0000
0010
1000
0000
,
0002
0000
0203
0000
,
0320
0000
0000
0000
1000
1000
1000
1030
,
1000
0000
0010
1000
0010
0000
1000
0000
,
0010
0100
0010
0100
0010
0000
0000
0000
,
0100
0000
0001
0100
0001
0000
0000
0000
,
0001
0010
0001
0010
0001
0000
0000
0000
,
0010
0000
0100
0010
0100
0000
0000
0000
,
1000
0100
1000
0100
1000
0000
0000
0000
,
0001
0000
1000
0001
1000
0000
0000
0000
,
0001
0100
0001
0100
0001
0000
0000
0000
,
1000
0000
0010
1000
0010
0000
0000
0000
,
1000
0100
0010
0001
,
1000
0000
0100
1000
0100
0000
0000
0000
,
1000
0100
0010
0001
,
0100
0000
0001
0100
0001
0000
0000
0000
,
0100
0010
1000
0001
,
0010
0000
0100
0010
0100
0000
1000
0000
,
0002
0200
0003
0010
,
0300
0000
0010
0100
0010
0000
0100
0000
,
0001
0000
1000
0000
0100
1000
0100
0000
,
1000
0001
0010
0001
,
1000
0000
1000
0000
0010
1000
0010
0000
,
1000
0000
1000
0000
0001
0100
0001
1000
,
0001
0000
1000
0000
0000
0100
0000
1000
,
0100
1000
0001
0010
,
0001
0000
1000
0000
0010
1000
0010
0000
,
2000
0000
0000
0000
,
3020
0000
0230
0302
0003
0000
0000
0000
;
#NOTES:
     dance-single:
     Renard:
     Beginner:
     2:
     0.201,0.233,0.000,0.145,0.000:
0000
0000
0000
0000
,
0000
0000
0000
0000
,
2000
0000
0000
0000
,
3200
0000
0000
0000
,
0320
0000
0000
0032
,
0203
0000
0000
0000
,
0302
0000
0000
0000
,
0023
0000
0000
0000
,
0130
0000
0000
0100
,
1000
0000
0000
0010
,
0100
0000
0000
0001
,
0010
0000
0000
0100
,
1000
0000
0000
0001
,
1000
0000
0000
0010
,
0100
0000
0000
0001
,
0010
0000
0000
0100
,
1000
0000
0000
0001
,
0100
0000
0000
0010
,
1000
0000
0000
0100
,
0010
0000
0000
0001
,
1000
0000
0000
0010
,
0100
0000
0000
0001
,
1000
0000
0000
0100
,
0010
0000
0001
1000
,
0001
0001
0001
0000
,
0001
0001
0001
0000
,
2000
0000
3002
0000
,
2000
0000
0010
3013
,
1000
0001
0000
0001
,
0100
0010
0100
0010
,
1000
0010
0000
0010
,
0100
0001
0100
0001
,
0010
0001
0000
0001
,
1000
0100
1000
0100
,
1000
0010
0000
0010
,
0100
0001
0100
0001
,
0010
0001
0000
0001
,
1000
0100
1000
0100
,
1000
0010
0000
0010
,
0100
0001
0100
0001
,
0010
0001
0000
0001
,
1000
0100
0010
0001
,
1000
0100
1000
0100
,
1000
0001
0000
2000
,
0000
0000
0000
0000
,
3001
0000
0001
0100
,
0010
0000
0010
0000
,
1000
0000
0100
1000
,
0001
0000
0001
0000
,
0010
0000
0001
1000
,
0010
0000
0010
0000
,
0100
0010
1000
0001
,
0020
0000
0000
0000
,
0032
0000
2003
3020
0030
0000
0000
0000
;
