#TITLE:Anarchy;
#SUBTITLE:;
#ARTIST:Sigma;
#TITLETRANSLIT:;
#SUBTITLETRANSLIT:;
#ARTISTTRANSLIT:;
#CRChallenge:;
#BANNER:anarchy.png;
#BACKGROUND:anarchy-bg.png;
#LYRICSPATH:;
#CDTITLE:;
#MUSIC:anarchy.ogg;
#OFFSET:0.000;
#SAMPLESTART:28.212;
#SAMPLELENGTH:12.000;
#SELECTABLE:YES;
#BPMS:0.000=340.278,316.000=170.139,318.000=340.278;
#STOPS:;
#BGCHANGES:;
#NOTES:
     dance-single:
     Renard:
     Challenge:
     14:
     1.000,1.000,0.626,0.177,0.000:
0000
0000
0000
0000
,
0000
0000
0000
0000
,
0000
0000
0000
0000
,
0000
0000
0000
0000
,
0000
0000
0000
0000
,
0000
0000
0000
0000
,
0000
0000
0000
0000
,
0000
0000
0000
0000
,
0010
1000
0010
1000
0001
0100
0001
0100
,
0010
0001
0010
0001
1000
0100
1000
0100
,
0010
1000
0010
1000
0001
0100
0001
0100
,
0010
0001
0010
0001
1000
0000
0100
0000
,
0010
0001
1000
0100
0010
1000
0001
0100
,
0001
1000
0010
0001
1000
0100
0010
0001
,
1000
0100
0010
1000
0001
0100
0001
1000
,
0010
0100
1000
0000
1001
0000
1001
0000
,
0001
1000
0100
1000
0001
0000
0001
0010
,
0000
1000
0010
0000
0001
0000
1000
0000
,
0100
1000
0100
1000
0100
0000
0100
1000
,
0000
1000
0001
0000
0010
0000
1000
0000
,
0001
0100
0001
1000
0010
0000
0010
0001
,
0000
0001
1000
0000
0100
0000
1000
0000
,
0001
0010
0001
1000
0100
0000
0100
1000
,
0000
1000
0010
0000
1000
0000
0100
0000
,
0001
0100
0001
0100
0001
0000
0001
0010
,
0000
0010
0001
0000
0100
0000
1000
0000
,
0001
0010
0001
1000
0100
0000
0100
1000
,
0000
1000
0001
0000
0010
0000
1000
0000
,
0001
0100
0001
1000
0010
0000
0010
1000
,
0000
1000
0100
0000
1000
0000
0010
0000
,
0010
1000
0001
0100
0001
0000
0001
0010
,
0000
0010
0001
0000
0100
1000
0100
0000
,
0100
0000
0010
1000
0010
0000
0001
0000
,
1000
0000
0100
0001
0100
1000
0001
0010
,
1000
0000
0010
0001
1000
0000
0100
0010
,
0001
1000
0100
0010
0001
0000
1000
0100
,
1000
0000
0001
0010
1000
0000
0010
0000
,
1000
0000
0010
0001
1000
0100
1000
0001
,
0010
0000
0100
1000
0001
0000
1000
0100
,
0001
1000
0010
0001
1000
0000
1000
0100
,
1100
0000
0000
1100
,
0110
0000
0111
0000
,
0000
1010
0000
0101
,
0101
0000
0011
0000
,
1110
0000
0000
0100
,
0111
0000
0000
1000
,
1101
0001
1011
0001
,
2002
0000
0000
3003
,
0010
1000
0010
1000
0001
0100
0001
0100
,
0010
0001
0010
0001
1000
0100
1000
0100
,
0010
0001
1000
0100
0001
0000
0001
1000
,
0000
1000
0010
0001
1000
0100
0010
0001
,
1000
0100
1000
0100
0010
0001
0010
0001
,
1000
0001
1000
0001
1000
0100
1000
0100
,
0001
0100
0001
0100
1000
0000
1000
0001
,
0000
0001
0010
0000
0001
0000
1000
0000
,
0100
1000
0100
1000
0001
0010
0001
0010
,
1000
0010
1000
0010
0100
0001
0100
0001
,
0100
1000
0001
0010
1000
0000
1000
0010
,
0000
0010
0001
0000
1000
0000
0100
0000
,
0010
0001
1000
0100
1000
0001
0010
1000
,
0001
0100
0001
1000
0010
0001
1000
0100
,
1000
0100
1000
0100
0010
0001
1000
0100
,
0010
0001
1000
0000
0110
0000
0000
0000
,
0010
0000
1000
0010
0001
0000
1000
0000
,
0001
1000
0001
1000
0001
0000
0010
0001
,
0010
0000
0100
1000
0100
1000
0001
0010
,
1000
0010
0001
1000
,
0100
0000
1000
0001
0010
0000
0001
1000
,
0100
1000
0001
0010
0000
0010
1000
0010
,
0001
0000
1000
0001
1000
0100
0001
0000
,
0100
0010
0011
0000
,
1110
0000
0000
0101
,
1010
0000
0000
0011
,
1110
0000
0000
0101
,
0111
0000
0000
0010
,
1011
0000
1101
0000
,
0110
0000
1011
0000
,
1001
1001
0110
0110
,
2002
0000
3003
0000
0010
1000
0010
0001
,
1000
0000
1000
0100
0000
0100
0001
0000
,
0100
0000
1000
0000
0001
0010
1000
0001
,
0100
0001
1000
0010
0001
1000
0100
1000
,
0001
1000
0001
0010
0100
1000
0100
1000
,
0001
0000
0001
0010
0000
0010
1000
0000
,
0010
0000
0001
0000
1000
0100
1000
0001
,
0010
1000
0001
0100
0001
1000
0010
0001
,
1000
0100
1000
0001
1000
0001
0010
0001
,
1000
0000
1000
0100
0000
0100
0001
0000
,
1000
0000
0010
0000
1000
0001
0100
0001
,
1000
0010
0001
1000
0100
1000
0001
0010
,
1000
0010
0001
1000
0100
0001
0100
0001
,
0100
0000
0100
1000
0000
1000
0001
0000
,
0010
0000
1000
0000
0001
1000
0010
0001
,
1000
0000
1000
0100
0000
0001
0100
0000
,
0010
0000
1000
0000
0010
1000
0010
0100
,
0001
0000
0001
0100
0000
0100
0010
0000
,
0100
0000
0010
0000
1000
0010
1000
0010
,
0100
0000
0100
0001
0000
0001
0100
0000
,
0010
0000
1000
0000
0010
0100
0001
0100
,
0010
0000
0010
1000
0000
1000
0010
0000
,
0100
0000
0001
0000
0100
0001
0100
0001
,
0100
0000
0100
0010
0000
0010
1000
0000
,
0010
1000
2020
0000
,
0000
3131
0000
0000
,
2200
0000
0000
3311
,
0000
0000
0000
0000
0011
0000
0010
0001
,
0010
0011
0220
0000
,
0000
1331
0000
0000
,
2002
0000
0000
3113
,
0000
0000
0011
0000
,
0110
0000
1010
0000
,
0000
0011
0000
0000
,
1110
0000
0111
0110
,
1110
0110
2002
0020
,
3133
0000
0000
0000
;
