#TITLE:Amber Starlight;
#SUBTITLE:;
#ARTIST:Jackal Queenston;
#TITLETRANSLIT:;
#SUBTITLETRANSLIT:;
#ARTISTTRANSLIT:;
#CRChallenge:;
#BANNER:amber.png;
#BACKGROUND:amber-bg.png;
#LYRICSPATH:;
#CDTITLE:;
#MUSIC:amber.ogg;
#OFFSET:0.000;
#SAMPLESTART:22.490;
#SAMPLELENGTH:12.000;
#SELECTABLE:YES;
#BPMS:0.000=170.140;
#STOPS:;
#BGCHANGES:;
#NOTES:
     dance-single:
     Renard:
     Medium:
     11:
     0.803,0.813,0.244,0.466,0.638:
0000
0000
0000
0000
,
0000
0000
0000
0000
,
0000
0000
0000
0000
,
0000
0000
0000
0000
,
0000
0000
0000
0000
,
0000
0000
0000
0000
,
0000
0000
0000
0000
,
0000
0000
0000
0000
,
1000
0000
0100
0000
0011
0000
0100
1000
0000
0010
0100
0000
0101
0000
0000
0000
,
0001
0000
0100
0000
1010
0000
0100
0001
0000
0010
0100
0000
1100
0000
0000
0000
,
1000
0000
0100
0000
0011
0000
0100
1000
0000
0010
0100
0000
0101
0000
0000
0000
,
0001
0000
0100
0000
1010
0000
0100
0001
0000
0010
0100
0000
1100
0000
0000
0000
,
0001
0000
0010
0000
1100
0000
0010
0001
0000
0100
0010
0000
1010
0000
0000
0000
,
1000
0000
0010
0000
0101
0000
0010
1000
0000
0100
0010
0000
0011
0000
0000
0000
,
0001
0000
0010
0000
1100
0000
0010
0001
0000
0100
0010
0000
1010
0000
0000
0000
,
1000
0000
0010
0000
0101
0000
0010
1000
0000
0100
0010
0000
0011
0000
0000
0000
,
0001
0010
0001
0000
1000
0000
0001
0100
0001
0000
1000
0000
0001
0010
0001
0000
,
1000
0000
0001
0100
0001
0000
1000
0000
0001
0010
0001
0000
0001
0100
0001
0000
,
1000
0100
1000
0000
0001
0000
1000
0010
1000
0000
0001
0000
1000
0100
1000
0000
,
0001
0000
1000
0010
1000
0000
0001
0000
1000
0100
1000
0000
1000
0010
1000
0000
,
0010
1000
0010
0000
0100
0000
0010
0001
0010
0000
0100
0000
0010
1000
0010
0000
,
0100
0000
0010
0001
0010
0000
0100
0000
0010
1000
0010
0000
0010
0001
0010
0000
,
0100
1000
0100
0000
0010
0000
0100
0001
0100
0000
0010
0000
0100
1000
0100
0000
,
0010
0000
0100
0001
0100
0000
0010
0000
0100
1000
0100
0000
0001
0000
0000
0000
,
1000
0000
0000
0110
0000
0000
0001
0000
0000
0110
0000
0000
1000
0000
0001
0000
,
1000
0000
0100
0000
0010
0000
0001
0000
1000
0100
0001
0100
1000
0000
1000
0000
,
0001
0000
1000
0100
0010
0001
1000
0001
0010
0100
0000
1000
0100
0000
1000
0000
,
0001
0000
0010
0000
0100
0000
1000
0000
0001
0010
1000
0010
0001
0000
1000
0000
,
0001
0000
0000
0110
0000
0000
1000
0000
0000
0110
0000
0000
0001
0000
1000
0000
,
0001
0000
0010
0000
0100
0000
1000
0000
0001
0010
1000
0010
0001
0000
0001
0000
,
1000
0000
0001
0010
0100
1000
0001
1000
0100
0010
0000
0001
0010
0000
0001
0000
,
1000
0000
0100
0000
0010
0000
0001
0000
1000
0100
0001
0100
1000
0000
0000
0000
,
0002
0000
0000
0023
0000
0000
0230
0000
2300
0000
0000
0000
3002
0000
0000
0000
,
0000
0000
0000
0000
0000
0000
0000
0000
0000
0000
0000
0000
0000
0003
1000
0100
,
0020
0000
0000
0032
0000
0000
0023
0000
0230
0000
0000
0000
2300
0000
0000
0000
,
0000
0000
0000
0000
0000
0000
0000
0000
0000
0000
0000
0000
0000
0000
0000
3000
,
0020
0000
0000
0230
0000
0000
0302
0000
0203
0000
0000
0000
0320
0000
0000
0000
,
0000
0000
0000
0000
0000
0000
0000
0000
0000
0000
0000
0000
0000
0030
1000
0010
,
2000
0000
0000
0020
3000
0000
0230
0000
0302
0000
0000
0000
2003
0000
0000
0000
,
0000
0000
0000
0000
,
3002
0000
0000
2003
0000
0000
3200
0000
0302
0000
0000
0000
0203
0000
0000
0000
,
0000
0000
0000
0000
0000
0000
0000
0000
0000
0000
0000
0000
0320
0032
0023
0000
,
2030
0000
0000
3020
0000
0000
0230
0000
0302
0000
0000
0000
0203
0000
0000
0000
,
0000
0000
0000
0000
,
2300
0000
0000
3200
0000
0000
0320
0000
0032
0000
0000
0000
1003
0000
0000
0000
,
0000
0000
0000
0000
,
2000
0000
0000
3200
0000
0000
0320
0000
0032
0000
0000
0000
2000
0000
0000
0000
,
0000
0000
0000
0000
0000
3003
1001
0000
,
0001
0010
0001
0000
1000
0000
0001
0100
0001
0000
1000
0000
0001
0010
0001
0000
,
1000
0000
0001
0100
0001
0000
1000
0000
0001
0010
0001
0000
0001
0100
0001
0000
,
1000
0100
1000
0000
0001
0000
1000
0010
1000
0000
0001
0000
1000
0100
1000
0000
,
0001
0000
1000
0010
1000
0000
0001
0000
1000
0100
1000
0000
1000
0010
1000
0000
,
0010
1000
0010
0000
0100
0000
0010
0001
0010
0000
0100
0000
0010
1000
0010
0000
,
0100
0000
0010
0001
0010
0000
0100
0000
0010
1000
0010
0000
0010
0001
0010
0000
,
0100
1000
0100
0000
0010
0000
0100
0001
0100
0000
0010
0000
0100
1000
0100
0000
,
0010
0000
0100
0001
0100
0000
0010
0000
0100
1000
0100
0000
0100
0001
0100
0000
,
0001
1000
0001
0000
0001
0000
0100
0001
0100
0000
0100
0000
0001
0010
0001
0000
,
0001
0000
1000
0001
1000
0000
1000
0000
0010
0000
0100
0000
0001
0000
0001
0000
,
1000
0001
1000
0000
1000
0000
0010
1000
0010
0000
0010
0000
1000
0100
1000
0000
,
1000
0000
0001
1000
0001
0000
0001
0000
0100
0000
0010
0000
1000
0000
1000
0000
,
0001
0010
0001
0000
1000
0000
0001
0100
0001
0000
1000
0000
0001
0010
0001
0000
,
1000
0000
0001
0100
0001
0000
1000
0000
0001
0010
0001
0000
0001
0100
0001
0000
,
1000
0100
1000
0000
0001
0000
1000
0010
1000
0000
0001
0000
1000
0100
1000
0000
,
0001
0000
1000
0010
1000
0000
0001
0000
1000
0100
1000
0000
0011
0000
0000
0000
;
#NOTES:
     dance-single:
     Renard:
     Easy:
     9:
     0.624,0.601,0.111,0.466,0.116:
0000
0000
0000
0000
,
0000
0000
0000
0000
,
0000
0000
0000
0000
,
0000
0000
0000
0000
,
0000
0000
0000
0000
,
0000
0000
0000
0000
,
0000
0000
0000
0000
,
0000
0000
0000
0000
,
1000
0100
0001
0100
1000
0001
1000
0000
,
0001
0100
1000
0100
0001
1000
0001
0000
,
1000
0100
0001
0100
1000
0001
1000
0000
,
0001
0100
1000
0100
0001
1000
0001
0000
,
1000
0001
0010
1000
0010
0001
1000
0000
,
0001
1000
0010
0001
0010
1000
0001
0000
,
1000
0010
0001
0010
1000
0001
1000
0000
,
0001
0010
1000
0010
0001
1000
0001
0000
,
1000
0100
0010
0100
1000
0010
0100
0010
,
1000
0100
0010
0100
1000
0010
0100
0010
,
1000
0100
0010
0100
1000
0010
0100
0010
,
1000
0100
0010
0100
1000
0010
0100
0010
,
0100
0001
0010
0100
0010
0001
0100
0010
,
0100
0001
0010
0100
0010
0001
0100
0010
,
0100
0001
0010
0100
0010
0001
0100
0010
,
0100
0010
1000
0010
0100
0001
1001
0000
,
1000
0000
0000
0110
0000
0000
0001
0000
0000
0110
0000
0000
1000
0000
0000
0000
,
0001
1000
0010
0100
0001
0010
0100
0000
,
1000
0000
0100
0000
0010
0001
0000
0000
1000
0100
0000
0010
0001
0000
0000
0000
,
1000
0100
0010
0001
0100
0010
1000
0000
,
1000
0000
0000
0110
0000
0000
0001
0000
0000
0110
0000
0000
1000
0000
0000
0000
,
0001
0010
0100
1000
0100
0010
0001
0000
,
0010
0000
0100
0000
1000
0100
0000
0000
0010
0001
0000
0010
0100
0000
0000
0000
,
1000
0100
0010
0001
1000
0000
1001
0000
,
0002
0000
0000
0023
0000
0000
0230
0000
2300
0000
0000
0000
3002
0000
0000
0000
,
0000
0000
0000
0000
0000
0000
0000
0000
0000
0000
0000
0000
0000
0003
1000
0100
,
0020
0000
0000
0032
0000
0000
0023
0000
0230
0000
0000
0000
2300
0000
0000
0000
,
0000
0000
0000
0000
0000
0000
0000
0000
0000
0000
0000
0000
0000
0000
0000
3000
,
0020
0000
0000
0230
0000
0000
0302
0000
0203
0000
0000
0000
0320
0000
0000
0000
,
0000
0000
0000
0000
0000
0000
0000
0000
0000
0000
0000
0000
0000
0030
1000
0010
,
2000
0000
0000
0020
3000
0000
0230
0000
0302
0000
0000
0000
2003
0000
0000
0000
,
0000
0000
0000
0000
,
3002
0000
0000
2003
0000
0000
3200
0000
0302
0000
0000
0000
0203
0000
0000
0000
,
0000
0000
0000
0000
0000
0000
0000
0000
0000
0000
0000
0000
0320
0032
0023
0000
,
2030
0000
0000
3020
0000
0000
0230
0000
0302
0000
0000
0000
0203
0000
0000
0000
,
0000
0000
0000
0000
,
2300
0000
0000
3200
0000
0000
0320
0000
0032
0000
0000
0000
1003
0000
0000
0000
,
0000
0000
0000
0000
,
2000
0000
0000
3200
0000
0000
0320
0000
0032
0000
0000
0000
2000
0000
0000
0000
,
0000
0000
0000
0000
0000
3003
1001
0000
,
0001
0010
0100
0010
0001
0100
0010
0100
,
0001
0010
0100
0010
0001
0100
0010
0100
,
0001
0010
0100
0010
0001
0100
0010
0100
,
0001
0010
0100
0010
0001
0000
1001
0000
,
1000
0100
0010
0100
1000
0010
0100
0010
,
1000
0100
0010
0100
1000
0010
0100
0010
,
1000
0100
0010
0100
1000
0010
0100
0010
,
1000
0100
0010
0100
1000
0000
1001
0000
,
1000
0010
0001
0010
1000
0001
0010
1000
,
0010
0001
1000
0010
0001
0010
1000
0001
,
0010
1000
0010
0001
1000
0010
0001
0010
,
1000
0001
0100
1000
0100
0001
1000
0100
,
1000
0001
0010
0100
1000
0010
0100
0001
,
0010
0100
1000
0100
0001
0100
1000
0000
,
0001
1000
0010
0001
0010
1000
0001
1000
,
0100
0001
0100
1000
0001
1000
0011
0000
;
#NOTES:
     dance-single:
     Renard:
     Beginner:
     6:
     0.406,0.495,0.122,0.089,0.000:
0000
0000
0000
0000
,
0000
0000
0000
0000
,
0000
0000
0000
0000
,
0000
0000
0000
0000
,
0000
0000
0000
0000
,
0000
0000
0000
0000
,
0000
0000
0000
0000
,
0000
0000
0000
0000
,
0001
0000
1000
0000
0100
1000
0100
0000
,
1000
0000
0001
0000
0100
0001
0100
0000
,
0001
0000
1000
0000
0100
1000
0100
0000
,
1000
0000
0001
0000
0100
0001
0100
0000
,
0001
0000
1000
0000
0010
1000
0010
0000
,
1000
0000
0001
0000
0010
0001
0010
0000
,
0001
0000
1000
0000
0010
1000
0010
0000
,
1000
0001
1000
1001
,
0001
0000
0100
0000
0001
0100
0001
0100
,
0001
0100
0001
0100
,
0010
0000
1000
0000
0010
1000
0010
1000
,
0010
1000
0010
1000
,
0100
0000
1000
0000
0100
1000
0100
1000
,
0100
1000
0100
1000
,
0001
0000
0010
0000
0001
0010
0001
0010
,
0001
1000
0001
1001
,
1000
1000
0001
0001
,
0100
0000
0100
0000
0010
0100
0010
0100
,
0010
0010
1000
1000
,
0001
0000
0001
0000
0100
0001
0100
0001
,
1000
1000
0001
0001
,
1000
0000
1000
0000
0100
0010
0100
0010
,
0001
0001
1000
1000
,
0010
0000
0010
0000
0100
0001
0100
0000
,
0010
0010
1000
2000
,
0000
0000
0000
0000
,
3010
0010
0100
0200
,
0000
0000
0000
0000
,
0301
0001
1000
2000
,
0000
0000
0000
0000
,
3100
0100
0010
0020
,
0000
0000
0000
0000
,
0031
0001
1000
2000
,
0000
0000
0000
0000
,
3010
0010
0100
0200
,
0000
0000
0000
0000
,
0301
0001
1000
2000
,
0000
0000
0000
0000
,
3100
0100
0010
0002
,
0000
0000
0000
1003
,
0001
0000
1001
0000
1000
0001
1000
0000
,
0001
0000
1001
0000
1000
0001
1000
0000
,
0010
0000
0110
0000
0010
0100
0010
0000
,
0100
0000
0110
0000
0010
0100
0010
0000
,
1000
0000
1010
0000
0010
1000
0010
1000
,
0010
0000
1010
0000
1000
0010
1000
0000
,
0001
0000
0101
0000
0100
0001
0100
0001
,
0100
0000
0101
0000
0001
0100
0001
0000
,
1000
0000
1000
0000
0001
1000
0001
0000
,
0100
0000
0100
0000
0001
1000
0001
0000
,
0010
0000
0010
0000
0001
1000
0001
0000
,
1000
0000
0001
0000
1000
0001
1000
0000
,
0010
0100
0010
0000
0100
0010
0100
0000
,
0001
0100
0001
0000
0100
0001
0100
0000
,
0001
1000
0001
0000
1000
0100
1000
0000
,
0001
1000
0001
0100
0001
0000
1001
0000
;
