#TITLE:All or Something;
#SUBTITLE:;
#ARTIST:Lollipop;
#TITLETRANSLIT:;
#SUBTITLETRANSLIT:;
#ARTISTTRANSLIT:;
#CRChallenge:;
#BANNER:something-banner.avi;
#BACKGROUND:something-bg.png;
#LYRICSPATH:;
#CDTITLE:!cdtitle.png;
#MUSIC:something.ogg;
#OFFSET:0.000;
#SAMPLESTART:18.504;
#SAMPLELENGTH:12.000;
#SELECTABLE:YES;
#DISPLAYBPM:205.000;
#BPMS:0.000=205.307,120.000=102.654,124.000=205.307,248.000=102.654,250.000=205.307,274.000=102.654,278.000=205.307;
#STOPS:;
#BGCHANGES:;
#NOTES:
     dance-single:
     Renard:
     Medium:
     9:
     0.676,0.683,0.393,0.035,0.012:
0000
0000
0000
0000
,
0000
0000
0000
0000
,
0000
0000
0000
0000
,
0000
0000
0000
0000
,
1000
0000
1000
0100
0000
0100
0010
0000
,
0010
0001
0000
0001
0010
0000
0001
0010
,
0100
0000
0100
1000
0000
1000
0001
0000
,
0100
0010
0100
0010
0100
0000
0010
0000
,
1000
0000
1000
0010
0000
0010
0100
0000
,
0100
0001
0000
0001
0010
0000
0100
1000
,
0001
0000
0001
1000
0000
1000
0100
0000
,
0100
0010
0000
0010
0001
0000
1000
0000
,
0001
0000
0001
0100
0000
0100
0010
0000
,
0010
1000
0000
1000
0001
0000
0001
1000
,
0100
0000
0100
0010
0000
0010
0001
0000
,
0001
1000
0000
1000
0001
0000
0000
0000
,
1000
0000
1000
0100
0000
0000
0100
0000
,
0011
0000
0000
0101
0000
0000
1010
0000
,
1001
1000
0100
0010
,
0001
0010
0100
1000
0001
0010
0100
1000
,
0100
0000
0100
0010
0000
0000
0010
0000
,
0011
0000
0000
0110
0000
0000
1100
0000
,
1001
1000
0001
0100
,
0010
0000
0000
1000
0000
0000
0001
0000
0000
0100
0000
0000
0010
0000
0000
1000
0000
0000
0001
0000
0100
0000
0010
0000
,
1000
0000
0100
1000
0001
0000
0010
0001
,
1000
0000
0010
1000
0100
0010
0001
0000
,
0010
0000
0001
0100
0010
0000
1000
0100
,
0010
0000
0100
1000
0001
0100
0010
0000
,
1000
0000
0001
0010
0100
0000
1000
0010
,
0100
0000
0010
1000
0001
0010
0100
1000
,
0002
0000
0000
0000
,
1003
0100
0010
0001
1000
0000
1000
0000
,
0001
0010
0100
1000
0001
0000
0001
0000
,
1000
0010
0100
0001
1000
0000
1000
0000
,
0001
0100
0010
1000
0001
0000
0001
0000
,
1000
0100
0010
0001
1000
0000
1000
0000
,
0001
0010
0100
1000
0001
0000
0001
0000
,
1000
0010
0100
0001
1000
0010
0100
0001
,
1000
0010
1000
0100
0010
0001
0010
0100
,
1000
0001
0010
0100
1000
0000
0001
0000
,
1000
0100
0010
0001
1000
0000
0001
0000
,
0100
0010
1000
0100
0010
0001
0010
0100
,
1000
0010
0100
0001
0010
0100
1000
0100
,
0010
0001
1000
0001
1000
0000
0001
0000
,
0100
0010
1000
0001
0100
0000
0001
0000
,
1000
0100
0010
0001
0010
0100
1000
0010
,
0100
0001
0010
0100
1000
0000
0000
0000
,
1100
0100
0011
0101
,
0110
0000
0010
0000
1000
0100
0010
0000
,
0011
0010
0110
0100
,
1100
1010
0101
0100
,
0110
0010
1010
1100
,
0110
0000
0010
0000
0001
0010
0100
0000
,
1100
1010
0110
0101
,
0011
0010
0110
0100
,
1100
0000
0001
0010
0100
1000
0100
0000
,
1100
0000
1000
0100
0010
0001
1000
0000
,
0011
0000
0010
0001
0010
0100
1000
0000
,
0011
0000
0001
0010
0100
1000
0001
0000
,
0101
0000
0100
0010
1000
0001
0100
0000
,
0101
0000
0100
0010
1000
0001
0100
0000
,
1010
0000
1000
0010
0100
0001
0010
0100
,
2000
0000
0000
0000
3001
0010
0100
1000
,
0001
0100
0010
1000
0100
0010
0100
1000
,
0001
0010
0100
0010
0001
1000
0010
0100
,
0001
0010
0100
1000
0001
0010
0100
1000
,
0001
0100
0010
1000
0100
1000
0001
0010
,
0100
1000
0001
0100
0010
1000
0100
0010
,
0001
1000
0010
0100
0002
0000
0000
0000
,
0000
0000
0003
0000
;
#NOTES:
     dance-single:
     Renard:
     Easy:
     6:
     0.413,0.522,0.012,0.046,0.000:
0000
0000
0000
0000
,
0000
0000
0000
0000
,
0000
0000
0000
0000
,
0000
0000
0000
0000
,
0000
0000
0000
0000
,
0000
0000
0000
0000
,
0000
0000
0000
0000
,
0000
0000
0000
0000
,
1000
0000
0000
0100
0000
0000
0010
0000
,
0000
0001
0000
0000
1000
0000
0010
0000
,
1000
0000
0000
0001
0000
0000
0100
0000
,
0000
0010
0000
0000
1000
0000
0100
0000
,
0010
0000
0000
0001
0000
0000
1000
0000
,
0000
0010
0000
0000
0100
0000
0001
0000
,
1000
0000
0000
0100
0000
0000
0010
0000
,
0000
0001
0000
0000
1000
0000
0000
0000
,
0001
0100
0001
0000
,
1000
0100
1000
0000
,
0001
0010
0001
0000
,
1000
0000
0010
0000
1000
0001
1000
0000
,
0001
0100
0010
0000
,
1000
0010
0100
0000
,
0010
1000
0001
0100
,
0001
1000
0100
0100
,
1000
0001
0100
0001
,
1000
1000
0001
0001
,
0100
0010
1000
0001
,
0010
0001
0010
0001
0010
0001
0010
0001
,
0010
0010
0001
1000
,
0010
0100
0001
1000
,
0200
0000
0000
0000
,
1300
0100
1000
0100
,
0010
0001
0010
0001
,
1000
0000
0010
0000
1000
0000
0010
1000
,
0001
0000
0100
0000
0001
0000
0100
0001
,
1000
0100
1000
0100
,
0010
0001
0010
0001
,
1000
0000
0010
0000
1000
0000
0010
0100
,
0001
0000
1000
0000
0001
0000
1000
0010
,
0100
0010
1000
0100
,
0010
0001
0010
0100
,
1000
0001
0100
0010
,
1000
0100
1000
0100
1000
0100
1000
0100
,
1000
0010
0100
0001
,
0010
0100
1000
0001
,
0100
0000
0010
0000
0100
0001
0100
0001
,
0100
0001
0100
0000
0001
0000
0000
0000
,
1000
0100
1000
0100
,
1000
0000
0000
0000
0001
1000
0001
0000
,
0100
0100
0010
1000
,
0001
0001
0100
0000
,
0010
0010
1000
0001
,
0100
0000
0000
0000
0001
1000
0001
0000
,
0100
0000
0010
0010
,
1000
0100
0010
0000
,
0001
0010
0100
0010
,
0001
0000
1000
0000
0001
0100
0001
0000
,
1000
0010
0100
0001
,
0010
0000
0100
0000
1000
0010
1000
0000
,
0010
0100
0001
0010
,
0001
0000
1000
0000
0100
0000
1000
0001
,
1000
0001
0100
0010
,
2000
0000
3010
0010
,
1000
1000
0001
0100
,
0001
0100
0010
1000
0001
0000
1000
0000
,
0100
1000
0001
0010
,
0100
1000
0100
0010
0001
0000
1000
0000
,
0001
0100
0010
1000
,
0100
0010
0001
0000
2002
0000
0000
0000
,
0000
0000
3003
0000
;
#NOTES:
     dance-single:
     Renard:
     Beginner:
     2:
     0.243,0.321,0.000,0.046,0.000:
0000
0000
0000
0000
,
0000
0000
0000
0000
,
0000
0000
0000
0000
,
0000
0000
0000
0000
,
0000
0000
0000
0000
,
0000
0000
0000
0000
,
0000
0000
0000
0000
,
0000
0000
0000
0000
,
1000
0000
1000
0000
,
0001
0000
0100
0000
,
0010
0000
0010
0000
,
1000
0000
0001
0000
,
0010
0000
0010
0000
,
0001
0000
1000
0000
,
0010
0000
0010
0000
,
0100
0000
0001
0000
,
1000
0000
0100
0000
,
1000
0000
0001
1000
,
0001
0000
0100
0000
,
0010
0000
1000
0000
,
0001
0000
1000
0000
,
0100
0000
1000
0001
,
0100
0000
0001
0000
,
1000
0000
0100
0000
,
1000
0000
0100
0000
,
0010
0000
0001
1000
,
0001
0000
0100
0000
,
0010
0000
1000
0000
,
0100
0000
1000
0000
,
0001
0000
0010
0001
,
2000
0000
0000
0000
,
3001
0000
0001
0000
,
1000
0000
1000
0000
,
0010
0000
0000
0000
,
0010
0000
0000
0000
,
1000
0000
1000
0000
,
0001
0000
0001
0000
,
0100
0000
0000
0000
,
0100
0000
0000
0000
,
0001
0000
1000
0001
,
1000
0000
0001
0000
,
0100
0000
0010
0100
,
0010
0000
0100
0000
,
0001
0000
1000
0001
,
1000
0000
0001
0000
,
0100
0010
0100
0010
,
0200
0000
0000
0000
,
0301
0000
0001
1000
,
0100
0000
1000
0001
,
0100
0000
0001
1000
,
0100
0000
1000
0000
,
0001
0000
1000
0001
,
0010
0000
0001
1000
,
0010
0000
1000
0001
,
0010
0000
0001
0000
,
1000
1000
0001
0000
,
0001
0001
1000
0000
,
0010
0010
1000
0000
,
0001
0001
0100
0000
,
0001
0001
0010
0000
,
0100
0100
1000
0000
,
0010
1000
0001
0100
,
0020
0000
1030
0000
,
1000
0000
0001
0000
,
0001
0000
0100
0000
,
0100
0000
0010
1000
,
0100
0010
0001
0000
,
0001
0000
0010
0100
,
1000
0001
0200
0000
,
0000
0000
0300
0000
;
