#TITLE:All or Something EX;
#SUBTITLE:;
#ARTIST:Lollipop;
#TITLETRANSLIT:;
#SUBTITLETRANSLIT:;
#ARTISTTRANSLIT:;
#CRChallenge:;
#BANNER:all.png;
#BACKGROUND:all-bg.png;
#LYRICSPATH:;
#CDTITLE:;
#MUSIC:all.ogg;
#OFFSET:0.000;
#SAMPLESTART:3.396;
#SAMPLELENGTH:12.000;
#SELECTABLE:NO;
#BPMS:0.000=135.000;
#STOPS:199.500=0.889
;
#BGCHANGES:;
#NOTES:
     dance-single:
     Renard:
     Hard:
     10:
     0.697,0.674,0.448,0.563,0.516:
0000
0000
0000
0000
,
0000
0000
0000
0000
,
0001
0010
1000
0010
0000
1010
0000
0011
,
0000
0000
0001
0000
0010
0000
0000
0000
0100
1000
0000
1001
0000
1010
0000
0000
,
1000
0000
0100
0010
0000
0011
0000
0110
,
0000
0000
0100
0000
1000
0000
0010
0000
0100
0001
0000
0101
0000
0110
0000
0000
,
0010
0000
1000
0100
0000
0110
0000
0011
,
0000
0000
0010
0000
0100
0000
1000
0000
0001
0100
0000
0110
0000
0101
0000
0000
,
0100
0000
0010
1000
0000
1100
0000
0110
,
0000
0000
0010
0000
0100
0000
1000
0000
0001
0100
0000
0110
0000
0101
0000
0000
,
0100
0000
0001
0000
1000
0000
0000
1100
0000
0110
0000
0011
0000
0000
0000
0000
,
1000
0000
0100
0000
0010
0000
0000
0011
0000
0110
0000
1100
0000
0000
0000
0000
,
1000
0000
0010
0000
0100
0000
0000
0101
0000
0110
0000
1010
0000
0000
0000
0000
,
0001
0000
0100
0000
0010
0000
0000
1010
0000
0110
0000
0101
0000
0000
0000
0000
,
0001
0100
0010
0000
1000
0000
0000
1010
0000
1001
0000
1100
0000
0000
0000
0000
,
1000
0100
0010
0000
0011
0000
0000
0010
0000
0100
0000
1000
0000
0000
0000
0000
,
1000
0100
0010
0000
0001
0000
0000
0110
0000
0110
0000
0011
0000
0000
0000
0000
,
0010
0001
0010
0000
0110
0000
0000
0100
0000
1000
0000
0010
0000
0000
0000
0000
,
1000
0000
0001
0100
0000
0010
0000
0000
,
1000
0000
0010
0100
0000
0101
0000
0000
,
0100
0000
0010
1000
0000
0100
0000
0000
,
2000
0200
0020
3331
0000
1100
0011
0000
,
0001
0000
1000
0010
0000
0100
0000
0000
,
0001
0000
0100
0010
0000
1010
0000
0000
,
0010
0000
0100
0001
0000
0010
0000
0000
,
0002
0200
0020
1333
0000
0101
1010
0000
,
0020
0000
1030
0000
0200
0000
0320
0000
0031
0000
2000
0000
3010
0000
0100
0001
,
0200
0000
0000
0310
0000
0000
1000
0000
0000
0100
0000
0000
0010
0000
0000
0001
0000
0000
0010
0000
0000
0001
0010
0100
,
2000
3100
2000
3020
0130
0002
0013
0002
,
0013
0000
0000
0200
0000
0000
1300
0100
0010
0001
0000
0000
1000
0000
0000
0001
0000
0000
1000
0000
0000
0000
0000
0000
,
0020
0000
1030
0000
0200
0000
0320
0000
0031
0000
2000
0000
3010
0000
0100
0001
,
0200
0000
0000
0310
0000
0000
1000
0000
0000
0100
0000
0000
0010
0000
0000
0001
0000
0000
0010
0000
0000
0001
0010
0100
,
2000
3100
2000
3020
0130
0002
0013
0002
,
0013
0000
0000
0200
0000
0000
1300
0100
0010
0001
0000
0000
1000
0000
0000
0001
0000
0000
1000
0000
0000
0000
0000
0000
,
0001
0100
0010
1000
0000
0000
0000
0100
0001
0100
1000
0000
0000
0000
0000
0000
,
0010
1000
0001
0010
0000
0000
0000
0010
0100
0001
0100
0000
0000
0000
0000
0000
,
1000
0010
0100
1000
0000
0000
0000
0100
0001
0100
0010
0000
0000
0000
0000
0000
,
1000
0010
0001
0010
0000
0000
0000
0100
1000
0100
0001
0100
0010
1000
0010
0000
,
1000
0100
0001
0100
0000
0000
0000
0010
0001
0010
1000
0000
0000
0000
0000
0000
,
0010
0100
1000
0010
0000
0000
0000
0100
1000
0100
0001
0000
0000
0000
0000
0000
,
0100
0010
1000
0100
0000
0000
0000
0001
0100
0010
0001
0000
0000
0000
0000
0000
,
1000
0010
0100
1000
0000
0000
0000
0100
0010
1000
0100
0010
0001
0010
0100
0000
,
2000
0000
3001
0000
0020
0000
0230
0000
1300
0000
0002
0000
0103
0000
0010
1000
,
0020
0000
0000
0130
0000
0000
0001
0000
0000
0010
0000
0000
0100
0000
0000
1000
0000
0000
0100
0000
0000
1000
0100
0010
,
0002
0013
0002
0203
0310
2000
3100
2000
,
3100
0000
0000
0020
0000
0000
0031
0010
0100
1000
0000
0000
0001
0000
0000
1000
0000
0000
0001
0000
0000
0000
0000
0000
,
0200
0000
0301
0000
0020
0000
0230
0000
1300
0000
0002
0000
0103
0000
0010
1000
,
0020
0000
0000
0130
0000
0000
0001
0000
0000
0010
0000
0000
0100
0000
0000
1000
0000
0000
0100
0000
0000
1000
0100
0010
,
0002
0013
0002
0203
0310
2000
3100
2000
,
3100
0000
0000
0020
0000
0000
0031
0010
0100
1000
0000
0000
0001
0000
0000
1000
0000
0000
0001
0000
0000
1000
0000
0000
,
0002
0000
0000
0203
0000
0000
0310
0000
0000
2000
0000
0000
3100
0000
0000
0020
0000
0000
0031
0010
0100
1000
0000
0000
,
0001
0000
0001
0000
1000
0000
1000
0000
0001
0100
0010
0000
1001
0000
0000
0000
;
