#TITLE:All That You Are;
#SUBTITLE:;
#ARTIST:D. Kay;
#TITLETRANSLIT:;
#SUBTITLETRANSLIT:;
#ARTISTTRANSLIT:;
#CRChallenge:;
#BANNER:you.png;
#BACKGROUND:you-bg.png;
#LYRICSPATH:;
#CDTITLE:!cdtitle.png;
#MUSIC:you.ogg;
#OFFSET:0.000;
#SAMPLESTART:69.284;
#SAMPLELENGTH:12.000;
#SELECTABLE:YES;
#BPMS:0.000=173.000;
#STOPS:;
#BGCHANGES:;
#NOTES:
     dance-single:
     Renard:
     Hard:
     9:
     0.586,0.667,0.590,0.200,0.134:
0000
0000
0000
0000
,
0000
0000
0000
0000
,
0000
0000
0000
0000
,
0000
0000
0000
0000
,
0000
0000
0000
0000
,
0000
0000
0000
0000
,
0000
0000
0000
0000
,
0000
0000
0000
0000
,
0000
0000
0000
0000
,
0000
0000
0000
2000
0000
0000
3100
0000
0100
0020
0000
0000
,
0032
0000
0000
2003
0000
3020
0000
0000
0000
0230
0000
0000
,
0000
0000
0000
0310
0000
0010
1000
0000
2000
0000
0000
3002
,
0000
0000
0000
0203
0000
0320
0000
0000
0000
0000
0000
0000
,
0000
0000
0000
0000
0000
0000
0000
0000
0030
1000
0010
0100
,
0002
0000
0000
0203
0000
0320
0000
0000
0000
2030
0000
3200
,
0000
0000
0320
0000
0000
0032
0000
0000
0023
0000
0230
0000
,
2300
0000
0000
0000
0000
0000
0000
0000
3000
0000
0100
0000
0020
0000
0000
0000
0032
0000
0000
0000
0003
0010
0000
0000
,
0100
0000
0000
0000
,
0000
0000
0000
0000
0000
1100
0000
0011
,
0000
0000
0001
0100
1000
0000
0001
0010
,
0000
1010
0000
0000
1000
0100
0001
0100
,
0000
0000
0010
0001
0010
1000
0010
0001
,
0000
0010
0000
0100
0001
0100
1000
0010
,
0000
0001
0010
0100
1000
0000
0100
0001
,
0000
0010
0000
0000
0100
0001
0100
1000
,
0000
0010
0100
0001
0100
1000
0100
0010
,
0000
1000
0000
0010
0000
0001
0010
1000
,
0100
0000
0010
0001
0010
0000
0100
0001
,
0000
1100
0000
0000
0000
1010
0000
0011
,
0000
0001
0010
1000
0100
0000
0001
0100
,
0000
0011
0000
0000
0000
0011
0000
1010
,
0000
0000
1000
0010
0100
0001
0100
1000
,
0000
1100
0000
0000
0000
0101
0000
1100
,
0000
0000
1000
0010
0001
0010
0100
1000
,
0000
0101
0000
0000
0000
0110
0000
1001
,
0000
0000
0110
0000
0010
1000
0100
0000
,
0010
0001
0100
0000
0010
1000
0100
0000
,
0010
0000
1001
0000
0010
0001
0100
0000
,
0010
1000
0100
0000
1000
0000
1001
0000
,
0100
0000
1001
0000
0010
0001
0100
0000
,
0010
1000
0100
0000
0010
0000
1001
0000
,
0100
0000
1001
0000
0010
0001
0100
0000
,
0010
1000
0100
0010
0001
0000
1000
0000
,
0101
0110
1100
0110
,
0010
1000
0100
0010
0001
0000
0010
0000
,
0100
1100
0010
0011
,
0001
0010
0100
0000
1000
0010
0100
0000
,
1100
0110
0101
0110
,
0010
1000
0100
0000
0010
0001
0010
0000
,
0100
1000
0001
0000
0100
0010
1000
0000
,
0002
0000
0100
1000
0010
0000
0013
0000
,
0010
0000
0100
0000
1000
0000
0000
1000
0001
0000
0100
0000
0010
0000
0000
0000
,
1000
0000
0010
0000
0100
0000
0000
0100
0010
0000
1000
0000
0100
0000
0010
0000
,
0001
0000
0010
0000
0100
0000
0000
0100
1000
0000
0001
0000
0100
0000
0000
0000
,
0010
1000
0001
0000
0100
0010
1000
0000
,
0001
0000
0010
0000
0100
0000
0000
0100
1000
0000
0001
0000
0100
0000
0010
0000
,
1000
0000
0010
0000
0100
0000
0000
0100
0010
0000
1000
0000
0100
0000
0010
0000
,
0001
0000
0010
0000
0100
0000
0000
0100
1000
0000
0001
0000
0100
0000
0010
0000
,
1000
0100
0010
0000
0001
0010
0100
0000
,
1000
0000
0001
0000
0100
0000
0000
0100
0010
0000
1000
0000
0100
0000
0010
0000
,
0001
0000
1000
0000
0100
0000
0000
0100
1000
0000
0001
0000
0010
0000
0100
0000
,
1000
0000
0001
0000
0100
0000
0000
0100
0010
0000
1000
0000
0100
0000
0010
0000
,
0001
0000
0010
0000
0100
0000
0000
0100
1000
0000
0001
0000
0100
0000
0000
0100
,
0010
0000
1000
0000
0100
0000
0000
0100
0010
0000
0001
0000
0100
0000
0000
0100
,
0010
0000
1000
0000
0100
0000
0000
0100
0010
0000
0001
0000
0100
0000
0000
0100
,
0010
1000
0100
0010
0001
0010
0100
0000
,
1000
0001
0100
0010
1000
0100
0010
0000
,
0011
0000
0110
0000
0000
1100
0000
1001
,
0000
0101
0000
0011
0000
0001
0010
0100
,
1000
0000
0011
0000
0000
1100
0000
1001
,
0000
0110
0000
0010
1000
0100
0010
0000
,
0011
0000
1100
0000
0000
1100
0000
0101
,
0000
0110
0000
0110
0000
0010
0100
1000
,
0001
0000
0101
0000
0000
1001
0000
1100
,
0000
1001
0000
1000
0100
0010
0001
0000
,
1100
0000
0011
0000
0000
1001
0000
0110
,
0000
1010
0000
0101
0000
0100
0010
1000
,
0100
0000
0110
0000
0000
0011
0000
1100
,
0000
1001
0000
0001
0100
0010
1000
0000
,
1100
0000
1001
0000
0000
0101
0000
0110
,
0000
1010
0000
0101
0000
0001
0100
0010
,
1001
0000
0000
0000
;
#NOTES:
     dance-single:
     Renard:
     Medium:
     8:
     0.566,0.667,0.590,0.200,0.069:
0000
0000
0000
0000
,
0000
0000
0000
0000
,
0000
0000
0000
0000
,
0000
0000
0000
0000
,
0000
0000
0000
0000
,
0000
0000
0000
0000
,
0000
0000
0000
0000
,
0000
0000
0000
0000
,
0000
0000
0000
0000
,
0000
0000
0000
0002
0000
0000
0013
0000
0010
0200
0000
0000
,
2300
0000
0000
3002
0000
0203
0000
0000
0000
0320
0000
0000
,
0000
0000
0000
0130
0000
0100
0001
0000
0002
0000
0000
2003
,
0000
0000
0000
3020
0000
0230
0000
0000
0000
0000
0000
0000
,
0000
0000
0000
0000
0000
0000
0000
0000
0300
0001
0100
0010
,
2000
0000
0000
3020
0000
0230
0000
0000
0000
0302
0000
0023
,
0000
0000
0230
0000
0000
2300
0000
0000
3200
0000
0320
0000
,
0032
0000
0000
0000
0000
0000
0000
0000
0003
0000
0010
0000
0200
0000
0000
0000
2300
0000
0000
0000
3000
0100
0000
0000
,
0010
0000
0000
0000
,
0000
0000
0000
0000
0000
0011
0000
1100
,
0000
0000
1000
0010
0001
0000
1000
0100
,
0000
0101
0000
0000
0001
0010
1000
0010
,
0000
0000
0100
1000
0100
0001
0100
1000
,
0000
0100
0000
0010
1000
0010
0001
0100
,
0000
1000
0100
0010
0001
0000
0010
1000
,
0000
0100
0000
0000
0010
1000
0010
0001
,
0000
0100
0010
1000
0010
0001
0010
0100
,
0000
0001
0000
0100
0000
1000
0100
0001
,
0010
0000
0100
1000
0100
0000
0010
1000
,
0000
0011
0000
0000
0000
0101
0000
1100
,
0000
1000
0100
0001
0010
0000
1000
0010
,
0000
1100
0000
0000
0000
1100
0000
0101
,
0000
0000
0001
0100
0010
1000
0010
0001
,
0000
0011
0000
0000
0000
1010
0000
0011
,
0000
0000
0001
0100
1000
0100
0010
0001
,
0000
1010
0000
0000
0000
0110
0000
1001
,
0000
0000
0110
0000
0100
0001
0010
0000
,
0100
1000
0010
0000
0100
0001
0010
0000
,
0100
0000
1001
0000
0100
1000
0010
0000
,
0100
0001
0010
0000
0001
0000
1001
0000
,
0010
0000
1001
0000
0100
1000
0010
0000
,
0100
0001
0010
0000
0100
0000
1001
0000
,
0010
0000
1001
0000
0100
1000
0010
0000
,
0100
0001
0010
0100
1000
0000
0001
0000
,
1010
0110
0011
0110
,
0100
0001
0010
0100
1000
0000
0100
0000
,
0010
0011
0100
1100
,
1000
0100
0010
0000
0001
0100
0010
0000
,
0011
0110
1010
0110
,
0100
0001
0010
0000
0100
1000
0100
0000
,
0010
0001
1000
0000
0010
0100
0001
0000
,
2000
0000
0010
0001
0100
0000
3100
0000
,
0010
0001
1000
0000
0010
1000
0001
0000
,
0010
0001
1000
0000
0010
1000
0001
0000
,
0100
0001
1000
0000
0100
1000
0001
0000
,
0100
0001
1000
0000
0100
1000
0001
0000
,
0010
0001
0100
0000
0010
1000
0100
0000
,
0010
0001
0100
0000
0010
1000
0100
0000
,
0100
1000
0010
0000
0100
0001
0010
0000
,
0100
1000
0010
0000
0100
0001
0010
0000
,
0001
0010
0001
1000
0010
1000
0001
0000
,
1000
0010
1000
0001
0010
0001
1000
0000
,
0001
0010
0001
1000
0010
1000
0001
0000
,
1000
0010
1000
0001
0010
0001
1000
0000
,
0001
0100
0001
1000
0100
1000
0001
0000
,
0100
0001
1000
0100
1000
0001
0100
0000
,
0001
1000
0100
0010
0001
0010
0100
0000
,
1000
0001
0100
0010
1000
0100
0010
0000
,
0011
0000
0110
0000
0000
1100
0000
1001
,
0000
0101
0000
0011
0000
0001
0010
0100
,
1000
0000
0011
0000
0000
1100
0000
1001
,
0000
0110
0000
0010
1000
0100
0010
0000
,
0011
0000
1100
0000
0000
1100
0000
0101
,
0000
0110
0000
0110
0000
0010
0100
1000
,
0001
0000
0101
0000
0000
1001
0000
1100
,
0000
1001
0000
1000
0100
0010
0001
0000
,
1100
0000
0011
0000
0000
1001
0000
0110
,
0000
1010
0000
0101
0000
0100
0010
1000
,
0100
0000
0110
0000
0000
0011
0000
1100
,
0000
1001
0000
0001
0100
0010
1000
0000
,
1100
0000
1001
0000
0000
0101
0000
0110
,
0000
1010
0000
0101
0000
0001
0100
0010
,
1001
0000
0000
0000
;
#NOTES:
     dance-single:
     Renard:
     Easy:
     5:
     0.384,0.492,0.130,0.078,0.000:
0000
0000
0000
0000
,
0000
0000
0000
0000
,
0000
0000
0000
0000
,
0000
0000
0000
0000
,
0000
0000
0000
0000
,
0000
0000
0000
0000
,
0000
0000
0000
0000
,
0000
0000
0000
0000
,
0000
0000
0000
0000
,
2000
0100
0100
0010
,
0010
0000
0001
0000
,
3002
1000
1000
0100
,
0010
0000
0010
0000
,
2003
0000
3200
0000
,
0320
0000
0032
0000
,
2003
0000
0000
0000
,
3010
0000
0100
0000
,
1001
0000
0000
0000
,
0000
0000
0000
0000
,
1000
0000
0001
0000
0000
0100
0001
0000
,
1000
0000
0010
0000
0000
1000
0001
0000
,
0010
0000
0001
0000
0000
0100
0001
0000
,
1000
0000
0001
0000
0000
0010
0001
0000
,
0100
0000
0010
0000
0000
0100
0001
0000
,
0010
0000
0100
0000
0000
0010
0001
0000
,
1000
0000
0010
0000
0000
0100
0010
0000
,
1000
0000
0100
0000
0000
0010
0100
0000
,
1000
0000
1000
0000
0001
0000
0001
0100
,
0000
0101
0000
0000
0000
0000
0000
0000
,
0001
0000
1000
0000
0100
0000
0010
0001
,
0000
0011
0000
0000
0000
0000
0010
0000
,
0100
0000
1000
0000
0001
0000
0100
0010
,
0000
0110
0000
0000
0000
0000
0010
0000
,
1000
0000
0100
0000
0010
0000
0001
1000
,
0000
1001
0000
0000
1000
0000
0100
0000
,
0010
0010
0001
0001
,
0100
0010
1000
0100
,
0010
0010
0100
1000
,
0010
0010
0100
0001
,
0010
0001
1000
0100
,
0010
0000
0001
1000
0001
0000
0100
0000
,
0010
1000
0001
0010
,
0100
0000
1000
0000
0001
0100
0001
0000
,
1000
0100
0010
0001
,
1000
0010
1000
0000
0001
0100
0001
0000
,
1000
0100
0010
0001
,
1000
0010
0100
0001
,
1000
0100
0010
0001
,
0100
0001
0100
0000
0010
0100
0010
0000
,
1000
0010
1000
0000
0100
1000
0100
0000
,
1001
0101
1001
1100
,
1000
0000
0100
0000
1000
0000
0010
1000
,
0010
0000
1000
0000
0100
0000
1000
0010
,
1000
0000
0001
0000
0100
0000
0001
0010
,
0001
0100
0001
0010
,
0100
0100
0010
0010
,
0001
1000
0010
0100
,
0001
0000
0001
1000
0100
0000
0100
1000
,
0001
0000
0001
0100
0010
0000
1000
0000
,
0001
0001
1000
0100
,
1000
1000
0001
0100
,
0001
0001
1000
0100
,
1000
1000
0001
0010
,
0001
1000
0010
1000
,
0001
0100
0001
1000
,
0100
0010
0001
1000
,
2002
0000
0000
3003
,
1001
0000
1001
0000
0000
1000
0000
0100
,
0000
0010
0000
0000
0001
1000
0001
0100
,
0001
0000
1001
0000
0000
0100
0000
1000
,
0000
0001
0000
0010
0001
1000
0001
0100
,
0001
0000
1001
0000
0000
1000
0000
0100
,
0000
1000
0000
0001
1000
0100
1000
0001
,
1000
0000
0001
0000
0000
0100
0000
0001
,
0000
1000
0000
0100
1000
0001
0010
0000
,
1001
0000
1000
0000
0000
0100
0000
0010
,
0000
0001
0000
1000
0001
0100
0001
1000
,
0100
0000
1000
0000
0000
0001
0000
0010
,
0000
0100
0000
1000
0001
1000
0010
0100
,
0001
0000
1000
0000
0000
0010
0000
0010
,
0000
0100
0000
0001
0000
1000
0100
0000
,
0010
0000
0000
0000
;
#NOTES:
     dance-single:
     Renard:
     Beginner:
     3:
     0.260,0.316,0.061,0.052,0.000:
0000
0000
0000
0000
,
0000
0000
0000
0000
,
0000
0000
0000
0000
,
0000
0000
0000
0000
,
0000
0000
0000
0000
,
0000
0000
0000
0000
,
0000
0000
0000
0000
,
0000
0000
0000
0000
,
0000
0000
0000
0000
,
0001
0000
0000
0000
,
0000
0000
1000
0000
,
0010
0000
0000
0000
,
0000
0000
0000
0000
,
0100
0000
0000
0000
,
0000
0000
0001
0000
,
1000
0000
0000
0000
,
0000
0000
0000
0000
,
1001
0000
0000
0000
,
0000
0000
0000
0000
,
0001
0000
0001
0000
,
1000
0100
0010
0001
,
1000
0000
1000
0000
,
0001
0010
0100
1000
,
0010
1000
0010
1000
,
0001
0100
0001
0100
,
0001
0010
0100
1000
,
0001
1000
0001
0000
,
1000
0000
1000
0000
,
0010
0100
0001
1000
,
0001
0000
0001
0000
,
1000
0010
0100
0001
,
1000
0000
1000
0001
,
0100
0010
1000
0001
,
1000
0010
0100
0001
,
1000
1001
0001
1001
,
1000
0000
0100
0000
,
0010
0001
1000
0010
,
0100
0000
0100
0000
,
0100
0000
0100
0000
,
0010
0000
0010
0000
,
1000
0100
0010
0001
,
0010
0000
0010
0000
,
0010
0000
0010
0100
,
1000
0000
1000
0001
,
0100
0000
0100
0001
,
1000
0010
1000
0001
,
0010
0100
1000
0001
,
0100
0000
0100
0010
,
1000
0001
0010
0100
,
1000
0100
0010
0001
,
1000
0010
0100
0001
,
2000
0000
0000
0000
,
3010
1000
0001
0200
,
0000
0320
0000
0000
,
1030
0100
0010
0001
,
0010
0000
0100
0000
,
1000
0010
0100
0002
,
0000
2003
0000
3020
,
0000
0130
0001
0100
,
0010
1000
0100
0000
,
0010
0001
0010
0100
,
1000
0000
0001
0000
,
0100
0010
1000
0010
,
0100
0000
0001
1000
,
0100
0010
0001
0010
,
0100
0000
0100
0000
,
1000
0010
0100
0001
,
0100
0000
0010
0000
,
0010
0000
0010
1000
,
0010
0000
0010
0000
,
0100
0001
1000
0100
,
0010
0000
0010
0000
,
0001
0010
0100
1000
,
0001
0000
0001
0000
,
1000
0010
0100
0010
,
1001
0000
0000
0000
,
0100
0010
1000
0010
,
1001
0000
0000
0000
,
0010
0100
0001
0100
,
1001
0000
0000
0000
,
0010
0100
0001
0100
,
1001
0000
0000
0000
;
