#TITLE:A.Q. Children;
#SUBTITLE:;
#ARTIST:t+pazolite;
#TITLETRANSLIT:;
#SUBTITLETRANSLIT:;
#ARTISTTRANSLIT:;
#CRChallenge:;
#BANNER:aq.jpg;
#BACKGROUND:aq-bg.jpg;
#LYRICSPATH:;
#CDTITLE:!cdtitle.png;
#MUSIC:aq.ogg;
#OFFSET:0.000;
#SAMPLESTART:73.786;
#SAMPLELENGTH:12.000;
#SELECTABLE:YES;
#BPMS:0.000=260.000;
#STOPS:;
#NOTES:
     dance-single:
     Renard:
     Medium:
     10:
     0.806,0.898,0.246,0.000,0.000:
0000
0000
0000
0000
,
0000
0000
0000
0000
,
0000
0000
0000
0000
,
0000
0000
0000
0000
,
0000
0000
0000
0000
,
1000
0000
0001
0000
0100
0010
0100
0000
,
0010
0000
1000
0000
0100
0000
1000
0001
,
1000
0001
0100
0010
,
1000
0001
1000
0000
0001
0000
0010
0000
,
0100
0000
1000
0001
0010
0000
0001
0000
,
1000
0000
0010
0000
0100
0001
1000
0000
,
0100
0000
0010
0000
0001
0000
1000
0010
,
0100
1001
1000
0100
,
0010
0001
1000
0000
0010
0000
0100
0000
,
0001
0000
0010
0100
1000
0000
1100
0000
,
1000
0000
0001
0000
0100
0010
1000
0000
,
1001
0000
1000
0000
0100
0000
0010
0001
,
1000
1001
0001
0100
,
0010
1000
0010
0000
1010
0000
1000
0000
,
0100
0000
0010
0001
0010
0000
0011
0000
,
0010
0000
0010
0100
0000
0100
1000
0001
,
0100
0010
1000
0100
0010
0001
0000
0001
,
1000
0010
0100
0001
0010
0100
1000
0000
,
0001
1000
0010
0100
0010
0100
0010
0000
,
0000
0010
1000
0000
0001
0000
0100
0010
,
1000
0000
1000
0100
0000
0100
0010
0000
,
0001
0000
1000
0000
1000
0001
0000
0001
,
0100
0000
0010
0000
1000
0000
1000
0100
,
0000
0100
0010
0000
0001
0000
1000
0000
,
1000
0010
0000
0010
0100
0000
0001
0100
,
0001
0000
1000
0000
0100
0010
0100
0000
,
0010
0000
0100
0000
1000
0000
0010
0100
,
0010
0100
0001
0010
,
0100
0010
0100
0000
0010
0000
0001
0000
,
0100
0000
0010
0100
0010
0000
0100
0000
,
0010
0000
1000
0000
0100
0010
0100
0000
,
0010
0000
0100
0000
1000
0000
0010
0100
,
0010
0100
0001
0010
,
0100
0010
0100
0000
0010
0000
0001
0000
,
0100
0000
0010
0100
0010
0000
0100
0000
,
0010
0000
1000
0000
0100
0010
0001
0000
,
0010
0000
0100
0000
1000
0000
0001
0010
,
0100
1000
0100
0010
,
0001
1000
0100
0000
0010
0000
0100
0000
,
1000
0000
0001
0010
0100
0000
1000
0000
,
0001
0000
0100
0000
0010
1000
0010
0000
,
0100
0000
0001
0000
0100
0000
0010
1000
,
0010
1000
0001
0100
,
0010
1000
0010
0000
1000
0000
0001
0000
,
0100
0000
0010
1000
0010
0000
1000
0000
,
0001
0100
0010
1000
0100
0010
0001
0000
,
0001
0000
0010
0100
1000
0001
0100
0010
,
1000
0000
1000
0000
0010
1000
0100
0010
,
0001
1000
0001
0000
0001
0000
0100
0010
,
1000
0100
0010
0001
1000
0000
1000
0000
,
0001
0010
0100
1000
0001
0100
0010
0000
,
0010
0000
1000
0100
0010
0001
1000
0010
,
0100
0000
0100
0000
0010
1000
0100
0010
,
0001
0010
0100
0000
0100
0000
1000
0010
,
0100
0001
0100
0010
1000
0100
0010
0000
,
0001
0000
0000
0001
0010
0000
0100
0000
,
1000
0000
0010
0000
0000
0010
0100
0000
,
0001
0000
0100
0000
0010
0000
0000
0010
,
1000
0000
0100
0000
0010
0001
0010
0000
,
0100
1000
0010
0100
,
0001
0000
0000
0001
0100
0000
0010
0000
,
1000
0000
0100
0000
0000
0100
0010
0000
,
0001
0000
1000
0000
0010
0000
0000
0010
,
0100
0000
0001
0000
0100
0010
0100
0000
,
0010
1000
0100
0010
,
0011
0000
0010
0100
1000
0000
0001
0000
,
0100
0000
1010
0000
1000
0010
0100
0000
,
0001
0000
0010
0000
0011
0000
0010
0100
,
1000
0000
0001
0000
0100
0010
0100
0000
,
0010
1000
0100
0010
,
0011
0000
0010
0100
1000
0000
0001
0000
,
0100
0000
0110
0000
0010
1000
0100
0000
,
0010
0000
0001
0000
0011
0000
0010
0100
,
1000
0000
0001
0000
0100
0010
0100
0000
,
0010
1000
0100
0010
,
0011
0000
0010
0100
1000
0000
0001
0000
,
0100
0000
0110
0000
0010
1000
0100
0000
,
0010
0000
0011
0000
0011
0000
0010
0100
,
1000
0101
0110
1010
,
1000
0100
0010
0000
0001
0010
0100
0000
,
1000
0000
0100
1000
0100
0000
1000
0000
,
0001
0000
0100
0000
0001
0100
0001
0000
,
0100
0000
0001
0000
0010
0000
0100
0010
,
0100
0000
1000
0000
0001
0100
0010
1000
,
0100
0010
0001
0010
0100
1000
0001
1000
,
0001
0100
0010
1000
0100
0000
0010
0000
,
0001
0000
0010
0100
1000
0001
0100
0000
,
0010
0000
1000
0000
0100
0010
0001
0010
,
0100
0000
1000
0000
0001
0100
0010
1000
,
0100
0010
0001
0000
0010
0000
0100
0000
,
1000
0001
0100
0010
1000
0000
0100
0000
,
0010
0000
0001
0010
0100
1000
0001
0000
,
0100
0000
0010
0000
1000
0100
1000
0001
,
0010
0000
0001
0000
1000
0010
0100
0001
,
0100
0010
1000
0100
0010
0001
0010
0100
,
1000
0000
0001
0000
0100
0000
0010
1000
,
0010
1000
0001
0100
,
0001
0010
0001
0000
0010
0000
0100
1000
,
0100
0000
1000
0000
0001
0100
0001
0000
,
0100
0000
0010
0000
1000
0000
0100
0010
,
0001
0010
0100
1000
0001
0100
0010
1000
,
0100
0010
0001
0010
0100
1000
0001
0010
,
0100
1000
0001
0100
0010
1000
0100
0010
,
0001
0010
0100
1000
0001
0100
0010
1000
,
0100
0010
0001
0010
0100
1000
0001
0000
,
1001
0000
0100
0010
0100
0000
1001
0000
,
1000
0001
1000
0000
0110
0000
1000
0100
,
1000
0000
0011
0000
0010
0001
1000
0000
,
1010
0000
0100
0001
0010
0000
0011
0000
,
0010
0100
1000
0000
0101
0000
0100
0010
,
1000
0000
0110
0000
0010
0001
1000
0000
;
#NOTES:
     dance-single:
     Renard:
     Easy:
     8:
     0.537,0.686,0.091,0.000,0.000:
0000
0000
0000
0000
,
0000
0000
0000
0000
,
0000
0000
0000
0000
,
0000
0000
0000
0000
,
0000
0000
0000
0000
,
1000
1000
0001
0100
,
0010
1000
1000
0010
,
0100
0001
0010
0010
,
0001
0100
0010
0100
,
0100
0010
1000
0001
,
1000
0100
1000
0001
,
1000
0010
1000
0100
,
1000
0001
0000
1000
,
0001
0100
0001
0000
,
1000
0100
1000
0001
,
0010
0001
1000
0001
,
0100
0000
0001
1000
,
0100
1000
0000
0001
,
0100
0001
1000
0000
,
0001
0010
0001
1000
,
0001
0000
0001
0100
,
0010
0000
0010
1000
,
0100
0010
0001
0000
,
0001
1000
0010
0100
,
0010
0000
0010
1000
,
0100
0000
0100
0010
,
0001
1000
0010
0000
,
0010
0100
0001
1000
,
0000
1000
0100
0010
,
0001
1000
0010
0100
,
0010
0000
0010
1000
,
0100
0010
0000
0010
,
0001
0100
0010
0000
,
0010
1000
0100
0010
,
0000
0010
0001
0100
,
0010
0000
0010
1000
,
0001
0010
0000
0010
,
0001
1000
0010
0000
,
0010
0100
0001
1000
,
0000
1000
0100
0010
,
0001
0000
0001
1000
,
0010
0100
0000
0100
,
0010
1000
0001
0000
,
0001
0010
0100
1000
,
0000
1000
0100
0010
,
0001
0000
0001
1000
,
0010
0100
0000
0100
,
0001
1000
0100
0000
,
0100
1000
0001
0010
,
0001
1000
0010
0100
,
0001
0100
0010
1000
,
0100
0010
0100
1000
,
0001
0010
0100
0010
,
0001
0100
0010
1000
,
0100
0001
0001
0001
,
0100
0010
0001
1000
,
0010
0100
0001
0010
,
1000
1000
0010
0100
,
1000
0010
0100
0001
,
1000
0100
0010
0001
,
0010
0000
0010
0100
,
1000
0010
0000
0010
,
0100
0001
0010
0000
,
0010
0001
0100
0010
,
0000
0010
1000
0100
,
0010
0000
0010
0001
,
1000
0010
0000
0010
,
0100
0001
1000
0000
,
1000
0001
0010
0100
,
0000
0100
1000
0010
,
0100
0010
1000
0100
,
0100
0010
0001
0100
,
0010
0010
0100
0001
,
0010
0100
0100
1000
,
1000
0010
0010
0100
,
0001
0010
0100
1000
,
1000
0010
0100
0001
,
0010
0010
0001
0100
,
0010
1000
1000
0001
,
0001
0100
0010
1000
,
0001
0001
0010
0100
,
1000
0010
0010
0100
,
0001
0010
0100
0100
,
0010
0001
0100
1000
,
1000
0100
0010
1000
,
0100
0010
0010
0100
,
1000
0010
0100
0100
,
0001
0010
0100
1000
,
1000
0010
0100
0001
,
0001
1000
0100
0010
,
0001
0010
0010
0100
,
1000
0010
0100
0100
,
0001
0010
0100
0100
,
1000
0010
0100
0001
,
0001
1000
1000
0010
,
0100
0001
1000
0100
,
0010
0001
1000
0010
,
0100
0001
1000
0100
,
1000
0001
0010
0100
,
0100
1000
1000
0010
,
0100
0000
0100
0010
,
1000
0100
0000
0100
,
0010
0001
0100
0000
,
0100
0001
1000
0100
,
1000
0100
1000
0001
,
1000
0000
1000
0010
,
0100
0001
0000
0001
,
1000
0100
0010
0000
,
0010
0001
1000
0010
,
0000
0010
0100
0001
,
1000
0100
1100
1000
,
0100
1100
0010
0001
,
0011
0001
0010
0011
,
0001
0100
0101
0100
,
0001
0101
0100
0010
,
1010
0101
1010
1001
;
#NOTES:
     dance-single:
     Renard:
     Beginner:
     6:
     0.401,0.475,0.000,0.000,0.000:
0000
0000
0000
0000
,
0000
0000
0000
0000
,
0000
0000
0000
0000
,
0000
0000
0000
0000
,
0000
0000
0000
0000
,
0001
0000
0001
1000
,
0100
1000
0000
1000
,
0100
0010
0001
0000
,
0001
1000
0010
0100
,
0000
0100
0010
1000
,
0001
0000
0001
1000
,
0100
0010
0000
0010
,
0100
1000
0010
0000
,
0010
1000
0001
0010
,
0000
0010
0001
1000
,
0010
0000
0010
0100
,
0001
1000
0000
1000
,
0001
0010
0100
0000
,
0100
1000
0001
0100
,
0000
0100
0001
1000
,
0010
0000
0010
0100
,
0001
1000
0000
1000
,
0100
0010
0001
0000
,
0001
0010
0100
1000
,
0010
0100
0001
0100
,
0010
0000
0010
1000
,
0100
0010
0000
0010
,
0001
0100
0010
0000
,
0010
1000
0100
0010
,
0000
0010
0001
1000
,
0010
0000
0010
0000
,
0100
0001
0000
0001
,
0000
1000
0100
0000
,
0100
0000
0010
0001
,
0000
0001
0000
1000
,
0010
0000
0010
0000
,
0100
0001
0000
0001
,
0000
1000
0100
0000
,
0100
0000
0010
0001
,
0000
0001
1000
0010
,
0100
0000
0000
0100
,
0010
1000
0000
0010
,
0100
0001
1000
0000
,
0000
0100
0010
0001
,
0000
1000
0010
0100
,
0001
0000
0000
0001
,
1000
0100
0000
0010
,
0001
1000
0010
0000
,
0000
0001
0100
0010
,
0000
0010
1000
0100
,
1000
0000
1000
0000
,
1000
0100
0000
0100
,
0000
0100
0010
0000
,
0010
0000
0010
0001
,
0000
0001
1000
0001
,
1000
0000
1000
0000
,
1000
0010
0000
0010
,
0000
0010
0100
0000
,
0100
0000
0100
0001
,
0000
0001
0000
0010
,
0001
0000
0000
0001
,
0000
0010
0000
0000
,
0010
0000
0100
0000
,
0000
0100
0000
1000
,
0000
0000
0010
0000
,
1000
0000
0000
0010
,
0000
0100
0000
0000
,
0001
0000
1000
0000
,
0000
0100
0000
0010
,
0000
0000
0001
0010
,
0001
0000
0001
1000
,
0000
1000
0000
0010
,
0100
0000
0100
0000
,
0100
0001
0000
1000
,
0100
0010
0001
1000
,
0010
0000
0010
1000
,
0000
0001
0000
0100
,
0010
0000
1000
0000
,
0001
0010
0000
0100
,
0000
1000
0001
0100
,
0001
0000
1000
0001
,
0000
0100
0000
0010
,
1000
0000
0001
0000
,
0010
0100
0000
1000
,
0000
0010
0000
0100
,
0001
0000
1000
0100
,
0000
0010
0000
0001
,
1000
0000
0010
0000
,
0100
0001
0000
1000
,
0000
0100
0010
0001
,
0010
0000
0010
0001
,
0010
0001
0000
0010
,
0001
0010
0001
0000
,
0010
0001
0010
0100
,
0000
0100
0000
1000
,
0100
0000
1000
0100
,
1000
0100
0000
1000
,
0100
1000
0100
0000
,
1000
0100
1000
0010
,
0000
0010
0100
0001
,
1000
0000
0000
1000
,
0001
0100
0000
0000
,
0100
0001
1000
0000
,
0000
0001
1000
0100
,
0000
0000
1000
0001
,
0100
0000
0000
0001
,
1000
0100
0000
0000
,
1000
0001
0100
0000
,
0000
0001
1000
0100
,
0000
1000
0001
1000
,
0001
0001
0100
0010
,
0010
1000
0100
0100
,
0010
0001
0001
0010
,
0100
0100
1000
0010
,
1000
0100
0010
0010
,
0001
1000
1000
1000
;
