#TITLE:A Little Piece of Heaven;
#SUBTITLE:;
#ARTIST:Avenged Sevenfold;
#TITLETRANSLIT:;
#SUBTITLETRANSLIT:;
#ARTISTTRANSLIT:;
#CRChallenge:;
#BANNER:heaven.png;
#BACKGROUND:heaven-bg.png;
#LYRICSPATH:;
#CDTITLE:;
#MUSIC:heaven.ogg;
#OFFSET:0.000;
#SAMPLESTART:32.236;
#SAMPLELENGTH:12.000;
#SELECTABLE:YES;
#BPMS:0.000=72.500,7.000=145.000,165.000=72.500,189.000=145.000,248.000=72.500,265.750=145.000;
#STOPS:247.000=1.241
;
#BGCHANGES:;
#NOTES:
     dance-single:
     Renard:
     Hard:
     11:
     0.775,0.949,0.461,0.242,0.612:
0000
0000
0000
0000
,
0000
0000
0000
0000
0000
0000
0001
0001
,
1000
0100
0010
0001
0100
0000
0100
0000
0010
1000
0001
0010
0100
0000
0100
0000
,
0010
0001
1000
0010
0100
0000
0100
0000
0010
1000
0100
0010
0001
0000
0001
0000
,
0010
0100
1000
0001
0100
0000
0100
0000
0001
1000
0100
0010
0001
0000
0001
0000
,
1000
0010
0100
0010
1000
0000
1000
0000
0100
0010
0001
0000
1001
0000
1001
0000
,
0MM0
0MM0
1010
1010
0M0M
0M0M
0101
0101
,
0001
0010
0110
0110
M00M
M00M
1100
1100
,
00MM
00MM
0110
0110
0010
0001
0101
0101
,
M0M0
M0M0
0110
0110
M00M
M00M
1010
1010
,
1000
0100
0110
0110
M00M
M00M
0011
0011
,
MM00
MM00
1100
1100
0100
0010
0001
1000
,
0010
0100
M11M
0010
1000
0100
0010
0001
,
0010
0100
M11M
0100
1000
0010
M11M
0100
,
0001
0010
MM11
0010
0100
1000
11MM
11MM
,
0010
0001
MM11
MM11
0010
0100
11MM
11MM
,
1000
0010
1M1M
1M1M
0100
0001
M1M1
M1M1
,
0001
0010
M11M
0100
1MM1
0010
1000
0001
,
0100
0010
0100
0000
0010
0000
1000
0000
0100
0010
0100
0000
0010
0000
0001
0000
,
0100
0010
0100
0000
0010
0000
1000
0000
0100
0010
0100
0000
0010
0000
0001
0000
,
0100
0010
0100
0000
0010
0000
1000
0000
0100
0000
0010
0000
0001
0000
0100
0000
,
0010
0100
0010
0000
0100
0000
0010
0000
1000
0100
1000
0000
0100
0000
0010
0000
,
0001
0010
0001
0000
0100
0000
0001
0000
1000
0000
0010
0000
1000
0000
0100
0000
,
0110
0000
1001
0000
0110
0000
0010
1000
,
0010
0001
0010
1000
0010
0001
0010
0100
,
1000
0100
0001
0100
0010
1000
0100
0100
,
0010
0010
0001
0001
0010
0010
1000
0010
,
0001
0010
1000
0010
0001
0010
1000
0001
,
0100
1000
0100
0001
0100
1000
0010
0100
,
0001
0000
0100
0000
1000
0000
0100
0000
0001
0000
0010
0000
0001
0010
0100
1000
,
0100
0010
0001
0100
0010
1000
0100
0010
0001
0010
0100
1000
0001
0010
0100
1000
,
0001
0100
0010
1000
0100
0000
0010
0000
0001
0000
0010
0000
0100
0000
1000
0000
,
0010
0000
0100
0000
0001
0000
1000
0000
0100
0000
0010
0000
0001
0010
0100
1000
,
0001
0100
0010
1000
0100
0010
0100
1000
0001
0010
0100
1000
0001
0010
0100
0010
,
0001
0100
0010
1000
0100
0000
0010
0000
0001
0000
0010
0000
0100
0000
1000
0000
,
0001
0100
0010
0010
1000
0100
0110
0110
,
0001
1000
0110
0110
0010
1000
0110
0110
,
0001
1000
0001
0100
1000
0100
0001
0010
,
1000
0010
0001
0100
0010
1000
0100
0100
,
0010
0010
0001
0010
1000
0010
0001
0100
,
1000
0100
0010
1000
0100
0010
0001
0001
,
1000
0000
1000
0000
1001
0000
0000
0001
0000
0001
1000
0100
0010
0001
0010
0100
,
1000
0000
0010
0000
0100
0000
0001
0000
0100
0000
0010
0000
1000
0000
0100
0000
0010
0000
0001
0000
0010
0000
0100
0000
1000
0001
1000
0000
0100
0000
0010
0000
,
0001
1000
0001
0000
0010
0100
0010
0000
0100
0000
1000
0000
0010
0100
0010
0000
0100
0010
0100
0000
0010
0000
1000
0000
0100
0000
0010
0000
0001
1000
0001
0000
,
0010
0000
0100
0000
1000
0000
0001
0000
1000
0000
0001
0000
0010
0000
0100
0000
1000
0000
0001
0000
1000
0000
0100
0000
0010
0000
0001
0000
1000
0000
0001
1000
,
0001
0000
0010
0000
0100
0000
1000
0000
0001
0000
1000
0000
0100
0000
0010
0000
0001
0000
1000
0000
0010
0000
0100
0010
0100
0000
0010
0000
1000
0000
0100
0000
,
0010
0000
0001
0000
0100
0010
0100
0000
0001
0000
0010
0000
0100
0000
1000
0000
0010
0100
0010
0000
0100
0000
0001
0000
0010
0000
0100
0000
1000
0001
1000
0000
,
0010
0100
0001
0000
M1M1
0000
MMM1
0000
MMM1
0000
MMM1
0000
MMM1
0000
MMM1
0000
,
2MM1
3MM1
2MM1
3MM1
MM11
MMM1
MMM1
MMM1
,
MMM1
MMM1
2MM1
3MM1
2MM1
3MM1
1M1M
1MMM
,
1MMM
1MMM
1MMM
1MMM
1MM2
1MM3
1MM2
1MM3
,
11MM
1MMM
1MMM
1MMM
1MMM
1MMM
1MM2
1MM3
,
1MM2
0000
1MM3
0000
0001
0010
0100
100M
0010
0100
M001
0010
0100
100M
0100
0010
,
M001
0100
0010
100M
0100
0010
M001
0010
0100
1000
0001
0100
0010
1000
0100
001M
,
0100
1000
0001
0010
0100
1000
0001
0100
0010
100M
0100
0010
M001
0010
0100
1000
,
0001
0010
0100
1000
0001
0100
0010
100M
0100
0010
M001
0010
0100
1000
0001
0100
,
0010
100M
0100
0010
M001
0010
0100
1000
0001
0010
0100
100M
0100
0010
M001
0100
,
0010
1000
0100
0010
M001
0010
0100
1000
0001
0100
0010
100M
0100
0010
0001
0010
,
0001
0010
0001
0010
0002
0000
0000
0000
0023
0000
0000
0000
2030
0000
0000
0000
,
3020
0000
0230
0000
0302
0203
2300
0000
,
3020
0032
0023
0230
,
2300
0000
3200
0302
0013
0000
0011
0000
,
0001
0010
2000
0000
3010
0100
0002
0000
0103
1000
0020
0000
0031
0010
0200
0000
,
1300
0100
0002
0000
0013
0100
0002
0000
0103
1000
0020
0000
0130
1000
0100
0001
,
0010
0000
0010
0100
0001
0000
0001
0100
1000
0000
1000
0010
0001
0010
0100
0000
,
0100
1000
0100
0000
0001
0010
0200
0000
0000
0000
2300
0000
0000
0000
3020
0000
,
0000
0000
0000
0000
0000
0000
0000
0030
0000
0000
0000
0000
0000
0000
0000
0000
;
#NOTES:
     dance-single:
     Renard:
     Medium:
     9:
     0.511,0.462,0.249,0.088,0.004:
0000
0000
0000
0000
,
0000
0000
0000
0000
0000
0000
0001
1000
,
0100
1000
0001
0000
0001
0100
0010
0000
,
0010
1000
0100
0000
0100
1000
0001
0010
,
0001
1000
0010
0000
0010
0100
0001
0000
,
0001
1000
0100
0000
0100
1000
1100
1100
,
00MM
00MM
1100
1100
00MM
00MM
1100
1100
,
00MM
00MM
0011
0011
MM00
MM00
0011
0011
,
MM00
MM00
0011
0011
MM00
MM00
1001
1001
,
0MM0
0MM0
1001
1001
0MM0
0MM0
1001
1001
,
0MM0
0MM0
0110
0110
M00M
M00M
0110
0110
,
M00M
M00M
0110
0110
M00M
M00M
0010
1000
,
0010
1000
0001
0001
0000
0000
0100
0001
,
0100
0001
1000
0100
1000
0100
0010
0010
,
0000
0000
0001
0001
0010
0100
1000
0100
,
1000
0100
1000
1000
0000
0000
0001
0100
,
0010
1000
0001
0010
0001
0010
0001
0001
,
0000
0000
0010
0100
1000
0001
0100
0010
,
0100
0010
1000
0100
1000
0100
0010
0001
,
0010
0001
0100
0001
0100
0001
0100
0010
,
1000
0010
1000
0001
0010
0100
1000
0001
,
1000
0001
0100
0010
0100
0010
1000
0001
,
1000
0001
0010
0100
1000
0100
0010
0001
,
0011
0000
0110
0000
1100
0000
1000
0100
,
1000
0100
0001
0100
0001
0100
1000
0100
,
1000
0100
0001
0100
0001
0100
1000
0100
,
1000
0100
0001
0100
0001
0100
1000
0010
,
1000
0010
0001
0010
0001
0010
1000
0010
,
1000
0010
0001
0010
0001
0010
1000
0010
,
1000
0010
0001
0010
1000
0010
1010
0000
,
1000
0010
0100
0001
0101
0000
0001
0010
,
0100
1000
1100
0000
1000
0100
0010
0001
,
0010
0100
1000
0100
1000
0000
1100
0000
,
0100
0010
0001
0010
1100
0000
0100
1000
,
0001
0100
0101
0000
0100
0010
1000
0001
,
0100
0010
1000
1000
0010
0100
0001
0001
,
1000
0100
0010
0010
0001
0010
0100
0100
,
1000
0001
0100
0010
0100
0010
1000
0001
,
0010
0100
1000
0100
0010
0001
1000
1000
,
0001
0001
1000
0010
0100
0001
1000
0100
,
1000
0001
0010
0100
1000
0001
0100
0100
,
0010
0010
1000
0000
0010
0010
0000
0100
,
0100
0000
0001
0002
1000
0100
0010
0000
,
0100
0100
0000
1000
2003
0000
0000
0100
,
0001
0010
3010
0000
0100
0100
0000
0001
,
0002
0000
1000
0010
0000
0100
0100
1003
,
0001
0100
0010
1000
0001
1000
0010
0100
,
0001
0001
1MM0
0001
MMM1
0001
MMM1
0001
,
1MM0
0001
1MM0
0001
1MM0
0001
MMM1
0001
,
MMM1
0001
1MM0
0001
1MM0
0001
0MM1
1000
,
1MMM
1000
1MMM
1000
0MM1
1000
0MM1
1000
,
0MM1
1000
1MMM
1000
1MMM
1000
0MM1
1000
,
0MM1
1000
1000
0100
0010
0001
0010
0100
,
1000
0001
0100
0010
1000
0100
0010
0001
,
0010
0100
1000
0001
0100
0010
1000
0001
,
0010
0100
1000
0001
0100
0010
1000
0100
,
0010
0100
1000
0001
0100
0010
1000
0100
,
0010
0001
0010
0100
1000
0001
0100
0010
,
1000
0001
1000
0000
1000
0001
0100
0000
,
0100
0001
1000
0000
1000
0001
0100
0000
,
0100
0001
1000
0000
1000
0001
0100
0000
,
0100
0001
1000
0001
1000
0000
0110
0000
,
0010
1000
0100
0010
0001
2000
0100
0001
,
0001
3100
1000
0010
2000
0010
0001
0100
,
3002
0203
0320
2030
,
3100
0000
0010
0000
0001
0010
0200
0000
0000
0000
2300
0000
0000
0000
3020
0000
,
0000
0000
0000
0000
0000
0000
0000
0030
0000
0000
0000
0000
0000
0000
0000
0000
;
#NOTES:
     dance-single:
     Renard:
     Easy:
     6:
     0.414,0.510,0.278,0.095,0.000:
0000
0000
0000
0000
,
0000
0000
0000
0001
,
1000
0000
0100
0000
1000
0010
1000
0000
,
0001
0100
0001
0000
1000
0000
0100
0000
,
0010
0000
0001
0000
1000
0010
1000
0000
,
0001
0100
0001
0000
1000
0000
1001
1001
,
0000
0000
1001
1001
0000
0000
1001
1001
,
0000
0000
0110
0110
0000
0000
0110
0110
,
0000
0000
0110
0110
0000
0000
1010
1010
,
0000
0000
1010
1010
0000
0000
1010
1010
,
0000
0000
0101
0101
0000
0000
0101
0101
,
0000
0000
0101
0101
0000
0000
0001
0000
,
0100
0000
0101
0001
0100
0000
0010
0000
,
0000
0000
0010
0000
1000
0000
1010
0010
,
1000
0010
0000
1000
,
0100
0000
1100
0100
1000
0000
0100
0000
,
0000
0000
0010
0000
0001
0000
0011
0001
,
0010
0001
0000
1000
,
0001
1000
0010
0100
,
0001
0000
1000
0000
0100
0010
0000
0001
,
0000
1000
0000
0010
0000
0000
0100
0000
,
0001
0100
0010
1000
,
0100
0000
0010
0000
0001
1000
0000
0010
,
0100
0000
0110
0000
1001
0000
0001
0100
,
0001
0000
0100
0001
0100
0000
0010
0000
,
0010
0000
1000
0100
1000
0100
1000
0100
,
1000
0100
1000
0100
1000
0100
1000
0000
,
1000
0010
0010
0100
,
0100
0001
0010
0001
,
1000
0000
0100
0000
1000
0000
0001
0100
,
0001
0100
0001
0100
0001
0100
0001
0100
,
0001
0100
0010
0000
0010
0000
1000
0000
,
1000
0000
0010
0000
0010
0000
1000
0100
,
1000
0100
1000
0100
0010
0100
0010
0100
,
0010
0100
0010
0000
0001
0000
1000
0000
,
0010
0000
0100
0000
0001
0000
1000
0001
,
1000
0000
0010
0100
0010
0000
1000
0001
,
1000
0000
0000
0001
0100
0001
0100
0001
,
0100
0001
0100
0001
0100
0001
0100
0001
,
0100
0001
1000
0010
1000
0010
1000
0010
,
1000
0010
1000
0010
1000
0010
1000
0010
,
1000
0010
1000
0000
0000
0101
0000
0001
,
0100
0000
0010
1000
0100
0010
0001
0000
,
0001
1000
0000
1000
0010
0000
0010
0100
,
0001
1000
0100
0010
0001
1001
0000
0000
,
0001
0100
0010
1010
0000
0000
0010
1000
,
0100
0110
0010
0001
1001
1000
1000
1001
,
0001
1001
1000
0001
1000
0001
1000
0001
,
1000
0001
1000
0001
1000
0001
1000
0001
,
1000
0001
1000
0001
1000
0001
0100
0010
,
0100
0010
0100
0010
0100
0010
0100
0010
,
0100
0010
0100
0010
0100
0010
0100
0010
,
0100
0010
0100
0000
0010
0000
1000
0000
,
0010
1000
0001
0000
0100
0000
0001
0000
,
1000
0100
0010
0001
,
1000
0100
1000
0000
0001
0000
0100
0000
,
0010
0000
1000
0000
0010
1000
0010
0000
,
0100
0001
0100
0000
0001
1000
0001
0000
,
1000
0002
2003
3200
,
0320
0032
0023
0230
,
2300
3002
0203
0320
,
2030
0000
3100
0010
0001
0000
1001
0000
,
1000
0000
0001
0000
0100
0010
1000
0100
,
0010
0000
0001
0000
0010
0100
1000
0001
,
0100
0000
0010
0000
1000
0010
0100
0001
,
0000
1000
0000
0010
0000
0100
0000
0002
,
0000
0000
0000
0003
0000
0000
0000
0000
;
#NOTES:
     dance-single:
     Renard:
     Beginner:
     3:
     0.264,0.340,0.029,0.029,0.000:
0000
0000
0000
0000
,
0000
0000
0000
0001
,
0000
1000
0000
0010
,
0010
0100
0100
0001
,
0000
1000
0000
0100
,
0100
0000
0010
0000
0010
0000
0001
1000
,
0000
0010
0000
0010
,
0000
0000
1000
0001
0000
0000
0010
0000
,
0000
0000
0010
0000
0000
0000
0001
1000
,
0000
0010
0000
0010
,
0000
0000
1000
0001
0000
0000
0010
0000
,
0000
0010
0000
0001
,
0001
0100
0100
0010
,
0010
1000
1000
0010
,
0010
0100
0100
0001
,
0001
1000
1000
0100
,
0100
0010
0010
0001
,
0001
1000
1000
0010
,
0010
1000
1000
0001
,
0100
0010
1000
0010
,
0100
0001
0000
1000
,
1000
0100
0100
0010
,
0001
1000
0100
1000
,
0010
0100
0001
1000
,
1000
0010
0100
0001
,
0001
0100
0000
0010
,
0100
0010
0100
0001
,
0001
0100
0010
1000
,
1000
0010
0100
0001
,
0100
0010
1000
1001
,
0000
0000
0110
0000
,
0000
0010
0100
0001
,
1000
0001
1000
0000
0000
0000
0110
0000
,
0000
0000
1001
0000
,
0000
0010
0100
0001
,
1000
0001
1000
0000
0010
0000
0200
0000
,
0301
0200
0301
0200
,
0301
0100
0000
0100
,
0010
1000
0010
0100
,
0001
0100
0000
0001
,
0000
0100
0001
0100
,
0010
0000
1000
0000
0000
0010
0000
0010
,
0100
0000
0000
0001
0000
0001
1000
0000
,
0000
0100
0000
0100
0010
0000
0000
0001
,
1000
0001
0100
0100
0100
0000
0000
0000
,
0010
0010
0010
0000
0000
0000
1000
1000
,
1000
0001
0001
0001
0100
0100
0100
0010
,
0010
0010
1000
0000
1000
0000
1000
0000
,
1000
0001
1000
0000
0001
0000
0001
0000
,
0001
0000
0001
1000
0001
0000
1000
0000
,
1000
0000
1000
0000
1000
0001
1000
0000
,
0001
0000
0001
0000
0001
0000
0001
1000
,
0001
1000
0010
0100
,
0000
0001
0100
0010
,
1000
0001
0010
0100
,
0000
1000
0100
0010
,
0001
1000
1000
0010
,
0010
0100
0100
0001
,
0001
1000
0100
1000
,
0100
1000
0100
1000
,
0100
0010
0001
0010
,
0001
0000
1000
0001
1000
0000
0010
0000
,
1000
0010
0100
0001
,
0100
0010
1000
0001
,
0010
0000
0000
0000
0001
1000
0100
0010
,
0000
0001
0000
1000
0000
0100
0000
0002
,
0000
0000
0000
0003
0000
0000
0000
0000
;
