#TITLE:9000 Miles;
#SUBTITLE:;
#ARTIST:Pendulum;
#TITLETRANSLIT:;
#SUBTITLETRANSLIT:;
#ARTISTTRANSLIT:;
#CRChallenge:;
#BANNER:9000-banner.avi;
#BACKGROUND:9000-bg.png;
#LYRICSPATH:;
#CDTITLE:;
#MUSIC:9000.ogg;
#OFFSET:0.000;
#SAMPLESTART:77.081;
#SAMPLELENGTH:12.000;
#SELECTABLE:YES;
#BPMS:0.000=87.000,48.000=174.000;
#STOPS:;
#BGCHANGES:;
#NOTES:
     dance-single:
     Renard:
     Challenge:
     8:
     0.531,0.624,0.210,0.620,0.109:
0000
0000
0000
0000
,
0000
0000
0000
0000
,
0000
0000
0000
0000
,
0000
0000
0000
0000
,
2000
0000
0000
3200
0000
0000
0302
0000
0000
0203
0000
0000
1300
0000
1000
0000
,
0002
0000
0000
0103
0000
0100
1000
0100
0000
0000
0100
0000
0001
0002
0000
0000
,
2003
0000
0000
3200
0000
0000
0302
0000
0000
0203
0000
0000
1300
1000
0000
0000
,
0002
0000
0000
0203
0000
0000
2300
0000
0000
3200
0000
0000
0301
0000
0001
0000
,
0002
0000
0000
0023
0000
0000
2030
0000
0000
3020
0000
0000
0031
0000
0000
0001
,
2000
0000
0000
3020
0000
0000
0031
0010
0000
0000
0010
0000
1000
2000
0000
0000
,
3002
0000
0000
0023
0000
0000
2030
0000
0000
3020
0000
0000
0031
0001
0000
0000
,
2000
0000
0000
3020
0000
0000
2030
0000
0000
0000
0000
0000
0000
0000
0000
0000
,
3001
0000
0001
0100
0000
0100
1000
0001
,
1000
0000
1000
0100
0000
0100
0001
0010
,
1000
0000
1000
0001
0000
0001
1000
0010
,
0001
0000
0000
0000
0001
0000
1000
0000
0001
0100
0001
0100
0001
0000
1000
0000
,
0010
1000
0001
0010
0000
1000
0001
1000
,
0010
0001
1000
0010
0000
0001
1000
0001
,
0010
0100
1000
0100
0000
0001
0100
0001
,
0010
0100
1000
0100
0000
0001
0100
1000
,
0001
0010
0200
1000
0000
0010
1300
0000
,
1000
0100
0020
0001
0000
0100
0031
0000
,
0001
0100
0020
1000
0000
0100
1030
0000
,
1000
0000
0010
0000
0200
0000
0000
0000
0301
0100
0001
0100
0001
0000
1000
0000
,
0001
0010
0100
2000
0000
0001
3010
0000
,
1000
0010
0100
0002
0000
0010
1003
0000
,
1000
0100
0010
0002
0000
1000
0103
0000
,
0001
0100
0010
2000
0000
0100
3001
0000
,
2100
0000
3001
0000
0100
0100
0010
0000
,
2010
0000
3001
0000
0100
0001
1000
0000
,
0012
0000
1003
0000
0100
0100
0010
0000
,
0102
0000
1003
0000
0010
1000
0001
0000
,
0010
0010
1000
0010
0010
0001
0010
0010
,
1000
0010
0010
0001
0010
0010
0100
0000
,
0100
0100
0001
0100
0100
1000
0100
0100
,
0001
0100
0100
1000
0100
0100
0010
0000
,
0012
0000
1003
0000
0010
0010
0100
0000
,
0102
0000
1003
0000
0010
1000
0001
0000
,
2100
0000
3001
0000
0010
0010
0100
0000
,
2010
0000
3001
0000
0100
0001
1000
0000
,
0100
0100
0001
0100
0100
1000
0100
0100
,
0001
0100
0100
1000
0100
0100
0010
0000
,
0010
0010
1000
0010
0010
0001
0010
0010
,
1000
0010
0010
0001
0010
0010
0100
2000
,
0000
0000
3M11
0000
0000
0000
1000
0002
,
0000
0000
1M13
0000
0000
0000
0001
2000
,
0000
0000
3M11
0000
0000
0000
1000
0002
,
0000
0000
1M13
0000
0000
0000
0010
0200
,
0000
0000
131M
0000
0000
0000
0010
0200
,
0000
0000
M311
0000
0000
0000
0010
0200
,
0000
0000
131M
0000
0000
0000
0010
0200
,
0000
0000
M311
0000
0000
0010
0001
2000
,
0000
0000
3M11
0000
0000
0010
1000
0002
,
0000
0000
1M13
0000
0000
0010
0001
2000
,
0000
0000
3M11
0000
0000
0010
1000
0002
,
0000
0000
1M13
0000
0000
1000
0010
0200
,
0000
0000
131M
0000
0000
0001
0010
0200
,
0000
0000
M311
0000
0000
1000
0010
0200
,
0000
0000
131M
0000
0000
0001
0010
0200
,
0000
0000
M311
0000
0000
1000
0001
0100
,
0020
0000
0000
0000
0000
0000
1030
0200
,
0000
0000
0000
0000
0320
0000
0031
2000
,
0000
0000
0000
0000
0000
0000
3010
0200
,
0000
0000
0000
0000
0000
0301
1000
0200
,
0000
0000
0000
0000
0000
0000
0310
0002
,
0000
0000
2003
0000
3020
0000
0130
0002
,
0000
0000
0000
0000
,
2000
0000
0000
0000
,
3003
0000
0000
0000
;
