#TITLE:37 Dicks;
#SUBTITLE:;
#ARTIST:m1dy;
#TITLETRANSLIT:;
#SUBTITLETRANSLIT:;
#ARTISTTRANSLIT:;
#CRChallenge:;
#BANNER:37-banner.avi;
#BACKGROUND:37-bg.png;
#LYRICSPATH:;
#CDTITLE:!cdtitle.png;
#MUSIC:37.ogg;
#OFFSET:0.000;
#SAMPLESTART:18.820;
#SAMPLELENGTH:12.000;
#SELECTABLE:YES;
#DISPLAYBPM:400.000;
#BPMS:0.000=400.000,188.000=800.000,192.000=400.000;
#STOPS:192.000=0.150
;
#BGCHANGES:;
#NOTES:
     dance-single:
     Renard:
     Hard:
     12:
     1.000,1.000,0.019,0.139,0.107:
0000
0000
0000
0000
,
0000
0000
0000
0000
,
0000
0000
0000
0000
,
0000
0000
0000
0000
,
0000
0000
0000
0000
,
0000
0000
0000
0000
,
0000
0000
0000
0000
,
0000
0000
0000
0000
,
1000
0100
1000
0100
0010
0000
0001
0100
,
0001
0100
0010
0000
1000
0100
1000
0000
,
0001
0100
0001
0100
0010
0000
1000
0100
,
1000
0100
0010
0000
0001
0100
0001
0000
,
1000
0100
1000
0100
0010
0000
0001
0010
,
0001
0010
0100
0000
1000
0001
1000
0000
,
0001
0100
0001
0100
0001
0100
0001
0100
,
0001
0100
0001
0100
0001
0000
0000
0000
,
1000
0100
1000
0000
0100
0000
0010
0001
,
0010
0000
0001
0000
0100
0001
0100
0000
,
0010
1000
0010
0000
0100
0000
0001
1000
,
0001
0000
0010
0000
0100
1000
0100
0000
,
0010
0001
0010
0000
0001
0000
0100
0001
,
0100
0000
0010
0000
1000
0010
1000
0000
,
0100
1000
0100
0000
1000
0000
0001
0010
,
0001
0010
0002
2003
,
3001
0010
0001
0000
0010
0000
0100
1000
,
0100
0000
1000
0000
0010
1000
0010
0000
,
0100
0001
0100
0000
0010
0000
1000
0001
,
1000
0000
0100
0000
0010
0001
0010
0000
,
0100
1000
0100
1000
0100
1000
0100
1000
,
0100
1000
0100
1000
0100
1000
0100
1000
,
0200
0000
0000
0320
,
0000
0000
0031
0010
,
0100
0000
0000
0100
,
1000
0010
0000
0100
,
0001
0100
0010
1000
,
0100
0000
0010
0001
,
0010
0100
0000
1000
,
0010
0000
0100
0000
,
0001
0100
0010
1000
,
0100
0000
0010
0001
,
0010
0000
0000
0100
,
1000
0000
0001
0000
,
0010
0001
1000
0010
,
0100
0000
0001
0100
,
0010
1000
0000
0100
,
1000
0000
0001
0000
,
0010
0000
0010
0000
,
0010
0001
0010
0001
,
0010
0000
0001
0010
0001
0000
0010
0000
,
0001
0000
1000
0000
0000
1000
0000
0000
,
1000
0000
0001
0010
0001
0000
0010
0000
,
0001
0000
1000
0000
0000
1000
0000
0000
,
1000
0000
0010
1000
0010
0000
1000
0000
,
0010
0000
0100
0000
0000
0001
0000
0000
,
0100
0000
0010
1000
0010
0000
1000
0000
,
0010
0000
0100
0000
0000
0001
0000
0000
,
0100
0000
0010
1000
0010
0000
1000
0000
,
0010
0000
0100
0000
0000
0100
0000
0000
,
0100
0000
0010
1000
0010
0000
1000
0000
,
0010
0000
0100
0000
0000
0100
0000
0000
,
0100
0000
0001
0010
0001
0000
0100
0000
,
0001
0000
0010
0000
0000
0001
0000
0000
,
0100
0000
0001
0010
0001
0000
0100
0000
,
0001
0011
0000
0000
,
0000
0000
0001
0010
0001
0000
0010
0000
,
0001
0000
1000
0000
1000
0100
0000
0100
,
1000
0000
0001
0010
0001
0000
1000
0000
,
0010
0000
0100
0000
0100
0001
0000
0001
,
0100
0000
0010
1000
0010
0000
1000
0000
,
0001
0000
0010
0000
0010
0001
0000
0001
,
0010
0000
0001
1000
0001
0000
1000
0000
,
0010
0000
0100
0000
0100
0001
0000
0001
,
1000
0000
0001
0010
0001
0000
0010
0000
,
0001
0000
1000
0000
1000
0100
0000
0100
,
1000
0000
0001
0100
0001
0000
0100
0000
,
0010
0000
1000
0000
1000
0010
0000
0010
,
1000
0000
0001
0100
0001
0000
0010
0000
,
0001
0000
1000
0000
1000
0100
0000
0100
,
1000
0000
0001
0010
0001
0000
1000
0000
,
0010
0000
0100
0000
0100
0001
0000
0001
,
0100
0001
0100
0010
,
1000
0100
0100
0010
,
0010
0001
0100
0010
,
1000
0100
0100
0010
,
0000
0010
0100
1000
,
0010
0100
0100
0010
,
0010
0100
0010
1000
,
0100
0010
0001
1000
,
0000
0001
0010
0100
,
1000
0001
0001
1000
,
1000
0010
0100
0001
,
0010
0100
0100
1000
,
0000
0001
0010
0100
,
1000
0010
0010
0100
,
0010
0000
1000
0000
0001
1000
0001
0000
,
1000
0001
1000
0000
0001
1000
0001
1000
,
0001
0000
1000
0100
1000
0000
0100
0000
,
0010
0001
0010
0001
,
0010
0000
0100
1000
0100
0000
1000
0000
,
0001
0010
0001
1000
,
0010
0000
0100
0010
0100
0000
0010
0000
,
1000
0100
0010
0001
,
1000
0000
0100
1000
0100
0000
1000
0000
,
0001
0010
0100
1000
,
0001
0000
0100
0001
0100
0000
0001
0000
,
0100
0010
1000
0100
,
0010
0000
0001
0010
0001
0000
0010
0000
,
0100
1000
0001
0100
,
0010
0000
1000
0010
1000
0000
0010
0000
,
1000
0001
1000
0100
,
0010
0000
0001
0010
0100
0000
0100
0000
,
1000
0100
0010
0000
0010
0000
0002
0000
,
1000
1003
0000
0000
,
1000
0001
0000
0100
,
0000
0010
1000
0100
,
0010
0001
0000
0010
,
0100
1000
0000
0000
,
0001
0010
0000
0001
,
0000
1000
0010
0100
,
0001
0100
0000
0010
,
1000
0001
0000
0000
,
1000
0100
0000
0010
,
0000
0001
0010
0100
,
1000
0001
0000
1000
,
0100
0010
0000
0000
,
0001
0010
0000
0100
,
0000
2000
0000
0001
,
0000
3010
0000
1010
,
0000
0000
1000
0100
1000
0000
0100
0000
,
1000
0000
0001
0000
0000
0001
0000
0000
,
0001
0000
1000
0100
1000
0000
0100
0000
,
1000
0000
0001
0000
0000
0001
0000
0000
,
0001
0000
0100
0001
0100
0000
0001
0000
,
0100
0000
0010
0000
0000
1000
0000
0000
,
0010
0000
0100
0001
0100
0000
0001
0000
,
0100
0000
0010
0000
0000
1000
0000
0000
,
0010
0000
0100
0001
0100
0000
0001
0000
,
0100
0000
0010
0000
0000
0010
0000
0000
,
0010
0000
0100
0001
0100
0000
0001
0000
,
0100
0000
0010
0000
0000
0010
0000
0000
,
0010
1000
0100
0010
,
0001
0010
0002
0000
,
0023
0000
0031
0000
0010
0001
0010
0000
,
0001
0010
0001
1000
0001
1000
0001
1000
,
0001
1000
0002
0000
0000
0000
0000
0000
,
0000
0000
0000
0000
0000
0000
0000
0000
0003
0000
0000
0100
0000
0000
0010
0000
,
0000
0000
0000
1000
0000
0000
0000
0000
0000
0000
0100
0000
0000
0000
0000
0000
0000
0000
0010
0000
0000
0000
0000
0000
0000
0000
0000
0001
0000
0000
0000
0000
,
0000
0000
0000
0000
0000
0010
0000
0000
0000
0000
0000
0000
0000
0000
0000
0200
0000
0000
0000
0000
0000
0000
0000
0000
0000
0000
0000
0000
0000
0000
0000
0000
,
0000
2300
0000
0000
,
0000
0000
0000
0000
0000
0000
0000
0000
3000
0000
0000
0010
0000
0000
0100
0000
,
0000
0000
0000
0001
0000
0000
0000
0000
0000
0000
0010
0000
0000
0000
0000
0000
0000
0000
0100
0000
0000
0000
0000
0000
0000
0000
0000
1000
0000
0000
0000
0000
,
0000
0000
0000
0000
0000
0100
0000
0000
0000
0000
0000
0000
0000
0000
0000
0020
0000
0000
0000
0000
0000
0000
0000
0000
0000
0000
0000
0000
0000
0000
0000
0000
,
0000
0032
0000
0000
,
0000
0000
0000
0000
0000
0000
0000
0000
0003
0000
0000
0100
0000
0000
0010
0000
,
0000
0000
0000
1000
0000
0000
0000
0000
0000
0000
0100
0000
0000
0000
0000
0000
0000
0000
0010
0000
0000
0000
0000
0000
0000
0000
0000
0001
0000
0000
0000
0000
,
0000
0000
0000
0000
0000
0010
0000
0000
0000
0000
0000
0000
0000
0000
0000
0200
0000
0000
0000
0000
0000
0000
0000
0000
0000
0000
0000
0000
0000
0000
0000
0000
,
0000
2300
0000
0000
,
0000
0000
0000
0000
0000
0000
0000
0000
3000
0000
0000
0010
0000
0000
0100
0000
,
0000
0000
0000
0001
0000
0000
0000
0000
0010
0000
0000
0000
0000
0000
0000
0000
0100
0000
0000
0000
0000
0000
0000
0000
1000
0000
0000
0000
0000
0000
0000
0000
,
0001
0010
0100
1000
,
0100
0000
1000
0001
1000
0001
1000
0001
,
1000
0001
1000
0001
1000
0001
1000
0001
,
1000
0001
1000
0001
1000
0001
1000
0001
,
1000
0001
1000
0001
1000
0001
1000
0001
,
1000
0001
1000
0001
1000
0001
1000
0001
,
1000
0001
1000
0001
1000
0001
1000
0001
,
1000
0001
1000
0001
1000
0001
1000
0001
,
1000
0001
1000
0001
1000
0001
1000
0001
,
1000
0001
1000
0001
1000
0001
1000
0001
,
1000
0001
1000
0001
1000
0001
1000
0001
,
1000
0001
1000
0001
1000
0001
1000
0001
,
1000
0001
1000
0001
1000
0001
1000
0001
,
1000
0001
1000
0001
1000
0001
1000
0001
,
1000
0001
1000
0001
1000
0001
1000
0001
,
1000
0001
1000
0001
1000
0001
1000
0001
,
1000
0001
1000
0001
1000
0001
1000
0001
,
1000
0001
0000
0000
0000
0000
0000
0000
;
#NOTES:
     dance-single:
     Renard:
     Medium:
     10:
     0.842,1.000,0.028,0.019,0.000:
0000
0000
0000
0000
,
0000
0000
0000
0000
,
0000
0000
0000
0000
,
0000
0000
0000
0000
,
0000
0000
0000
0000
,
0000
0000
0000
0000
,
0000
0000
0000
0000
,
0000
0000
0000
0000
,
1000
0100
1000
0000
0100
0000
1000
0100
,
1000
0100
1000
0100
,
0010
0001
0010
0000
0001
0000
0010
0001
,
0010
0000
0001
0000
0010
0001
0010
0000
,
0001
1000
0001
0000
1000
0000
0001
1000
,
0001
0000
1000
0000
0001
1000
0001
0000
,
1000
0100
1000
0100
1000
0100
1000
0100
,
1000
0100
1000
0100
1000
0000
0000
0000
,
0100
0100
0010
0001
,
0001
1000
0001
1000
,
0010
0010
0100
0001
,
0001
0010
0100
1000
,
0001
0001
0010
0100
,
0100
1000
0010
0100
,
0001
1000
1000
0010
,
0100
0100
0001
0010
,
0100
0100
0010
0001
,
0001
1000
0010
0100
,
0001
0001
0010
0100
,
0100
1000
0010
0100
,
0001
0001
1000
0001
,
0001
0010
0100
1000
,
0001
1000
0001
1000
,
0000
0000
0001
0000
,
0100
0000
0000
0010
,
1000
0000
0100
0000
,
0010
0001
0010
0001
,
0010
0000
0100
1000
,
0001
0000
0000
0100
,
0010
0000
0100
0000
,
0010
1000
0001
1000
,
0001
0000
1000
0100
,
1000
0000
0000
0001
,
0010
0000
0001
0000
,
1000
0010
1000
0010
,
1000
0000
0001
0100
,
0001
0000
0000
1000
,
0100
0000
0010
0000
,
0001
0000
0001
0000
,
0001
0000
0000
0000
,
0000
0010
0100
1000
,
0100
0000
1000
0000
0000
1000
0000
0000
,
1000
0100
0010
0001
,
1000
0000
0001
0000
0000
0001
0000
0000
,
0001
0010
0100
1000
,
0001
0000
0100
0000
0000
0100
0000
0000
,
0100
0001
0010
0100
,
1000
0000
0001
0000
0000
0001
0000
0000
,
0001
1000
0010
0100
,
0001
0000
0010
0000
0000
0010
0000
0000
,
0010
0001
0010
0100
,
1000
0000
0001
0000
0000
0001
0000
0000
,
0100
1001
0000
0000
,
0000
0000
0000
0110
,
0000
0000
0000
0000
,
0000
1001
0000
0000
,
0000
1000
0100
0010
,
0001
0000
0010
0000
0000
0001
0000
0000
,
0010
0000
0100
1000
,
0001
0100
0010
1000
,
0010
0100
0001
0010
,
0100
0000
1000
0000
0000
0100
0000
0000
,
1000
0000
0100
0010
,
0001
1000
0010
0100
,
0001
0100
0010
1000
,
0100
0000
0010
0000
0000
0001
0000
0000
,
0010
0000
0100
1000
,
0001
0100
0010
1000
,
0100
0010
0001
0010
,
0100
0000
1000
0000
0000
0001
0000
0000
,
0010
0000
0001
1000
,
0001
0000
0100
0010
0000
0100
0010
0000
,
0100
0000
0001
0000
0000
0001
0100
0000
,
0000
0010
1000
0100
,
0010
0000
0001
0000
0000
0001
0010
0000
,
0100
1000
0001
0100
,
0010
0000
1000
0000
0000
1000
0100
0000
,
0010
0001
0010
0100
,
0000
0000
1000
0000
0000
1000
0010
0000
,
0100
0001
0000
1000
,
0000
0000
0001
0000
0000
0001
0010
0000
,
0100
1000
0001
0010
,
0000
0000
0001
0000
0000
0001
1000
0000
,
0010
0100
0001
0010
,
0100
1000
0001
1000
,
0001
1000
0001
1000
,
0001
1000
1000
1000
,
1000
1000
1000
1000
,
1000
0001
0001
0010
,
0100
0100
1000
0010
,
0010
0100
0100
0001
,
0010
0100
0100
1000
,
0001
0010
0100
1000
,
0001
0001
0100
0010
,
0010
1000
0100
0010
,
0001
0010
0010
0100
,
0100
1000
1000
0010
,
0100
0001
0001
0100
,
0010
1000
0100
0010
,
0010
0001
0010
0010
,
0100
0000
1000
0000
0100
1000
0100
0000
,
1000
0000
0100
1000
0100
0000
2000
0000
,
0000
0000
3001
0000
0010
0001
0010
0000
,
0001
0000
0010
0001
0010
0000
0002
0000
,
0000
1003
0000
0000
,
0100
1000
0000
1000
,
0000
0100
1000
0100
,
1000
0100
0000
0010
,
0001
0010
0000
0000
,
0001
0010
0000
0001
,
0000
0100
0001
0100
,
0001
0100
0000
0010
,
1000
0010
0000
0000
,
1000
0010
0000
1000
,
0000
0100
1000
0100
,
1000
0100
0000
1000
,
0001
1000
0000
0000
,
0001
0010
0000
0001
,
0000
1000
0000
1000
,
0000
1000
0000
0010
,
0000
0100
0010
1000
,
0100
0000
0010
0000
0000
0010
0000
0000
,
0010
0001
0100
0010
,
1000
0000
0001
0000
0000
0010
0000
0000
,
0001
0010
0100
1000
,
0001
0000
0100
0000
0000
0100
0000
0000
,
0100
0001
0010
0100
,
1000
0000
0001
0000
0000
1000
0000
0000
,
0001
1000
0001
0100
,
0010
0000
1000
0000
0000
0010
0000
0000
,
1000
0010
0100
0001
,
0010
0000
0100
0000
0000
0100
0000
0000
,
0100
0010
0001
0010
,
0001
0000
0010
0001
0010
0000
0000
0000
,
0001
0000
0010
0001
,
0010
0001
0010
0001
,
0010
0001
0010
0100
,
1000
0001
0010
0100
,
1000
0001
0010
0100
,
1000
0001
0010
0100
,
1000
0001
0100
0010
,
1000
0001
0100
0010
,
1000
0001
0100
0010
,
1000
0001
0100
0010
,
1000
0001
0010
0100
,
0010
0001
0010
0100
,
0010
0001
0010
0100
,
0010
0001
0010
0100
,
0010
0100
1000
0100
,
0010
0100
1000
0100
,
0010
0100
1000
0010
,
0100
0001
1000
0010
,
1000
0100
1000
0100
,
1000
0100
1000
0100
,
1000
0100
1000
0100
,
1000
0100
1000
0100
,
1000
0100
1000
0100
,
1000
0100
1000
0100
,
1000
0100
1000
0100
,
1000
0100
1000
0100
,
1000
0000
0001
1000
0001
1000
0001
1000
,
0001
1000
0001
1000
0001
1000
0001
1000
,
0001
1000
0001
1000
0001
1000
0001
1000
,
0001
1000
0001
1000
0001
1000
0001
1000
,
0001
1000
0001
1000
0001
1000
0001
1000
,
0001
1000
0001
1000
0001
1000
0001
1000
,
0001
1000
0001
1000
0001
1000
0001
1000
,
0001
1000
0001
1000
0001
1000
0001
1000
,
0001
1000
0000
0000
0000
0000
0000
0000
;
#NOTES:
     dance-single:
     Renard:
     Easy:
     8:
     0.626,0.734,0.009,0.000,0.000:
0000
0000
0000
0000
,
0000
0000
0000
0000
,
0000
0000
0000
0000
,
0000
0000
0000
0000
,
0000
0000
0000
0000
,
0000
0000
0000
0000
,
0000
0000
0000
0000
,
0000
0000
0000
0000
,
1000
0000
1000
0001
,
0000
0001
1000
0000
,
0001
0000
0001
1000
,
0000
1000
0001
0000
,
1000
0000
1000
0001
,
0000
0001
1000
0000
,
0010
0010
0010
0010
,
0010
0000
0010
0000
,
1000
0000
0010
1000
,
0000
0001
0100
0000
,
0001
0000
0010
0001
,
0000
1000
0100
0000
,
1000
0000
0001
0100
,
0000
0010
1000
0000
,
0001
0000
1000
0100
,
0000
1000
0001
0000
,
1000
0000
0001
0010
,
0000
0001
1000
0000
,
0100
0000
1000
0001
,
0000
1000
0001
0000
,
0100
0000
0010
1000
,
0000
0001
0100
0000
,
0010
0000
0010
0000
,
0010
0000
0010
0000
,
1000
0000
0000
0100
,
1000
0000
0100
0000
,
1000
0001
1000
0001
,
1000
0000
0001
0000
,
0100
0000
0000
0001
,
1000
0000
0001
0000
,
0010
0001
0010
0001
,
0000
0000
1000
0001
,
1000
0000
0000
0001
,
0100
0000
0001
0000
,
1000
0100
1000
0100
,
1000
0000
0001
1000
,
0001
0000
0000
1000
,
0001
0000
0100
0000
,
0001
1000
0001
1000
,
0010
0000
0000
0000
,
0010
1000
0000
1000
,
0000
0010
0000
0000
,
0000
0100
0000
0100
,
0000
0001
0000
0000
,
0000
0010
0000
0010
,
0000
0001
0000
0000
,
0000
1000
0000
1000
,
0000
0100
0000
0000
,
0000
1000
0000
1000
,
0000
1000
0000
1000
,
0000
0010
0000
0010
,
0000
0010
0000
0010
,
0000
0100
0001
0000
,
0000
0000
0000
0100
,
0001
0000
0000
0000
,
0000
0101
0000
0000
,
0000
0001
0000
1000
,
0000
0001
1000
0000
,
0100
0000
1000
0001
,
1000
0001
0010
0001
,
1000
0010
0000
1000
,
0000
0001
1000
0000
,
0100
0000
1000
0001
,
0100
0001
1000
0001
,
1000
0010
1000
0001
,
0000
1000
0001
0000
,
0010
0000
0001
1000
,
0010
0100
0001
1000
,
0010
1000
0100
1000
,
0001
1000
0001
0000
,
0010
0000
0000
0001
,
0000
1000
0000
0001
,
0000
1000
0100
1000
,
0100
1000
0001
0000
,
1000
0000
0001
0010
,
0001
1000
0001
0100
,
0000
0001
1000
0001
,
0010
0001
1000
0000
,
0100
0000
1000
0001
,
1000
0010
1000
0001
,
0000
1000
0100
1000
,
0100
0010
0100
0000
,
0010
0000
0001
0010
,
0001
0010
0001
1000
,
0000
0001
1000
0001
,
1000
0010
1000
0000
,
0001
1000
0001
1000
,
0001
1000
0001
1000
,
0001
1000
0000
1000
,
0000
1000
0000
0010
,
0100
0001
0000
0001
,
0000
0010
0100
1000
,
0001
0010
0000
0010
,
0000
0001
1000
0100
,
1000
0010
0000
0010
,
0000
1000
0010
1000
,
0000
0001
0000
0001
,
0000
0001
1000
0100
,
0010
0001
0000
0001
,
0000
1000
0010
1000
,
0000
0010
0000
0010
,
0000
0100
0001
0100
,
0000
0010
0000
0010
,
1000
0000
1000
0010
,
0000
1000
0000
0000
,
0100
1000
0000
0001
,
0000
0010
0001
0010
,
0001
0010
0000
0001
,
0010
0001
0000
0000
,
1000
0100
0000
1000
,
0000
0001
0100
0001
,
0100
0001
0000
1000
,
0100
1000
0000
0000
,
0001
0010
0000
0001
,
0000
1000
0010
1000
,
0010
1000
0000
0010
,
0100
0010
0000
0000
,
0100
0001
0000
1000
,
0000
0100
1000
0100
,
1000
0001
0000
1000
,
0000
0001
0000
0001
,
0000
0100
0000
0000
,
0000
0010
0000
0010
,
0000
1000
0000
0000
,
0000
0001
0000
0001
,
0000
0100
0000
0000
,
0000
0010
0000
0010
,
0000
1000
0000
0000
,
0000
0001
1000
0001
,
1000
0001
1000
0001
,
1000
0001
1000
0001
,
1000
0001
1000
0001
,
1000
0001
0000
0001
,
0000
0001
0000
0000
,
1000
0000
0000
0010
,
0000
0010
0000
0010
,
0000
0100
0001
0100
,
0001
0100
0001
0100
,
0001
0100
0001
0100
,
0001
0100
0001
0100
,
0000
0010
1000
0010
,
1000
0010
1000
0010
,
1000
0010
1000
0010
,
1000
0010
1000
0010
,
0000
1000
0100
1000
,
0100
1000
0100
1000
,
0100
1000
0100
1000
,
0100
1000
0100
1000
,
0000
0001
0010
0001
,
0010
0001
0010
0001
,
0010
0001
0010
0001
,
0010
0001
0010
0001
,
0000
1000
0001
1000
,
0001
1000
0001
1000
,
0001
1000
0001
1000
,
0001
1000
0001
1000
,
0001
1000
0001
1000
,
0001
1000
0001
1000
,
0001
1000
0001
1000
,
0001
1000
0001
1000
,
0001
1000
0001
1000
,
0001
1000
0001
1000
,
0001
1000
0001
1000
,
0001
1000
0001
1000
,
0001
1000
0001
1000
,
0001
1000
0001
1000
,
0001
1000
0001
1000
,
0001
1000
0001
1000
,
0001
0000
0000
0000
;
#NOTES:
     dance-single:
     Renard:
     Beginner:
     7:
     0.509,0.734,0.000,0.000,0.000:
0000
0000
0000
0000
,
0000
0000
0000
0000
,
0000
0000
0000
0000
,
0000
0000
0000
0000
,
0000
0000
0000
0000
,
0000
0000
0000
0000
,
0000
0000
0000
0000
,
0000
0000
0000
0000
,
1000
0000
0000
0100
,
0000
0000
0010
0000
,
0001
0000
0000
0010
,
0000
0000
0100
0000
,
1000
0000
0000
0100
,
0000
0000
0010
0000
,
0001
1000
0001
1000
,
0001
0000
1000
0000
,
0001
0000
0000
0100
,
0000
0000
0010
1000
,
0010
0000
0000
1000
,
0000
0000
0100
0000
,
0010
0000
0000
0001
,
0000
0000
1000
0001
,
1000
0000
0000
0001
,
0000
0000
0100
0000
,
0010
0000
0000
1000
,
0000
0000
0010
1000
,
0010
0000
0000
1000
,
0000
0000
0001
0000
,
0100
0000
0000
0001
,
0000
0000
0010
0001
,
1000
0000
0001
0000
,
1000
0000
0001
0000
,
0100
0000
0000
0010
,
1000
0000
0010
0000
,
1000
0000
1000
0000
,
1000
0000
0001
0000
,
0010
0000
0000
0001
,
1000
0000
0001
0000
,
0100
0000
0100
0000
,
0100
0000
0001
0010
,
0100
0000
0000
1000
,
0100
0000
1000
0000
,
0001
0000
0100
0000
,
0001
0000
1000
0100
,
1000
0000
0000
0001
,
0010
0000
0001
0000
,
1000
0000
1000
0000
,
0001
0000
0000
0000
,
1000
0001
0000
0001
,
0000
0001
0000
0000
,
0000
1000
0000
1000
,
0000
1000
0000
0000
,
0000
0010
0000
0010
,
0000
0010
0000
0000
,
0000
0100
0000
0100
,
0000
0100
0000
0000
,
0000
0010
0000
1000
,
0000
0010
0000
1000
,
0000
0001
0000
0100
,
0000
0001
0000
0100
,
0000
0001
0000
0000
,
0000
0000
0000
0001
,
0000
0000
0000
0000
,
0000
0001
0000
0000
,
0000
1000
0000
1000
,
0000
0100
1000
0000
,
0100
0000
0000
1000
,
0000
0001
0000
0100
,
0000
0001
0000
0010
,
0000
0001
1000
0000
,
0001
0000
0000
1000
,
0000
0100
0000
1000
,
0000
0001
0000
0010
,
0000
0001
1000
0000
,
0010
0000
0000
1000
,
0000
0001
0000
0100
,
0000
0001
0000
1000
,
0000
0100
1000
0000
,
0001
0000
0000
0010
,
0000
0001
0000
1000
,
0000
0010
0000
1000
,
0000
0001
1000
0000
,
0001
0000
0000
1000
,
0000
0100
0000
0010
,
0000
0001
0000
1000
,
0000
0010
0100
0000
,
0010
0000
0000
1000
,
0000
0100
0000
0010
,
0000
0001
0000
1000
,
0000
0001
0100
0000
,
0001
0000
0000
1000
,
0000
0100
0000
0010
,
0000
0001
0000
1000
,
0000
0010
1000
0000
,
0010
1000
0000
1000
,
0000
1000
0000
1000
,
0000
0010
0000
0100
,
0000
0010
0000
0100
,
0010
0100
0000
0001
,
0000
0100
0001
0100
,
0000
0001
0000
1000
,
0000
0001
0000
1000
,
0100
1000
0000
0001
,
0000
1000
0001
1000
,
0000
0001
0010
0001
,
0010
0001
0010
0001
,
0010
0001
0010
0001
,
0010
0001
0010
0001
,
0010
0001
1000
0001
,
1000
0001
1000
0001
,
1000
0001
0100
0001
,
0100
0001
0100
0001
,
0000
1000
0000
0000
,
0100
1000
0000
0001
,
0000
0010
0000
0010
,
0000
0010
0000
0001
,
0000
1000
0100
0000
,
0000
1000
0000
0001
,
0000
1000
0000
0100
,
0000
1000
0000
0001
,
0100
0001
0000
0000
,
1000
0100
0000
1000
,
0000
0010
0000
0100
,
0000
0001
0000
1000
,
0100
1000
0000
0000
,
0001
0010
0000
0001
,
0000
1000
0000
1000
,
0000
0010
0000
1000
,
0000
0010
0000
0010
,
0000
0010
0000
0000
,
0000
0100
0000
0100
,
0000
0100
0000
0000
,
0000
0001
0000
0001
,
0000
0001
0000
0000
,
0000
1000
0000
1000
,
0000
1000
0000
0000
,
0000
0100
0000
0100
,
0000
0100
0000
0000
,
0000
0010
0000
0010
,
0000
0010
0000
0000
,
0000
0001
0000
0000
,
0000
0000
0000
0000
,
0000
0000
0000
0000
,
0000
0000
0000
0000
,
0000
1000
0000
1000
,
0000
0001
0000
0100
,
0010
1000
0100
0010
,
0001
1000
0100
0010
,
0001
1000
0000
0001
,
0000
0100
0000
0010
,
1000
0100
0010
0001
,
0100
0010
1000
0100
,
0000
1000
0000
0001
,
0000
0010
0000
0100
,
1000
0001
0100
0010
,
1000
0100
0010
0001
,
0000
1000
0000
0001
,
0000
0100
0000
0010
,
1000
0100
1000
0001
,
0010
0001
1000
0010
,
1000
0001
1000
0001
,
1000
0001
1000
0001
,
1000
0001
1000
0001
,
1000
0001
1000
0001
,
1000
0001
1000
0001
,
1000
0001
1000
0001
,
1000
0001
1000
0001
,
1000
0001
1000
0001
,
1000
0001
1000
0001
,
1000
0001
1000
0001
,
1000
0001
1000
0001
,
1000
0001
1000
0001
,
1000
0001
1000
0001
,
1000
0001
1000
0001
,
1000
0001
1000
0001
,
1000
0001
1000
0001
,
1000
0000
0000
0000
;
