#TITLE:1995;
#SUBTITLE:;
#ARTIST:Little Bitchard;
#TITLETRANSLIT:;
#SUBTITLETRANSLIT:;
#ARTISTTRANSLIT:;
#CRChallenge:;
#BANNER:1995-banner.avi;
#BACKGROUND:1995-bg.png;
#LYRICSPATH:;
#CDTITLE:!cdtitle.png;
#MUSIC:1995.ogg;
#OFFSET:0.000;
#SAMPLESTART:64.418;
#SAMPLELENGTH:12.000;
#SELECTABLE:YES;
#BPMS:0.000=134.000;
#STOPS:176.000=2.687
;
#BGCHANGES:;
#NOTES:
     dance-single:
     Renard:
     Medium:
     8:
     0.532,0.461,0.252,0.198,0.072:
0000
0000
0000
0000
,
0001
1000
0001
1000
0001
1000
0001
1000
,
0001
0000
1000
0001
1000
0000
0000
0001
0100
0000
0010
1000
0010
0000
0000
0000
,
0000
0000
0000
1001
,
1000
0000
0100
1000
0100
0000
0000
1000
0001
0000
0100
0001
0100
0000
0000
0000
,
0001
0000
0100
0010
0000
1000
0100
0000
,
0010
0000
0001
0010
0001
0000
0000
1000
0100
0000
1000
0001
1000
0000
0000
0000
,
0001
0000
0100
0010
0000
1000
0100
0010
,
0000
0010
0000
0010
0000
0010
0000
0010
,
0000
0010
0000
0010
0000
0010
0000
0010
,
0000
0010
0000
0010
0000
0010
0000
0010
,
0000
0000
0010
0000
0000
0000
0010
0000
0000
0000
0010
0001
1000
0100
0010
0001
,
1000
0100
1000
0010
1000
0100
0000
1100
,
0000
0010
0001
0100
0101
0000
0010
1000
,
0000
0100
1000
0001
0010
0001
0000
1001
,
0000
0001
0100
0010
1000
0000
1001
0100
,
0010
1000
0100
0010
0001
1000
0000
1001
,
0000
0001
0100
0010
0110
0000
0010
1000
,
0000
1000
0100
0010
0001
1000
0000
1001
,
0000
0001
0100
0010
1000
0000
1001
0100
,
0010
0000
0010
1000
0100
0000
0100
0001
,
0100
0010
0001
0000
1010
0000
0010
0001
,
0100
0000
0100
1000
0001
0010
1000
0100
,
0010
0001
1000
0000
1001
0000
0001
0100
,
0010
0000
0010
1000
0100
0000
0100
1000
,
0001
0100
0010
1000
1000
0000
0010
0100
,
0001
0000
0001
0010
0100
0000
0100
1000
,
0001
0100
0010
1000
1000
0000
0010
0100
,
0001
0000
0010
0100
1000
0000
0001
0010
,
0100
0000
1000
0001
0000
0100
0010
1000
,
0100
0010
0001
1000
0001
0100
0010
1000
,
0100
1000
0001
0100
0010
0000
0010
1000
,
0100
0000
1000
0001
0100
0000
0001
1000
,
0100
0010
0001
1000
0010
0000
0010
1000
,
0001
0000
0001
0100
0010
0000
0010
1000
,
0100
0000
0010
0000
0001
0000
1000
0010
0000
0000
0000
0000
0200
0000
0000
0000
,
0010
0000
1000
0010
0000
0310
1000
0100
,
0020
0000
0001
0000
0130
0010
0001
0200
,
0000
0320
0000
0000
1000
0000
0130
0000
,
0100
0010
1000
0100
0010
0000
1001
0000
,
0120
0000
1000
0100
0000
0100
1030
0100
,
0020
0000
0001
0030
0010
0100
1000
0002
,
0100
0000
0013
0000
0100
1000
0001
0000
,
0100
0010
1000
0001
0100
0010
1000
0000
,
1001
0000
1001
0000
0001
0100
0101
0010
,
0000
1000
1100
0000
0010
0001
0011
0100
,
0000
0000
1000
0000
0001
1000
0001
0000
1000
0000
0010
0000
1010
0000
0100
0000
,
0000
0001
0011
0000
0100
1000
1100
0010
,
0000
0000
0001
0000
1000
0001
1000
0000
0001
0000
0100
0000
0101
0000
0010
0000
,
0000
1000
1100
0000
0010
0001
0011
0100
,
0000
0000
1000
0000
0001
1000
0001
0000
1000
0000
0010
0000
1010
0000
0100
0000
,
0000
0001
0011
0000
0100
1000
1100
0010
,
0000
0001
2000
0000
3002
0000
0010
1000
,
0000
1000
0023
0000
0230
0000
0302
0000
,
0103
1000
0010
0002
0010
0000
0023
0000
,
1000
0000
0100
0000
2030
0000
0010
0001
,
0000
0001
3020
0000
0032
0000
0010
0000
,
1000
0023
2030
3200
,
0001
0000
0310
0002
0100
0000
0023
0000
,
0130
1000
0010
0001
0010
0100
1000
0100
,
0001
0010
1001
0000
0000
0000
0000
0000
;
#NOTES:
     dance-single:
     Renard:
     Easy:
     6:
     0.340,0.380,0.027,0.108,0.000:
0000
0000
0000
0000
,
0000
0000
0000
0000
,
0000
0000
0000
0000
,
0000
0000
0000
1001
,
0001
0100
0001
0000
1000
1000
1000
0000
,
0100
0000
1000
0100
1000
0100
1000
0100
,
1000
0000
1000
0000
0001
0001
0001
0000
,
0100
0000
0001
1000
0100
0000
1000
0000
,
0000
0001
0000
1000
0000
0001
0000
1000
,
0000
0001
0000
1000
0000
0001
0000
1000
,
0000
0001
0000
1000
0000
0001
0000
1000
,
0000
0001
0000
1000
0000
0001
0001
0001
,
0000
0100
0010
0100
0010
0100
0000
0010
,
0000
1000
0010
1000
0010
0000
0010
1000
,
0000
0001
0100
0001
0100
0001
0000
0100
,
0000
0001
1000
0001
1000
0000
0001
1000
,
0000
0100
1000
0100
1000
0100
0000
1000
,
0000
0001
0010
0001
0010
0000
0001
0010
,
0000
0001
1000
0001
1000
0001
0000
1000
,
0000
0010
1000
0010
1000
0000
0010
0000
,
1000
0000
1000
0100
1000
0000
1000
0000
,
0100
0010
0001
0000
,
0010
0001
0010
0001
0010
0000
0001
0000
,
0100
0010
0010
0000
,
1000
0000
0010
1000
0010
0000
1000
0000
,
0001
1000
0001
0000
1000
0000
0001
0000
,
0100
0000
0001
0000
0100
0000
0001
1000
,
0001
0000
1000
0100
1000
0000
0001
0000
,
0010
0000
0001
0000
0010
0000
0001
1000
,
0001
0000
1000
0001
0000
0000
0100
0000
,
0010
0000
1000
0000
0100
0000
0010
0001
,
0000
0001
0010
0000
0001
0000
1000
0000
,
0100
0000
1000
0001
1000
0000
0001
0000
,
0100
0000
0010
0100
0000
0000
0010
0000
,
1000
0000
0100
0000
0010
0001
0010
0000
,
0100
1000
0001
0100
,
0020
0000
1000
0100
,
0130
0000
0020
0000
0000
0030
1000
0200
,
0000
0000
0320
0000
0000
0030
0001
0000
,
0010
0100
1000
0010
,
0200
0000
0301
0010
,
0100
0000
2000
0000
0000
0000
3001
0200
,
0000
0000
0320
0000
0000
0030
1000
0000
,
0010
0100
0001
1000
,
1001
0000
0000
0000
0001
0000
1000
0100
,
0000
0000
1000
0000
0001
0000
0100
0001
,
0000
1000
0100
0000
0010
0000
0001
1000
,
0000
0000
0001
0000
0100
0000
0010
1000
,
0000
0000
0010
0000
1000
0000
0100
0010
,
0000
0000
0001
0000
1000
0000
0010
0100
,
0000
0010
0100
0000
0010
0000
0100
0001
,
0000
1000
0001
1000
,
0100
1000
0200
0000
,
0010
0310
0010
0001
,
0000
0000
1000
0001
0000
0100
0000
0000
,
0010
1000
0010
1000
,
0001
0100
0002
0000
,
1003
0001
0100
0100
,
0000
0000
0010
2000
0000
0000
3200
0000
,
0000
0310
0001
0010
,
0100
1001
0000
0000
;
#NOTES:
     dance-single:
     Renard:
     Beginner:
     2:
     0.248,0.299,0.027,0.225,0.000:
0000
0000
0000
0000
,
0000
0000
0000
0000
,
0000
0000
0000
0000
,
0000
0000
0000
1001
,
0001
0001
1000
1000
,
0000
0010
0100
0010
,
1000
1000
0001
0001
,
0000
0100
0010
2000
,
0002
0000
0000
0000
,
0000
0000
0000
0000
,
0000
0000
0000
0000
,
0000
0000
3003
0000
,
1000
0001
0100
0100
,
0001
1000
0100
0100
,
1000
0001
0100
0100
,
0001
1000
0001
1000
,
0001
1000
0010
0010
,
1000
0001
0010
0010
,
0001
1000
0010
0010
,
1000
0001
0010
0001
,
1000
1000
1000
1000
,
0001
0001
0001
0000
,
0000
0100
0100
0000
,
0000
0010
0010
0000
,
1000
1000
1000
1000
,
0100
0100
0100
0000
,
0000
0010
0010
0000
,
0000
0001
0001
0000
,
1000
1000
0001
0001
,
0100
0000
0100
0000
,
0010
0010
0000
0010
,
0000
1000
0010
0000
,
1000
1000
0100
0100
,
0010
0000
0001
0000
,
0010
0010
0000
0001
,
0010
0001
1000
0001
,
0200
0000
0000
0000
,
0320
0000
0000
2030
,
3200
0000
0310
0000
,
0001
1000
0001
0100
,
0020
0000
0000
0000
,
2030
0000
0000
3100
,
0020
0000
0032
0000
,
1003
0000
0001
0100
,
1001
0000
1000
1000
,
0001
0001
0100
0100
,
0020
2030
3100
0100
,
1000
1000
0001
0001
,
0020
0032
0103
0100
,
0001
0001
1000
1000
,
0200
0320
0031
0001
,
1000
1000
0010
0010
,
0200
0302
2003
0000
,
0000
0100
3200
0000
,
0000
0010
0320
0000
,
0031
0100
0010
1000
,
0100
0010
0002
0000
,
0000
0010
0023
0000
,
0000
0100
0230
0000
,
2300
0000
3010
0100
,
0001
1001
0000
0000
;
