#TITLE:Zombie Rising;
#SUBTITLE:;
#ARTIST:Emoticon and Omicron Complex;
#TITLETRANSLIT:;
#SUBTITLETRANSLIT:;
#ARTISTTRANSLIT:;
#GENRE:;
#CREDIT:;
#BANNER:zombie.png;
#BACKGROUND:zombie-bg.png;
#LYRICSPATH:;
#CDTITLE:;
#MUSIC:zombie.ogg;
#OFFSET:0.000;
#SAMPLESTART:11.294;
#SAMPLELENGTH:12.000;
#SELECTABLE:YES;
#BPMS:0.000=170.000;
#STOPS:62.000=0.176
,62.500=0.176
;
#BGCHANGES:;
#KEYSOUNDS:;

//---------------dance-single - Renard----------------
#NOTES:
     dance-single:
     Renard:
     Challenge:
     12:
     1.000,0.000,0.232,0.695,1.000:
0000
0000
0000
0000
,
0000
0000
0000
0000
,
0000
0000
0000
0000
0000
0000
0000
0000
0000
0000
0000
0000
0001
1000
0001
1000
,
0001
0000
0000
1001
,
0001
0000
0100
0001
0100
0000
0001
1000
0001
0000
1000
0100
1000
0000
0001
0010
,
0001
0000
1000
0010
1000
0000
0001
0100
0001
0000
1000
0100
0010
0001
0010
0100
,
1000
0000
0001
1000
0001
0000
1000
0100
1000
0000
0001
0010
0001
0000
1000
0000
,
0001
0000
0100
0010
0100
0000
0010
0100
0010
0000
0100
0010
0100
0000
0000
0000
,
0010
1000
0100
0010
0001
0010
0100
1000
0010
0100
0001
0010
0100
1000
0001
0100
,
0010
1000
0100
0010
0001
0010
0100
1000
0001
0100
0010
1000
0100
1000
0001
0010
,
0100
1000
0001
0100
0010
1000
0001
1000
0100
0010
0001
0100
0010
1000
0001
0100
,
0010
1000
0100
0010
0001
0010
0100
1000
0001
1000
0001
1000
0001
0000
0001
0000
,
0100
0001
0010
0100
1000
0100
0010
0001
0100
0010
1000
0100
0010
0001
1000
0010
,
0100
0001
0010
0100
1000
0100
0010
0001
1000
0010
0100
0001
0010
0001
1000
0100
,
0010
0001
1000
0010
0100
0001
1000
0001
0010
0100
1000
0010
0100
0001
1000
0000
,
1001
0000
1010
0000
0101
0000
0011
0000
1001
0000
0110
0000
0010
1000
0010
0100
,
0001
0100
0001
0010
0001
1000
0100
1000
0010
1000
0001
0100
0001
1000
0100
1000
,
0001
0010
0100
0010
0001
1000
0100
0010
0100
1000
0001
0010
0100
1000
0100
0010
,
0001
1000
0100
0010
0100
1000
0001
0010
0100
0010
0001
1000
0100
0010
0001
1000
,
0001
0100
0010
1000
0010
0100
0001
1000
0100
1000
0001
0000
0100
0001
0100
0010
,
1000
0010
1000
0100
1000
0001
0010
0001
0100
0001
1000
0010
1000
0001
0010
0001
,
1000
0100
0010
0100
1000
0001
0010
0100
0010
0001
1000
0100
0010
0001
0010
0100
,
1000
0001
0010
0100
0010
0001
1000
0100
0010
0000
0001
0000
0001
0010
0100
1000
,
0001
0000
0000
0000
0000
0000
1000
0000
0100
0000
1000
0000
0100
0000
0000
1000
0000
0000
0001
0000
0000
0100
0000
0000
0001
0000
0000
1000
0000
0000
0001
0000
0000
0000
0000
0000
0200
0000
0000
0000
0000
0000
0002
0000
0000
0300
0000
0000
,
0200
0003
2000
0300
0200
3000
0020
0300
0002
0030
0020
0003
0200
0030
2000
0300
,
0200
3000
0020
0300
2000
0030
0200
3000
0002
0300
0200
0003
0020
0300
0002
0030
,
0020
0003
2000
0030
0020
3000
0200
0030
2000
0300
0020
3000
0200
0030
0002
0300
,
0200
0003
0020
0300
2000
0030
0020
3000
0002
0030
0020
0003
0200
0030
0002
0300
,
2000
0003
0200
3000
0020
0300
0002
0030
0020
0003
2000
0030
0020
3000
0200
0030
,
2000
0300
0020
3000
0002
0030
0020
0003
0200
0030
0020
0300
0002
0030
2000
0003
,
0200
3000
0020
0300
0200
0030
2000
0300
0020
3000
0200
0030
0002
0300
2000
0003
,
0200
0000
0000
3000
0000
0000
0020
0000
0000
0300
0000
0000
0002
0000
0000
0030
0000
0000
0020
0000
0000
0003
0000
0000
0200
0000
0000
0030
0000
0000
2000
0000
0000
0300
0000
0000
3001
0000
0000
0000
0100
0000
0000
0000
0010
0000
0000
0000
,
1000
0100
0010
0001
0010
0001
0011
0000
0010
0100
1000
0001
,
0100
0010
1000
0100
1000
0001
1001
0000
0001
0100
0010
1000
,
0100
0010
0001
0010
0100
1000
1100
0000
0100
1000
0010
0100
,
0001
0010
0100
1000
0000
0000
0000
0000
0000
0001
0010
0100
,
1000
0001
0100
0010
1000
0010
1010
0000
0000
1000
0100
0010
,
0001
0010
0100
1000
0001
0100
0101
0000
0000
0001
0010
0100
,
1000
0001
0010
0100
1000
0001
1001
0000
0000
0001
0100
0010
,
1000
0000
0000
0000
0100
0000
0000
0000
1000
0000
0000
0000
0001
0000
0000
0000
0000
0000
0000
0000
0000
0000
0000
0000
0000
0000
0000
0000
0000
0000
0000
0000
0000
0000
0000
0000
1000
0000
0000
0100
0000
0000
0010
0000
0000
0000
0000
0000
,
0001
0010
0100
0000
1000
0010
0100
0000
0001
0100
0010
0000
2000
0000
0100
0000
,
0010
0000
0002
0000
3113
0000
0001
0100
,
0010
0000
1000
0010
1000
0000
0100
0000
0010
0000
0001
0000
1000
0000
0100
0000
,
1000
0000
0001
1000
0001
1000
0001
0000
0100
0000
0010
0000
1000
0000
0100
0000
,
1000
0000
0100
1000
0100
0000
1000
0000
0010
0000
0100
0000
0001
0000
0010
0000
,
0001
0000
1000
0001
1000
0000
0001
0100
0001
0000
0010
0001
0010
0000
0001
0000
,
0010
0000
0100
0000
1000
0000
0001
1000
0001
0000
1000
0000
0010
0000
1000
0000
,
0100
0000
0010
0001
0010
0000
0001
0000
0010
0000
0100
0000
1000
0000
0001
0000
,
0100
0000
0001
0100
0001
0100
0001
0000
0100
0000
0010
1000
0010
0000
1000
0100
,
1000
0000
0000
0000
0000
0000
0001
0000
0000
0010
0000
0000
0001
0000
0000
0000
0000
0000
1000
0000
0100
0000
1000
0000
0100
0000
0000
1000
0000
0000
0010
0000
0000
0100
0000
0000
0001
0000
0000
0000
0000
0000
0001
0000
0000
0100
0000
0000
,
0000
0100
0010
0000
0010
1000
0000
1000
0100
0000
0010
0000
0001
0000
0001
0010
,
0000
0010
0100
0000
0100
1000
0000
1000
0010
0000
0100
0000
0001
0000
0001
1000
,
0000
1000
0100
0000
0100
1000
0000
1000
0001
0000
0010
0000
0100
0000
0100
1000
,
0000
1000
0010
0000
0100
0000
0001
0100
0001
0000
0100
0000
0010
0000
0010
1000
,
0000
1000
0100
0000
0100
0010
0000
0010
0001
0000
0010
0000
0100
0000
0100
1000
,
0000
1000
0010
0000
0010
0100
0000
0100
0001
0100
0001
0000
0100
0000
0100
0010
,
0000
0010
1000
0000
1000
0100
0000
0100
0010
0000
0001
0000
0010
0000
0010
0100
,
0000
0100
1000
0000
0001
1000
0001
1000
0001
0000
1000
0000
0001
0100
0001
0100
,
0010
1000
0100
0010
0001
0010
0100
1000
0001
0100
0010
1000
0100
1000
0001
0010
,
0100
1000
0001
0100
0010
1000
0100
0010
0100
1000
0001
0010
0100
0010
0001
0100
,
0010
1000
0100
0010
0001
0010
0100
1000
0001
0100
0010
1000
0100
1000
0001
0010
,
0100
1000
0001
0100
0010
1000
0001
1000
0001
0000
0001
0000
1000
0010
1000
0010
,
0100
0001
0010
0100
1000
0100
0010
0001
1000
0010
0100
0001
0010
0001
1000
0100
,
0010
0001
1000
0010
0100
0001
0010
0100
0010
0001
1000
0000
1001
0000
1010
0000
,
0101
0000
0011
0000
1100
0000
1000
0100
0010
0000
0001
0000
1010
0000
0010
1000
,
0001
0100
0011
0100
1001
0000
0000
0000
;

//---------------dance-single - pyroko----------------
#NOTES:
     dance-single:
     pyroko:
     Hard:
     10:
     0.986,0.000,0.053,0.737,1.000:
0000
0000
0000
0000
,
0000
0000
0000
0000
,
0000
0000
0000
0000
0000
0000
1000
0001
,
2000
0000
0000
0000
0000
0000
0000
3000
,
0010
1000
0100
0010
0001
1000
0010
1000
,
0010
0100
0001
0100
0001
0010
0100
1000
,
0100
1000
0100
0010
0001
1000
0010
0100
,
0010
0000
1000
0100
1000
0000
0100
0010
0001
0000
0010
0001
0010
0000
0000
0000
,
0001
1000
0100
0000
0010
0100
0000
0001
1000
0000
0010
0100
0000
0010
0100
0000
,
0010
1000
0000
0010
0100
0000
0001
0010
0000
0100
1000
0000
0010
1000
0000
0001
,
0010
0000
0001
0100
0000
0010
0100
0000
0010
1000
0000
0100
0010
0000
0100
1000
,
0000
0001
0010
0000
0100
1000
0000
0000
0010
1000
0010
1000
0001
0100
0001
0100
,
0010
1000
0100
0000
0010
0001
0000
1000
0100
0000
0010
0001
0000
0010
0001
0000
,
0100
0010
0000
0001
0010
0000
1000
0100
0000
0010
0100
0000
1000
0010
0000
0100
,
0010
0000
0001
0010
0000
1000
0100
0000
0010
1000
0000
0010
0001
0000
1000
0000
,
0100
0010
0001
1000
1000
0010
1000
0100
,
0010
0001
0000
1000
0100
0000
0010
0001
0000
0100
0010
0000
0001
0010
0000
1000
,
0100
0000
0010
0100
0000
1000
0001
0000
0010
0001
0000
0100
0010
0000
0100
0010
,
0000
1000
0010
0000
1000
0100
0000
0010
0001
0000
1000
0100
0000
0010
0001
0000
,
0100
0010
0000
0000
0010
1000
0010
0100
0001
0100
0010
1000
0000
0010
0100
0000
,
0001
1000
0000
0100
0010
0000
0001
1000
0000
0100
0010
0000
0001
1000
0000
0010
,
0100
0000
0010
0100
0000
0010
0001
0000
0010
1000
0000
0100
0010
0000
0100
1000
,
0000
0001
0010
0000
0100
1000
0000
0001
0010
0000
0100
1000
0001
0000
0010
0000
,
0100
0000
1000
0000
1000
0010
1000
0010
0100
0001
0010
0001
2000
0000
3020
0000
,
0230
0320
0230
0302
0023
0032
0023
0230
,
2300
3020
2030
3020
0230
0302
0023
0230
,
2300
3020
0230
0302
0023
0230
0320
0032
,
2003
3002
0023
0230
2300
3020
0230
0320
,
0032
0023
2030
3200
2300
3200
0320
0032
,
0023
2030
3020
0032
0203
0302
0023
0230
,
2300
3020
0230
0302
0023
0032
2003
3200
,
2300
0000
0000
3200
0000
0000
0320
0000
0000
0032
0000
0000
0023
0000
0000
0032
0000
0000
1003
0000
0000
0000
0100
0000
,
0010
0000
0001
1000
0100
0010
0001
0000
1000
0010
0000
1000
,
0100
0000
0010
0001
0000
1000
0010
0000
0100
0010
0000
1000
,
0100
0000
0010
0100
0010
0001
0100
0000
0010
0100
0010
1000
,
0100
0000
0000
0000
0010
0000
0200
0000
0000
0000
0000
0000
0000
0000
0000
0300
0000
0000
1001
0000
0000
0000
0100
0000
,
0010
0000
0001
1000
0010
0100
0010
0000
0001
0010
0000
1000
,
0100
0000
0010
0100
1000
0001
0010
0000
0010
0100
0000
0100
,
1000
0000
1000
0010
0100
0010
1000
0000
1000
0100
0010
0001
,
1000
0000
0000
0000
0100
0000
0000
0000
0010
0000
0000
0000
0002
0000
0000
0000
0000
0000
0000
0000
0000
0000
0000
0000
0000
0000
0000
0000
0000
0000
0000
0000
0000
0003
0000
0000
1000
0000
0000
0000
0000
0000
0100
0000
0000
0000
0000
0000
,
0010
0001
1000
0100
1000
0100
0010
0001
,
2000
0000
0000
3000
0020
0000
0000
0030
1010
0000
0000
0000
1000
0000
0100
0000
,
0010
0001
1000
0010
0100
0001
1000
0100
,
0010
0000
0001
0000
1000
0100
0010
0000
0100
0000
0000
0000
1000
0000
0001
0000
,
0100
0010
1000
0100
0010
0000
0001
1000
,
0010
0000
0100
0010
0100
0000
0010
0000
1000
0000
0000
0000
1000
0000
0100
0000
,
0010
0001
1000
0100
1000
0000
1000
0100
,
1000
0000
0010
0000
0100
0001
0100
0000
0001
0000
0000
0000
0010
0000
0100
0000
,
1000
0010
0100
0001
0010
0001
1000
0200
,
0010
0000
0000
0000
1000
0000
0000
0000
1300
0000
0000
0000
1000
0001
0010
0000
,
0100
0010
0000
1000
0001
0000
0100
0010
0000
0100
0010
0000
0100
0001
0000
0100
,
0010
0000
1000
0100
0000
0010
0001
0000
0100
0001
0000
1000
0100
0000
1000
0010
,
0000
0100
0010
0000
0100
0001
0000
0010
0100
0000
0010
0001
0000
1000
0100
0000
,
0010
0001
0000
0000
0100
0001
0100
0001
1000
0010
1000
0010
0100
0001
0010
0000
,
0100
1000
0000
0001
0010
0000
0100
1000
0000
0100
1000
0000
0010
0100
0000
1000
,
0100
0000
0001
0010
0000
0100
0010
0000
0001
0100
0000
0010
0100
0000
1000
0100
,
0000
0001
0010
0000
0100
0001
0000
0100
1000
0000
0001
1000
0000
0010
0100
0000
,
0001
0100
0000
0000
0010
1000
0010
0100
0001
0010
0001
1000
0000
0100
0010
0000
,
1000
0001
0000
0010
0100
0000
1000
0001
0000
0010
0100
0000
1000
0001
0000
0100
,
0010
0000
0100
0010
0000
0100
1000
0000
0100
0001
0000
0010
0100
0000
0010
0001
,
0000
1000
0100
0000
0010
0001
0000
0010
0001
0000
0100
0010
0000
1000
0010
0000
,
0100
0001
0000
0000
0001
0100
0001
0100
0010
1000
0100
1000
0100
0010
0001
0000
,
1000
0001
0000
0100
0010
0000
1000
0100
0000
0010
0100
0000
1000
0001
0000
0100
,
0010
0000
0001
0010
0000
1000
0100
0000
0010
1000
0000
0010
0100
0000
1000
0000
,
0100
1000
0010
0100
0001
0100
0100
0000
,
0101
0111
1111
0000
;

//---------------dance-single - pyroko----------------
#NOTES:
     dance-single:
     pyroko:
     Medium:
     7:
     0.594,0.000,0.105,0.379,0.142: // measure 1
0000
0000
0000
0000
,  // measure 2
0000
0000
0000
0000
,  // measure 3
0000
0000
0000
0000
0000
0000
1000
0001
,  // measure 4
2000
0000
0000
3000
,  // measure 5
1000
0100
0010
0001
,  // measure 6
0010
0001
0010
0100
,  // measure 7
1000
0100
1000
0010
,  // measure 8
0100
0001
0100
0000
0001
0010
0001
0000
,  // measure 9
1000
0100
0010
0001
1000
0100
0010
0000
,  // measure 10
1000
0001
1000
0001
0100
0010
0100
0000
,  // measure 11
1000
0001
1000
0001
0010
0001
0010
0000
,  // measure 12
0001
1000
0100
1000
0100
1000
0100
0000
,  // measure 13
0010
0001
0010
0001
0010
0001
0010
0000
,  // measure 14
0100
0010
0100
0010
0100
0010
0100
0000
,  // measure 15
1000
0100
1000
0100
1000
0100
1000
0000
,  // measure 16
0010
0000
1000
0000
0100
0000
0010
0000
0002
0000
0000
0003
1000
0000
0010
0000
,  // measure 17
0100
0010
0100
0001
0010
0000
0001
0010
,  // measure 18
0001
0010
0001
0010
0001
0000
0010
0100
,  // measure 19
0010
0100
0010
0100
0010
0000
0100
1000
,  // measure 20
0100
1000
0100
1000
0100
0000
1000
0100
,  // measure 21
0010
0001
1000
0100
0010
0000
1000
0100
,  // measure 22
0010
0001
1000
0100
0010
0000
0001
1000
,  // measure 23
0001
1000
0010
0100
0010
0000
1000
0100
,  // measure 24
0010
0001
1000
0000
1000
0000
2000
0000
,  // measure 25
3200
0320
0032
0023
,  // measure 26
0230
2300
3020
2030
,  // measure 27
3200
2300
3020
0230
,  // measure 28
0302
0023
0032
2003
,  // measure 29
3020
0230
0320
2030
,  // measure 30
3200
2300
3200
0320
,  // measure 31
0032
0023
0032
0203
,  // measure 32
0320
0000
0000
2030
0000
0000
3200
0000
0000
0310
0000
0001
,  // measure 33
1000
0000
0010
0100
0000
0010
1000
0000
0100
0010
0000
0100
,  // measure 34
1000
0000
0100
1000
0000
0100
1000
0000
0000
0100
0000
0010
,  // measure 35
0001
0000
0100
0001
0000
0010
0001
0000
1000
0010
0000
0100
,  // measure 36
0010
0000
1000
0200
0000
0000
0300
0000
0000
0010
0000
0001
,  // measure 37
1000
0000
0100
0010
0000
0001
1000
0000
0010
0100
0000
0001
,  // measure 38
1000
0000
0100
0010
0000
0100
1000
0000
0010
0100
0000
0001
,  // measure 39
0010
0000
0001
0010
0000
0100
1000
0000
0010
0100
0000
0001
,  // measure 40
1000
0000
0100
0020
0000
0000
0030
0000
0000
1100
0000
0000
,  // measure 41
0000
0000
0000
0000
,  // measure 42
0000
0000
0110
0011
,  // measure 43
1000
0100
0010
0001
,  // measure 44
1000
0000
0100
1000
0100
0000
1000
0000
,  // measure 45
0010
0100
0010
0100
,  // measure 46
0001
0000
0010
0001
0010
0000
0100
0000
,  // measure 47
1000
0100
1000
0010
,  // measure 48
0100
0000
0001
0100
0001
0000
0010
0000
,  // measure 49
0100
0000
1000
0000
0010
0000
1000
0100
,  // measure 50
1000
0000
0010
1000
0010
0100
0001
0000
,  // measure 51
1000
0000
0100
0010
0001
0000
1000
0000
,  // measure 52
0100
0000
1000
0100
1000
0000
0100
0000
,  // measure 53
0010
0000
0001
0010
0001
0000
0100
0010
,  // measure 54
1000
0100
1000
0000
0011
0000
1000
0100
,  // measure 55
0010
0001
1000
0000
1000
0000
0100
0010
,  // measure 56
0100
0010
0100
0000
1000
0000
1000
0000
,  // measure 57
0010
0000
0100
0000
0001
0000
1000
0100
,  // measure 58
0010
0001
1000
0000
0110
0000
1000
0100
,  // measure 59
0010
0001
1000
0000
1000
0000
0100
0010
,  // measure 60
0100
0010
0100
0000
1000
0000
0010
1000
,  // measure 61
0010
1000
0010
0000
0100
0000
0001
0010
,  // measure 62
0001
0010
0001
0000
0110
0000
0100
1000
,  // measure 63
0010
1000
0100
0000
1000
0000
0010
1000
,  // measure 64
0010
1000
0010
0000
1000
0000
0001
0100
,  // measure 65
0001
0100
0001
0010
0001
0000
1100
0000
,  // measure 66
0011
1100
0110
0000
;

//---------------dance-single - pyroko----------------
#NOTES:
     dance-single:
     pyroko:
     Easy:
     4:
     0.364,0.000,0.084,0.105,0.000: // measure 1
0000
0000
0000
0000
,  // measure 2
0000
0000
0000
0000
,  // measure 3
0000
0000
0000
0000
,  // measure 4
0000
0000
0000
0000
,  // measure 5
1000
1000
0100
0100
,  // measure 6
0010
0010
0001
0001
,  // measure 7
1000
0010
0100
0001
,  // measure 8
2000
0000
0000
3000
,  // measure 9
0100
0010
0100
0010
,  // measure 10
0001
1000
0001
1000
,  // measure 11
0010
1000
0100
1000
,  // measure 12
0100
0010
0001
0001
,  // measure 13
1000
0010
0100
0010
,  // measure 14
1000
0100
1000
0100
,  // measure 15
0010
0001
0010
0001
,  // measure 16
0100
0000
0000
0000
0010
0000
0000
0000
2000
0000
0000
3000
0010
0000
0000
0000
,  // measure 17
1000
0100
1000
0010
,  // measure 18
0100
0001
0010
0001
,  // measure 19
0010
0100
1000
0100
,  // measure 20
0010
0000
0001
0010
0001
0000
0010
0000
,  // measure 21
0100
1000
0010
0100
,  // measure 22
0010
1000
0100
1000
,  // measure 23
0100
0010
0001
1001
,  // measure 24
1001
1001
0100
0010
,  // measure 25
0001
0002
0000
1003
,  // measure 26
0010
0020
0000
0130
,  // measure 27
0001
0002
0000
0013
,  // measure 28
0100
0200
0000
1300
,  // measure 29
0010
0020
0000
0130
,  // measure 30
0001
0002
0000
0013
,  // measure 31
0100
0200
0000
0310
,  // measure 32
0001
0000
0000
0000
0002
0000
0000
0000
0000
0000
0000
0003
1000
0000
0000
0000
,  // measure 33
0010
1000
0010
1000
,  // measure 34
0100
1000
0100
0010
,  // measure 35
0001
0010
0001
0100
,  // measure 36
0010
1010
0000
1000
,  // measure 37
0100
0010
0100
0010
,  // measure 38
0100
1000
0100
1000
,  // measure 39
0010
0100
0001
0100
,  // measure 40
0001
0011
0000
1001
,  // measure 41
0000
0000
0000
0000
,  // measure 42
0000
0000
0000
1000
,  // measure 43
0010
1000
0000
0001
,  // measure 44
0100
0001
0000
0010
,  // measure 45
0100
0010
0000
1000
,  // measure 46
0100
1000
0000
0001
,  // measure 47
0010
0001
0000
0100
,  // measure 48
0010
0100
0000
0010
,  // measure 49
1000
0010
0000
1000
,  // measure 50
0100
0010
0001
1001
,  // measure 51
0100
0010
0100
0010
,  // measure 52
0001
1000
0001
1000
,  // measure 53
0010
0100
0010
0100
,  // measure 54
0001
0000
0010
0001
0010
0000
0001
0000
,  // measure 55
1000
0100
1000
0010
,  // measure 56
1000
0010
0100
0010
,  // measure 57
0100
0001
0010
0100
,  // measure 58
1000
0000
0010
1000
0010
0000
1000
0000
,  // measure 59
0100
0010
0001
1000
,  // measure 60
0001
0010
0001
1000
,  // measure 61
0010
0100
0010
0100
,  // measure 62
0010
0000
1000
0100
1000
0000
0100
0000
,  // measure 63
0010
0001
0010
0001
,  // measure 64
0100
0010
1000
0010
,  // measure 65
1000
0100
0010
0001
,  // measure 66
1000
0100
1001
0000
;
