#TITLE:Zap! (roxx ur nadz edition);
#SUBTITLE:;
#ARTIST:DJ Potatoe rmx by Virt;
#TITLETRANSLIT:;
#SUBTITLETRANSLIT:;
#ARTISTTRANSLIT:;
#CREDIT:;
#BANNER:zap.png;
#BACKGROUND:zap-bg.png;
#LYRICSPATH:;
#CDTITLE:;
#MUSIC:zap.ogg;
#OFFSET:0.000;
#SAMPLESTART:21.333;
#SAMPLELENGTH:12.000;
#SELECTABLE:YES;
#BPMS:0.000=180.000;
#STOPS:;
#BGCHANGES:;

//---------------dance-single - Renard----------------
#NOTES:
     dance-single:
     Renard:
     Hard:
     9:
     0.744,0.739,0.241,0.000,1.000:
0000
0000
0000
0000
,
0000
0000
0000
0000
,
0000
0000
0000
0000
,
0000
0000
0000
0000
,
0000
0000
0000
0000
,
0000
0000
0000
0000
,
0001
0100
0001
0000
0000
0000
1000
0100
1000
0000
0000
0000
,
0001
0010
0001
0000
0000
0000
1000
0010
1000
0000
0000
0000
,
0001
0000
0001
0100
0010
0000
1000
0000
1000
0100
0010
0000
,
0001
0000
0001
0010
0100
0000
1000
0000
1000
0010
0100
0000
,
0001
0000
0001
0100
0010
0000
1000
0000
1000
0100
0010
0000
,
0001
0000
0001
0010
0100
0000
1000
0000
1000
0010
0100
0001
,
1000
0000
0001
1000
0001
0000
0100
0000
0010
0100
0010
0000
,
1000
0000
0010
1000
0010
0000
1000
0000
0001
0100
0001
0000
,
0100
0000
0001
0010
0001
0000
0010
0000
0100
0010
0100
0000
,
0110
0011
1100
1001
,
0101
0010
1000
0100
,
0010
0000
0000
0001
0000
0001
0010
0000
0010
0100
0000
0100
,
1000
0000
1000
0010
0000
0010
0100
0000
0100
0001
0000
0001
,
0100
0000
0100
0010
0000
0010
1000
0000
1000
0100
0000
0100
,
0010
0000
0010
0001
0000
0001
1000
0000
1000
0001
0000
0001
,
0100
0000
0100
0000
0100
0000
0110
0000
0110
0000
0110
0000
,
0010
0000
0010
1000
0000
1000
0100
0000
0100
0010
0000
0010
,
0001
0000
0001
0010
0000
0010
0100
0000
0100
1000
0100
1000
,
0100
0000
1000
0010
0000
0100
0001
0000
0100
0010
0000
1000
,
0001
0000
1000
0100
0000
1000
0001
0000
0010
0001
0000
1000
,
0001
0000
0001
1000
0000
1000
0010
0000
0010
0100
0000
0100
,
0001
0000
1001
1010
,
0000
0000
0000
0101
0000
0000
0001
1000
0001
1000
0001
1000
,
0100
0000
0100
1000
0000
1000
0001
0000
0001
0010
0000
0010
,
0001
0000
0001
1000
0000
1000
0100
0000
0100
1000
0000
1000
,
0010
0000
0010
1000
0000
1000
0001
0000
0001
0100
0000
0100
,
0001
0000
0001
1000
0000
1000
0010
0000
0010
1000
0001
1000
,
0001
0000
0001
0100
0000
0100
0001
0000
0001
1000
0000
1000
,
0010
0000
0010
1000
0000
1000
0100
0000
0100
1000
0001
1000
,
0001
0000
1000
0001
0000
0100
0010
0000
1000
0010
0000
1000
,
0001
0000
1000
0100
0000
1000
0001
1000
0001
1000
0000
0001
,
1000
0001
0100
0010
0000
0000
1000
0010
0100
0001
0000
0000
,
0001
0100
0010
1000
0000
0000
1000
0100
0010
0001
0000
0000
,
1000
0000
1000
0001
0100
0001
0100
0000
0100
0001
1000
0001
,
1000
0000
0100
1000
0100
1000
0001
0000
1000
0001
0000
0000
,
0001
0000
0100
0001
0100
0001
1000
0000
1000
0100
1000
0100
,
1000
0000
1000
0001
0000
0001
1000
0000
1000
0010
0000
0010
,
1000
0000
1000
0001
0010
0001
1000
0000
1000
0010
1000
0010
,
1000
0000
1000
0001
0000
0001
0100
0000
0100
0001
0000
0001
,
1000
0000
1000
0100
1000
0100
1000
0000
1000
0001
0010
0001
,
1000
0000
1001
0000
0000
0000
0001
0000
1001
0000
0000
0000
,
1000
0000
0100
1000
0100
1000
0100
0000
1000
0100
0000
0000
,
0010
0000
0001
0010
0001
0010
0001
0000
0010
0001
0000
0000
,
0100
0000
0001
0100
0001
0100
0001
0000
0100
0001
0000
0000
,
1000
0000
0010
1000
0010
1000
0010
0000
1000
0010
0000
1000
,
0100
0000
1000
0100
1000
0100
0010
0000
0100
0010
0100
0010
,
0001
0000
0010
0001
0010
0001
0100
0000
0000
0101
0000
0000
,
1001
0000
0000
0100
1000
0100
1000
0000
0000
1001
0000
0000
,
0101
0000
0000
0010
0000
0000
1000
0000
0100
1000
0000
0001
,
0010
0000
0001
1000
0000
0000
0001
0000
0000
0110
0000
0000
,
0010
0000
1000
0100
0000
0000
0010
0000
0001
0100
0000
0000
,
1001
0000
0000
0001
0000
0100
0010
0000
1000
0010
0000
0100
,
0010
0000
0100
0001
0000
0100
0010
0000
1000
0010
0000
1000
,
0010
0000
1000
0100
0000
1000
0100
1000
0000
0001
0000
1000
,
0001
1000
0000
0001
0000
0010
0001
0000
0010
0001
0000
0000
,
0011
0000
0110
0000
1100
0000
1000
0010
1000
0000
0000
0000
,
0001
0100
0001
0000
0000
0000
0001
0010
0001
0000
0000
0000
,
0010
0100
0010
0000
0000
0000
0100
1000
0100
1000
0000
0000
,
0010
0000
0010
0100
0000
0100
0001
0100
0001
0100
0000
0000
,
0001
0000
0001
0010
0000
0010
0100
1000
0100
1000
0000
0000
,
0010
1000
0010
1000
0000
0000
0001
0000
0000
0100
0000
0000
,
0110
0000
0000
1001
0000
0000
1100
0000
0000
0100
0000
1000
,
0010
0000
0100
0001
0000
0000
1000
0000
0001
0100
0001
0000
,
1000
0000
0100
1000
0100
0000
1000
0000
1000
0001
0000
0001
,
0010
0000
0010
0100
0000
0100
1000
0000
1000
0001
1000
0001
,
1000
0000
1000
0001
1000
0001
1000
0100
0010
0001
0010
0100
,
1000
0001
0010
0100
1000
0001
1000
0000
0000
0001
0000
0001
,
0100
0000
0100
0010
0000
0010
1000
0000
1000
0100
0000
0100
,
0010
0000
0010
0001
0000
0001
1000
0100
0010
0001
0000
0000
,
0001
0010
0100
1000
0100
0010
0001
0000
0000
0001
0010
0100
,
1001
0000
0000
0000
;

//---------------dance-single - Renard----------------
#NOTES:
     dance-single:
     Renard:
     Challenge:
     10:
     0.864,0.915,0.176,0.000,1.000:
0000
0000
0000
0000
,
0000
0000
0000
0000
,
0000
0000
0000
0000
,
0000
0000
0000
0000
,
0000
0000
0000
0000
,
0000
0000
0000
0000
,
0001
0100
0001
0100
0000
0000
0010
1000
0010
1000
0000
0000
,
0100
1000
0100
1000
0000
0000
0001
0010
0100
1000
0001
1000
,
0001
0000
0001
0100
0000
0100
0010
0000
0010
1000
0100
0000
,
0010
0000
0010
0001
0010
0000
0100
0000
0100
1000
0010
0000
,
0100
0000
0100
0001
0000
0001
1000
0000
1000
0100
0000
0100
,
0010
0000
0010
0001
0010
0000
0100
0000
0100
1000
0000
0010
,
1000
0000
0010
1000
0000
0010
1000
0000
0010
1000
0000
0001
,
0100
0000
0001
0010
0000
0001
0010
0000
0010
0001
0010
0100
,
1000
0000
1000
0100
0000
0100
1000
0000
1000
0010
0000
0010
,
0100
0000
0100
0001
0100
0010
1000
0100
0010
0001
0010
0100
,
1000
0001
0100
0010
0000
0000
1000
0000
0000
1010
0000
0000
,
1000
0000
0001
0100
0000
0010
1000
0000
0100
0010
0001
0010
,
0100
1000
0001
1000
0000
0000
0001
0100
0010
1000
0000
0000
,
0100
0010
0001
0010
0000
0000
0011
0000
0000
0110
0000
0000
,
1100
0000
0000
0100
1000
0010
0100
0000
0000
0001
0100
0010
,
1000
0010
1000
0010
1000
0010
1000
0001
1000
0001
1000
0001
,
1000
0000
1000
0100
0000
0100
0010
0000
0010
0001
0010
0100
,
1000
0000
1000
0001
0000
0001
0100
0000
0100
0010
1000
0100
,
0010
0100
1000
0001
0010
0100
0010
0001
1000
0010
0100
0001
,
0100
0000
0100
0010
0000
0010
1000
0000
0000
1001
0000
0000
,
1100
0000
0000
0100
0000
1000
0010
0000
0100
0001
0100
0000
,
0010
1000
0010
1000
0010
1000
0001
0100
0001
0010
0001
0010
,
0001
0010
0100
0010
0100
1000
0100
1000
0001
1000
0001
1000
,
0001
0000
0001
0100
0000
0100
0010
0000
0010
1000
0000
1000
,
0010
0000
0010
0100
0000
0100
0001
0000
0001
1000
0000
1000
,
0100
0000
0100
1000
0000
1000
0001
0000
0001
0010
0000
0010
,
0001
0000
0001
0010
0000
0010
0100
0000
0100
1000
0100
1000
,
0100
0000
0100
1000
0000
1000
0010
0000
0010
0100
0000
0100
,
0001
0000
0001
0100
0000
0100
0010
0000
0010
1000
0010
1000
,
0001
0000
0001
0100
0000
0100
0001
0000
0001
0010
0000
0010
,
0100
0000
0100
1000
0000
1000
0100
1000
0100
1000
0001
1000
,
0001
0100
0101
0000
0000
0000
1000
0100
1100
0000
0000
0000
,
0001
0010
0011
0000
0000
0000
1000
0010
1010
0000
0000
0000
,
1000
0000
1000
0010
0100
0001
0100
0000
0100
0010
1000
0100
,
0010
0000
0010
0001
0010
0100
1000
0000
1000
0001
0100
0010
,
1000
0000
1000
0010
0100
0001
0010
0000
0010
0100
1000
0001
,
0010
0100
1000
0001
0100
0010
1000
0100
0010
0001
0010
0100
,
1000
0000
1000
0001
0100
0010
1000
0000
1000
0100
0010
0001
,
0010
0000
0010
0100
1000
0010
0100
0000
0100
0001
0100
0010
,
1000
0000
1000
0100
1000
0001
0010
0000
0010
0100
1000
0010
,
1010
0000
1010
0000
0000
0000
1001
0000
1001
0000
0000
0000
,
0001
0000
0001
0100
0000
0100
0010
0000
0010
1000
0000
1000
,
0100
0000
0100
0010
0000
0010
0001
0010
0100
1000
0001
0010
,
0100
0000
0100
1000
0000
1000
0010
0000
0010
0100
0000
0100
,
0001
0000
0001
0100
0000
0100
0010
1000
0100
0010
0001
0010
,
0100
0000
0100
1000
0000
1000
0010
0000
0010
0100
0000
0100
,
0001
0000
0001
0100
0000
0100
0010
1000
0100
0010
0001
0010
,
0100
0000
0100
1000
0000
1000
0010
0000
0010
0100
0000
0100
,
0001
0100
0010
1000
0100
0010
0001
0010
0100
1000
0001
0010
,
0100
0000
0100
1000
0000
1000
0010
0000
0010
0100
0001
0100
,
0010
0000
0010
1000
0000
1000
0100
0010
0001
0010
0100
1000
,
0010
0000
0010
0100
0001
0100
0010
0000
0010
1000
0100
0010
,
0001
0000
0001
0010
0100
1000
0001
0000
0001
0100
0010
1000
,
0100
0000
0100
1000
0010
0100
0001
0000
0001
0100
0010
1000
,
0100
0000
0100
1000
0001
0010
0100
1000
0001
0100
0010
1000
,
1100
0000
0110
0000
0011
0000
0001
1000
0001
1000
0000
0000
,
0001
0100
0001
0100
0000
0000
0010
1000
0010
1000
0000
0000
,
0100
1000
0100
1000
0000
0000
0001
0010
0001
0010
0000
0010
,
0100
0000
0100
1000
0000
1000
0010
1000
0010
1000
0000
1000
,
0010
0000
0010
0100
0000
0100
0001
0010
0100
1000
0100
0010
,
0001
0100
0010
1000
0100
0010
0001
0000
0001
0010
0000
0010
,
0100
0000
0000
1100
0000
0000
1000
0010
0100
0001
0000
0001
,
0100
0000
0100
0010
0000
0010
1000
0010
1000
0010
1000
0001
,
0100
0001
0010
0001
0010
0100
1000
0000
1000
0100
0000
0100
,
1000
0000
1000
0001
0000
0001
0100
0000
0100
0010
0000
0010
,
1000
0000
1000
0100
0010
0001
0010
0100
1000
0100
0010
0001
,
0010
0100
1000
0001
0010
0100
1000
0000
1000
0010
0000
0010
,
0100
0000
0100
0001
0000
0001
0100
0000
0100
0010
0000
0010
,
1000
0100
1000
0001
0010
0100
1000
0001
1000
0001
1000
0001
,
0100
0001
1000
0010
1000
0010
1000
0010
1000
0100
0010
0001
,
1001
0000
0000
0000
;

//---------------dance-single - Renard----------------
#NOTES:
     dance-single:
     Renard:
     Medium:
     6:
     0.434,0.508,0.639,0.028,0.000:
0000
0000
0000
0000
,
0000
0000
0000
0000
,
0000
0000
0000
0000
,
0000
0000
0000
0000
,
0000
0000
0000
0000
,
0000
0000
0000
0000
,
1000
0000
1000
0000
,
0001
0000
0001
0000
,
1000
0100
0010
0001
,
0010
0010
0100
0100
,
1000
0100
0010
0001
,
0010
0010
0100
0100
,
1000
1001
0001
1001
,
0010
0110
0100
0110
,
0010
0011
0001
1001
,
1000
1100
1001
0000
,
1000
0100
0010
0001
,
0011
0011
0110
0110
,
1100
1010
0101
0011
,
0010
0010
0100
0100
,
1000
1000
0100
0010
,
0011
0000
0110
0000
,
1100
1100
1010
0101
,
0011
0000
0001
0010
,
0100
0100
1000
0010
,
1010
0101
0011
1100
,
1001
1000
0100
0010
,
0001
0001
0010
0100
,
0100
1000
0010
0010
,
1000
0010
1000
0010
,
0001
0010
0001
0010
,
1000
0010
1000
0010
,
0001
0010
1000
0010
,
1000
0100
1000
0100
,
0001
0100
0001
0100
,
1000
0100
1000
0100
,
0001
0100
0010
0001
,
1000
0001
1000
0001
,
0101
0000
1010
0000
,
1001
0001
0100
0010
,
1001
0000
1100
0000
,
1000
0100
0010
0001
,
1001
1001
0110
0110
,
1001
0000
1000
0001
,
0101
0101
0010
0010
,
1000
0001
0010
1000
,
1100
1100
0010
0001
,
1000
0001
1000
0001
,
0010
0001
0010
0001
,
1000
0001
1000
0001
,
1000
0100
1000
0001
,
1000
0001
1000
1001
,
1000
1001
1001
1000
,
0001
0000
1000
0000
,
0001
0010
0011
0010
,
0110
0100
1000
0001
,
1000
0001
0100
0101
,
0001
0100
0010
1000
,
0100
0010
0001
0010
,
0100
0100
1000
0010
,
0010
0001
0010
1000
,
0100
0000
1100
0000
,
0011
0000
1100
0000
,
1010
0000
0001
1000
,
0010
1000
1010
0000
,
1010
0000
1010
1010
,
1100
1100
0011
0101
,
0010
1000
1001
1000
,
0100
0010
0001
0010
,
0100
1000
0001
0100
,
0010
1001
1001
1000
,
0100
0010
1001
0010
,
0200
0000
1300
0001
,
0100
0001
0101
0001
,
0100
0010
1000
0000
,
1010
0101
0000
0011
,
2200
0000
0000
0000
,
0000
0000
0000
0000
,
0000
3300
0000
0000
;

//---------------dance-single - Renard----------------
#NOTES:
     dance-single:
     Renard:
     Easy:
     3:
     0.340,0.326,0.000,0.019,0.000: // measure 1
0000
0000
0000
0000
,  // measure 2
0000
0000
0000
0000
,  // measure 3
0000
0000
0000
0000
,  // measure 4
0000
0000
0000
0000
,  // measure 5
0000
0000
0000
0000
,  // measure 6
0000
0000
0000
0000
,  // measure 7
0001
0000
0001
0000
,  // measure 8
1000
0000
1000
0000
,  // measure 9
0001
0010
0100
1000
,  // measure 10
0100
0100
0010
0010
,  // measure 11
0001
0010
0100
1000
,  // measure 12
0100
0100
0010
0010
,  // measure 13
0001
1000
1000
1000
,  // measure 14
0100
0100
0010
0100
,  // measure 15
0100
1000
1000
1000
,  // measure 16
0001
0010
1000
0000
,  // measure 17
0001
0010
0100
1000
,  // measure 18
1000
1000
0100
0100
,  // measure 19
0010
0100
1000
1000
,  // measure 20
0100
0100
0010
0010
,  // measure 21
0001
0001
0010
0100
,  // measure 22
1000
0000
0100
0000
,  // measure 23
0010
0010
0100
1000
,  // measure 24
1000
0000
1000
0100
,  // measure 25
0010
0010
0001
0100
,  // measure 26
0100
1000
1000
0010
,  // measure 27
1000
0001
0010
0100
,  // measure 28
1000
1000
0100
0010
,  // measure 29
0010
0001
0100
0100
,  // measure 30
0001
0100
0001
0100
,  // measure 31
1000
0100
1000
0100
,  // measure 32
0001
0100
0001
0100
,  // measure 33
1000
0100
0001
0100
,  // measure 34
0001
0010
0001
0010
,  // measure 35
1000
0010
1000
0010
,  // measure 36
0001
0010
0001
0010
,  // measure 37
1000
0010
0100
1000
,  // measure 38
0001
1000
0001
1000
,  // measure 39
1000
0000
0100
0000
,  // measure 40
1000
1000
0010
0100
,  // measure 41
1000
0000
0010
0000
,  // measure 42
0001
0010
0100
1000
,  // measure 43
1000
1000
0100
0100
,  // measure 44
1000
0000
0001
1000
,  // measure 45
1000
1000
0100
0100
,  // measure 46
0001
1000
0100
0001
,  // measure 47
0010
0010
0100
1000
,  // measure 48
0001
1000
0001
1000
,  // measure 49
0100
1000
0100
1000
,  // measure 50
0001
1000
0001
1000
,  // measure 51
0001
0010
0001
1000
,  // measure 52
0001
1000
0001
1000
,  // measure 53
0001
1000
1000
0001
,  // measure 54
1000
0000
0001
0000
,  // measure 55
1000
0100
1000
0100
,  // measure 56
0100
0010
0001
1000
,  // measure 57
0001
1000
0010
1000
,  // measure 58
1000
0010
0100
0001
,  // measure 59
0010
0100
1000
0100
,  // measure 60
0010
0010
0001
0100
,  // measure 61
0100
1000
0100
0001
,  // measure 62
0010
0000
0010
0000
,  // measure 63
1000
0000
0010
0000
,  // measure 64
0100
0000
1000
0001
,  // measure 65
0100
0001
0100
0000
,  // measure 66
0100
0000
0100
0100
,  // measure 67
0010
0010
1000
1000
,  // measure 68
0100
0001
1000
0001
,  // measure 69
0010
0100
1000
0100
,  // measure 70
0010
0001
1000
0010
,  // measure 71
0100
1000
1000
0001
,  // measure 72
0010
0100
1000
0100
,  // measure 73
0020
0000
0030
1000
,  // measure 74
0010
1000
1000
1000
,  // measure 75
0010
0100
0001
0000
,  // measure 76
0100
1000
0000
1000
,  // measure 77
0020
0000
0000
0000
,  // measure 78
0000
0000
0000
0000
,  // measure 79
0000
0030
0000
0000
;
