#TITLE:You;
#SUBTITLE:;
#ARTIST:Special D;
#TITLETRANSLIT:;
#SUBTITLETRANSLIT:;
#ARTISTTRANSLIT:;
#GENRE:;
#CREDIT:;
#BANNER:you.png;
#BACKGROUND:you-bg.png;
#LYRICSPATH:;
#CDTITLE:;
#MUSIC:you.ogg;
#OFFSET:0.000;
#SAMPLESTART:19.960;
#SAMPLELENGTH:12.000;
#SELECTABLE:YES;
#BPMS:0.000=144.000;
#STOPS:;
#BGCHANGES:;
#KEYSOUNDS:;

//---------------dance-single - Renard----------------
#NOTES:
     dance-single:
     Renard:
     Challenge:
     10:
     0.782,0.000,0.456,0.238,0.753:
0000
0000
0000
0000
,
0000
0000
0000
0000
,
0000
0000
0000
0000
,
0000
0000
0000
0000
,
2000
0000
0000
0000
0000
0000
3002
0000
0203
0000
0000
0320
0000
0000
2030
0000
,
3200
0000
0000
0000
0000
0000
0320
0000
0032
0000
0000
0203
0000
0000
0320
0000
,
2030
0000
0000
0000
0000
0000
3200
0000
2300
0000
0000
3002
0000
0000
0023
0000
,
0230
0000
0000
0000
0000
0000
0320
0000
0032
0000
0000
2003
0000
0000
3020
0000
,
0130
0001
0100
0001
0100
0001
0100
0001
,
1000
0100
1000
0100
1000
0100
1000
0100
,
0010
0000
0001
0010
0100
0000
1000
0100
0010
0000
0001
0100
0010
0000
1000
0010
,
0200
0000
0000
0000
0001
0001
0001
0301
,
0001
0000
1000
0100
0010
0000
0001
0000
0010
0000
0010
0100
0000
0100
1000
0000
,
0010
0000
0100
0000
0001
0000
1000
0000
0100
0000
1000
0001
0000
1000
0100
0000
,
0010
0000
0001
0010
0001
0000
0010
0000
0100
0000
1000
0100
0000
1000
0100
0000
,
0010
0000
0001
0000
1000
0000
0010
0000
0100
0000
0100
0001
0000
0001
1000
0000
,
1001
0000
0000
0000
0100
0000
0001
0000
1000
0000
0000
0100
0000
0010
0001
0000
,
0011
0000
0000
0000
0100
0000
1000
0000
0010
0000
0000
1000
0000
0001
0100
0000
,
0101
0000
0000
0000
0010
1000
0010
0000
0100
0000
0001
1000
0000
0001
1000
0000
,
0010
0000
0000
0000
0100
0000
0001
0000
1000
0000
0100
0010
0000
0001
1000
0000
,
0001
0100
0000
0001
0100
0000
0001
0100
0001
1000
0001
0000
1001
0000
0000
0000
,
0001
0001
0001
0001
0001
0000
0000
0000
1000
0000
0001
0000
1000
0001
0000
1000
,
0001
0000
1000
0001
0000
0100
0010
1000
0010
1000
0000
1010
0000
0001
0100
0000
,
0101
0000
0000
0000
,
1000
0000
0100
0010
0000
0001
0010
0100
1000
0100
0000
1100
0000
0010
0001
0000
,
1001
0000
0000
0000
0000
0000
0000
0000
1000
0001
0000
1000
0000
0001
0000
1000
,
0001
0000
0100
0001
0000
0010
1000
0010
1000
0100
0000
1100
0000
0010
0001
0000
,
1001
0000
0000
0000
0010
0000
0010
0000
1000
0000
0000
0001
0000
0000
1000
0000
,
0010
0000
1000
0001
0000
0100
0001
0100
0010
1000
0000
1010
0000
0001
0100
0000
,
1001
0000
0001
0000
1000
0001
1000
0000
1001
0000
0110
0000
1001
0000
0000
0000
,
1001
0000
0010
0100
0000
0100
0010
0100
0001
1000
0000
1001
0000
1000
0001
0000
,
0110
0000
0010
0100
0000
0001
1000
0001
0100
0010
0000
0110
0000
1000
0001
0000
,
0110
0000
1000
0001
0000
0100
0010
0100
0001
0000
1000
0001
0000
0100
0010
0100
,
0002
0000
0000
0000
0000
0000
1003
0000
1000
0001
0000
1000
0000
0001
0000
1000
,
0001
0000
0100
0001
0000
1000
0010
1000
0001
0100
0000
0001
0000
1000
0100
0000
,
1100
0000
0010
0001
0000
1000
0100
0000
0011
0000
0100
1000
0000
0001
0010
0000
,
0001
0000
1000
0100
0000
1000
0010
0100
0001
1000
0000
0001
0000
0100
0001
0000
,
0101
0000
1000
0010
0000
0100
0001
0000
1010
0000
0100
0001
0000
1000
0010
0000
,
1000
0000
0010
1000
0000
0001
0100
0001
1000
0010
0000
1000
0000
0001
0010
0000
,
0011
0000
0100
1000
0000
0001
0010
0000
1100
0000
0010
0001
0000
1000
0100
0000
,
1000
0000
0001
0010
0000
0001
0100
0010
1000
0001
0000
1000
0000
0010
1000
0000
,
1010
0000
0001
0100
0000
0010
1000
0000
0101
0000
0010
1000
0000
0001
0100
0000
,
0001
0000
0100
0000
1010
0000
0100
0000
0001
1000
0100
0000
1100
0000
0001
0000
,
0010
0000
0100
0000
1100
0000
0100
0000
1000
0010
0100
0000
0101
0000
0001
0000
,
0100
0000
0010
0000
1010
0000
0010
0000
0100
0001
0010
0000
0011
0000
0010
0000
,
0100
0000
1000
0000
0011
0000
0100
0000
1000
0000
0001
0100
0000
0001
1000
0000
,
1000
0000
0010
0000
0101
0000
0010
0000
1000
0001
0010
0000
0011
0000
1000
0000
,
0100
0000
0010
0000
0011
0000
0010
0000
0001
0100
0010
0000
1010
0000
1000
0000
,
0010
0000
1000
0001
0000
0100
0001
1000
0000
0001
0000
1000
0000
0001
1000
0000
,
0110
0000
0001
1000
0000
0001
1000
0000
0010
0000
0100
0010
0000
0100
0010
0000
,
1000
1000
0001
0001
0100
0100
0010
0010
0100
0000
0110
0000
0110
0000
0000
0000
,
0100
0001
1000
0010
0100
0001
1000
0100
,
0010
0001
0100
0010
1000
0001
1001
0000
,
1000
0100
0010
0001
0010
0100
1000
0010
,
0100
0001
0010
0100
1000
0001
0101
0000
,
0001
1000
0010
0100
0001
1000
0100
0010
,
0001
1000
0010
0100
0001
1000
1010
0000
,
1000
0000
0100
0000
0010
0000
0001
0000
1000
0100
0010
0001
1000
0100
0010
0001
,
2000
0001
0000
3010
0002
1000
0000
0013
,
1001
0010
0000
0000
0000
0000
0000
0000
;

//---------------dance-single - Jinxie----------------
#NOTES:
     dance-single:
     Jinxie:
     Hard:
     8:
     0.472,0.000,0.030,0.129,0.278: // measure 1
0000
0000
0000
0000
,  // measure 2
0000
0000
0000
0000
,  // measure 3
0000
0000
0000
0000
,  // measure 4
0000
0000
0000
0000
,  // measure 5
0000
0000
0000
0000
0000
0000
0000
0000
2000
0000
0000
0000
0000
0000
0000
3000
,  // measure 6
0010
0000
0000
0000
0000
0000
0000
0000
0200
0000
0000
0000
0000
0000
0000
0300
,  // measure 7
0001
0000
0000
0000
0000
0000
0000
0000
0020
0000
0000
0000
0000
0000
0000
0030
,  // measure 8
0100
0000
0000
0000
0000
0000
0000
0000
2000
0000
0000
0000
0000
0000
0000
3000
,  // measure 9
0001
1000
0010
0100
,  // measure 10
0001
0010
0100
1000
,  // measure 11
0001
1000
0100
0010
0001
0010
0100
1000
,  // measure 12
0002
0000
0000
2000
0000
3003
0000
0000
,  // measure 13
1000
0000
0010
1000
0010
0000
1000
0000
0001
0000
0010
0000
0001
0000
1000
0000
,  // measure 14
0010
1000
0001
0100
0010
1000
0100
1000
,  // measure 15
0010
0000
0100
0001
0100
0000
0001
0000
0010
0000
0100
0000
1000
0000
0010
0000
,  // measure 16
1000
0001
0010
0100
1000
0100
0010
0001
,  // measure 17
0100
0010
0010
1000
0100
0010
0001
0010
,  // measure 18
0100
1000
0001
1000
0010
0100
0001
0010
,  // measure 19
0001
0000
0100
0000
0010
0100
0010
0000
1000
0000
0100
0000
0010
0000
0001
0000
,  // measure 20
0010
0100
1000
0010
0100
0001
0100
0010
,  // measure 21
1000
0100
0000
0010
0001
0000
0001
1000
0001
0000
1000
0000
1000
0000
0000
0000
,  // measure 22
0001
1000
0001
1000
0001
0000
0000
0000
0010
0000
0011
0000
0000
0000
0000
0000
,  // measure 23
1000
0000
0000
1000
0000
0000
0010
0000
0100
0000
0000
0100
0000
0000
0001
0000
,  // measure 24
0020
0000
0000
0030
,  // measure 25
0100
0000
0000
1000
0000
0000
0010
0000
0100
0000
0000
0001
0000
0000
0010
0000
,  // measure 26
0200
0000
0000
0300
,  // measure 27
1000
0000
0000
0010
0000
0000
0100
0000
0001
0000
0000
0010
0000
0000
0100
0000
,  // measure 28
2000
0000
0000
3000
,  // measure 29
0010
0000
0000
0100
0000
0000
0001
0000
0010
0000
0000
0100
0000
0000
0010
0000
,  // measure 30
0002
0000
0000
0003
,  // measure 31
1000
0000
0000
0010
0000
0000
0100
0000
0001
0000
0000
0010
0000
0000
0001
0000
,  // measure 32
0100
0000
0000
0010
0000
0000
1000
0000
0100
0000
0000
0010
0000
0000
0001
0000
,  // measure 33
0010
0000
0000
0100
0000
0000
1000
0000
0001
0000
0000
1000
0000
0000
0010
0000
,  // measure 34
2000
0000
0000
0200
0000
0000
0000
3300
,  // measure 35
0100
0000
0000
1000
0000
0000
0010
0000
1000
0000
0000
0001
0000
0000
0010
0000
,  // measure 36
0001
0000
0000
0100
0000
0000
0010
0000
1000
0000
0000
0100
0000
0000
0010
0000
,  // measure 37
0001
0000
0000
0010
0000
0000
0100
0000
1000
0000
0000
0010
0000
0000
0100
0000
,  // measure 38
0001
0000
0000
0100
0000
0000
0010
0000
0100
0000
0000
0001
0000
0000
0010
0000
,  // measure 39
0100
0000
0000
1000
0000
0000
0100
0000
0010
0000
0000
0001
0000
0000
0010
0000
,  // measure 40
0100
0000
0000
1000
0000
0000
0010
0000
0100
0000
0000
0001
0000
0000
0100
0000
,  // measure 41
0010
0000
0000
1000
0000
0000
0100
0000
0010
0000
0000
0001
0000
0000
0010
0000
,  // measure 42
0100
0000
0000
1000
0000
0000
0010
0000
0100
0000
0000
0001
0000
0000
0100
0000
,  // measure 43
0010
0000
0000
1000
0000
0000
1000
0000
0100
0000
0000
0010
0000
0000
0010
0000
,  // measure 44
0001
0000
0000
0001
0000
0000
0100
0000
0010
0000
0000
0010
0000
0000
1000
0000
,  // measure 45
0100
0000
0000
0100
0000
0000
0010
0000
0001
0000
0000
0001
0000
0000
0100
0000
,  // measure 46
0010
0000
0000
0100
0000
0000
0001
0000
0010
0000
0000
0100
0000
0000
1000
0000
,  // measure 47
0010
0000
0000
0100
0000
0000
0001
0000
0010
0000
0000
0100
0000
0000
1000
0000
,  // measure 48
0010
0000
0000
1000
0000
0000
0100
0000
0010
0000
0000
0001
0000
0000
0100
0000
,  // measure 49
0010
0000
0000
1000
0000
0000
0100
0010
0000
0001
0000
0001
0000
0000
0010
0000
,  // measure 50
0100
0000
0000
0100
0000
0000
1000
0000
0010
0000
0000
0010
0000
0000
1000
0000
,  // measure 51
1001
0000
1000
1000
,  // measure 52
1000
0000
0010
1000
0000
1000
0001
0010
,  // measure 53
0001
0000
0001
0010
0000
0010
0100
1000
,  // measure 54
0010
0000
0010
1000
0010
1000
0100
0010
,  // measure 55
0001
0100
0010
0100
0001
0010
0100
1000
,  // measure 56
0010
1000
0010
0100
0010
1000
0010
0100
,  // measure 57
0010
1000
0100
0010
0001
0010
1000
0010
,  // measure 58
0001
0010
1000
0010
0001
0100
0010
1000
,  // measure 59
0010
0100
0001
0010
0100
1000
0001
1000
,  // measure 60
1010
0002
0000
0000
0003
0000
0000
0000
;

//---------------dance-single - Jinxie----------------
#NOTES:
     dance-single:
     Jinxie:
     Medium:
     5:
     0.357,0.000,0.079,0.218,0.000: // measure 1
0000
0000
0000
0000
,  // measure 2
0000
0000
0000
0000
,  // measure 3
0000
0000
0000
0000
,  // measure 4
0000
0000
0000
0000
,  // measure 5
0000
0000
2000
0000
,  // measure 6
3002
0000
0203
0000
,  // measure 7
0302
0000
2003
0000
,  // measure 8
3200
0000
0320
0000
,  // measure 9
0031
0001
1000
1000
,  // measure 10
0010
0010
0100
0100
,  // measure 11
0001
0010
0100
1000
,  // measure 12
0020
0000
0000
0200
0000
0000
0000
0330
,  // measure 13
0001
1000
0001
0001
,  // measure 14
1000
0010
0100
0001
,  // measure 15
0010
0100
1000
0010
,  // measure 16
1000
0001
0010
0100
,  // measure 17
1000
0000
1000
0010
1000
0000
0001
0000
,  // measure 18
0001
0000
0001
0010
0001
0000
0100
0000
,  // measure 19
0100
0000
0100
0010
0100
0000
0010
0000
,  // measure 20
1000
0000
1000
0100
1000
0000
0010
0000
,  // measure 21
0010
0100
0001
0010
,  // measure 22
1100
1000
1010
0010
,  // measure 23
0100
0100
0001
0001
,  // measure 24
0220
0000
0000
0330
,  // measure 25
0100
0100
1000
1000
,  // measure 26
2020
0000
0000
3030
,  // measure 27
1000
0010
0100
0001
,  // measure 28
0022
0000
0000
0033
,  // measure 29
0010
0100
1000
0100
,  // measure 30
0220
0000
0000
0330
,  // measure 31
0010
0001
0100
0001
,  // measure 32
0010
0100
1000
0010
,  // measure 33
0100
0000
0001
0000
0001
0010
0100
0000
,  // measure 34
0200
0000
0000
2000
0000
0000
3300
0000
,  // measure 35
0100
0000
1000
0000
0010
0100
0010
0000
,  // measure 36
1000
0001
0010
0100
,  // measure 37
1000
0000
1000
0000
1000
0010
1000
0000
,  // measure 38
1000
0010
0010
0100
,  // measure 39
0100
0000
0100
0000
0001
0010
0001
0000
,  // measure 40
0010
0100
1000
0010
,  // measure 41
0100
0000
0001
0000
0100
0010
0100
0000
,  // measure 42
0010
1000
0100
0010
,  // measure 43
0100
0000
1000
0000
1000
0010
1000
0001
,  // measure 44
1000
0010
0100
0001
,  // measure 45
0010
0000
0100
0000
1000
0100
0010
0100
,  // measure 46
1000
1000
0010
0100
,  // measure 47
0001
0000
0100
0000
0010
0100
0010
1000
,  // measure 48
0010
0100
0001
0100
,  // measure 49
0010
0000
1000
0000
0100
0010
0001
0010
,  // measure 50
0100
1000
0010
0100
,  // measure 51
2002
0000
0000
3003
0010
0000
0010
0000
,  // measure 52
1000
0000
1000
0000
0100
0010
0100
0000
,  // measure 53
0010
0000
0010
0000
0001
0010
0001
0000
,  // measure 54
0010
0000
0100
0000
1000
0010
1000
0000
,  // measure 55
0100
0000
0010
0000
0100
0010
0001
0010
,  // measure 56
0100
0000
0100
0000
1000
0010
1000
0000
,  // measure 57
0100
0000
0100
0000
0010
0100
0010
0000
,  // measure 58
0001
0000
0100
0000
0100
0001
0010
0000
,  // measure 59
0010
0000
0010
0000
0001
0100
0001
0000
,  // measure 60
1001
0020
0000
0000
0000
0000
0030
0000
;

//---------------dance-single - Jinxie----------------
#NOTES:
     dance-single:
     Jinxie:
     Easy:
     3:
     0.248,0.000,0.188,0.000,0.000: // measure 1
0000
0000
0000
0000
,  // measure 2
0000
0000
0000
0000
,  // measure 3
0000
0000
0000
0000
,  // measure 4
0000
0000
0000
0000
,  // measure 5
0000
0000
1000
0000
,  // measure 6
1000
0000
0001
0000
,  // measure 7
0001
0000
0010
0000
,  // measure 8
0010
0000
0100
0000
,  // measure 9
0100
0000
1000
0000
,  // measure 10
0001
0000
1000
0000
,  // measure 11
0010
0000
0100
0000
,  // measure 12
0001
0000
1000
0000
,  // measure 13
1000
1000
0010
0000
,  // measure 14
0100
0100
0001
0000
,  // measure 15
0001
0010
0001
0000
,  // measure 16
0001
0100
0010
0000
,  // measure 17
0010
1000
0010
0000
,  // measure 18
0010
0100
0010
0000
,  // measure 19
0010
1000
0001
0000
,  // measure 20
0001
0010
0001
0000
,  // measure 21
0001
1000
0010
0000
,  // measure 22
0010
0010
1000
0000
,  // measure 23
1001
0000
1010
0000
,  // measure 24
1001
0000
0000
0000
,  // measure 25
1001
0000
0110
0000
,  // measure 26
1001
0000
0000
0000
,  // measure 27
0011
0000
1001
0000
,  // measure 28
1100
0000
0000
0000
,  // measure 29
1001
0000
1010
0000
,  // measure 30
0110
0000
0000
0000
,  // measure 31
1010
0000
0110
0000
,  // measure 32
1001
0000
0110
0000
,  // measure 33
0101
0000
1001
0000
,  // measure 34
0010
0000
0001
0000
,  // measure 35
0001
0000
1000
0010
,  // measure 36
0100
0000
0100
0001
,  // measure 37
0010
0000
0010
0001
,  // measure 38
0100
0000
0100
0010
,  // measure 39
1000
0000
1000
0001
,  // measure 40
0010
0000
0010
0001
,  // measure 41
0100
0000
0100
0010
,  // measure 42
1000
0000
1000
0001
,  // measure 43
1000
1000
0010
0100
,  // measure 44
0100
0001
0010
0001
,  // measure 45
0100
0010
1000
0001
,  // measure 46
1000
0010
0100
0010
,  // measure 47
0100
0001
0010
0001
,  // measure 48
0100
0010
1000
0001
,  // measure 49
1000
0100
0010
0001
,  // measure 50
0010
0100
1000
0001
,  // measure 51
1000
0000
0001
0000
,  // measure 52
1000
1000
0010
0010
,  // measure 53
0100
0100
0001
0001
,  // measure 54
0100
0010
1000
0010
,  // measure 55
0100
0001
0010
0100
,  // measure 56
0010
0001
0100
0010
,  // measure 57
0100
0010
1000
0100
,  // measure 58
0010
0001
0010
0100
,  // measure 59
1000
0001
1000
0010
,  // measure 60
1001
0000
0000
0000
;
