#TITLE:You're My Angel;
#SUBTITLE:;
#ARTIST:69;
#TITLETRANSLIT:;
#SUBTITLETRANSLIT:;
#ARTISTTRANSLIT:;
#CREDIT:;
#BANNER:angel.png;
#BACKGROUND:angel-bg.png;
#LYRICSPATH:;
#CDTITLE:;
#MUSIC:angel.ogg;
#OFFSET:0.000;
#SAMPLESTART:69.976;
#SAMPLELENGTH:12.000;
#SELECTABLE:YES;
#BPMS:0.000=176.270,80.000=176.900,144.000=176.850;
#STOPS:;
#BGCHANGES:;

//---------------dance-single - Renard----------------
#NOTES:
     dance-single:
     Renard:
     Hard:
     8:
     0.602,0.593,0.051,0.000,0.000:
0000
0000
0000
0000
,
0000
0000
0000
0000
,
0000
0000
0000
0000
,
0000
0000
0000
0000
,
1000
0100
0010
0000
0011
0000
0010
0100
,
0000
0110
0000
0011
0000
0100
0000
1000
,
0010
0100
0001
0000
0101
0000
0001
0100
,
0000
0010
0000
1000
0010
0000
0100
0001
,
0100
0000
0100
0010
0100
0000
0100
0001
,
0100
0000
0100
1000
0100
0000
0100
0010
,
0100
0000
0100
0001
0100
0000
0100
0010
,
0100
0010
1000
0100
0010
0000
0010
0001
,
0000
0100
0000
0000
0010
0000
0000
0000
,
1000
0000
1000
0100
0000
0010
0000
0001
,
0000
0100
0000
0010
0000
1000
0000
0001
,
1000
0000
0000
0000
0001
0000
0100
0010
,
0000
1000
0000
0001
0000
0100
0000
0010
,
0000
1000
0000
0100
0000
0010
0000
0001
,
1000
0000
0000
0001
1000
0000
0000
0010
,
0100
0000
0001
0000
1000
0000
1000
0100
,
0010
0000
0001
0000
0010
0000
0000
0100
,
1000
0000
0010
0100
0000
0001
0000
0100
,
0000
0010
0000
1000
0000
0001
0100
0010
,
1000
0000
1000
0000
0010
0000
0100
0001
,
0000
1000
0000
0100
0000
0010
0001
0010
,
0000
0001
0000
0010
0000
0100
1000
0100
,
1000
0010
0100
0001
,
0100
0000
0010
1000
0010
0000
0100
0000
,
0001
0100
0001
0100
0001
0100
0001
0100
,
0001
0100
0010
0100
1000
0100
0010
0100
,
0001
0010
0001
0010
0001
0010
0001
0010
,
0001
0010
0100
0010
1000
0010
0001
0010
,
0001
0100
0001
0100
0001
0100
0001
0100
,
0001
0100
1000
0100
0010
0100
0001
0100
,
0001
1000
0001
1000
0001
1000
0001
1000
,
0100
1000
0010
1000
0001
1000
0001
1000
,
0001
0100
0001
0100
0010
0100
0010
0100
,
0010
1000
0100
0010
0001
0010
0100
1000
,
0010
0100
0010
0100
0001
0100
0001
0100
,
0010
1000
0100
0010
0001
0010
0100
1000
,
0001
0010
0001
0010
0100
0010
0100
0010
,
0100
1000
0010
0100
0001
0100
0010
1000
,
0010
1000
0001
0100
0010
1000
0001
1000
,
0010
1000
0001
0100
0010
0000
0101
0000
,
0010
1000
0100
1000
0100
1000
0100
1000
,
0010
1000
0100
1000
0001
1000
0100
1000
,
0001
0010
0001
0010
0001
0010
0001
0010
,
0001
0010
0100
0010
1000
0010
0100
0010
,
0001
0100
0001
0100
0001
0100
0001
0100
,
0001
0100
1000
0100
0010
0100
0001
0010
,
0001
0010
0100
1000
0010
0100
0001
1000
,
0010
0100
0001
0010
0100
0000
0100
0010
,
0000
0010
0001
0000
0100
0010
1000
0001
,
0100
0000
0100
0010
0000
0010
0000
1000
,
0000
0100
0010
0001
0000
0001
0010
0100
,
0000
0100
1000
0010
0100
0000
0100
0001
,
0000
0100
0000
0010
0000
1000
0100
0010
,
0000
0001
0000
0010
0000
0100
1000
0010
,
0100
0000
0100
0001
0100
0000
0100
0010
,
1000
0100
0010
0001
0010
0000
0010
0100
,
1000
0010
0000
0010
0100
0001
0000
0001
,
0100
0010
1000
0100
0010
0001
0010
0100
,
0000
0100
1000
0010
0000
0010
0100
0001
,
0000
0001
0100
0010
1000
0010
1000
0001
,
1000
0100
0010
0001
0010
0100
1000
0010
,
0100
0001
0100
0010
1000
0001
0100
0010
,
0000
0010
1000
0100
0000
0100
0010
0001
,
0000
0001
0100
0010
1000
0000
1000
0001
,
0000
0100
0000
0000
0000
0000
0000
0000
;

//---------------dance-single - Jinxie----------------
#NOTES:
     dance-single:
     Jinxie:
     Medium:
     7:
     0.418,0.423,0.082,0.348,0.000:
0000
0000
0000
0000
,
0000
0000
0000
0000
,
0000
0000
0000
0000
,
0000
0000
0000
0000
,
0010
0000
1000
0000
0001
0000
0010
0100
,
0000
1000
0000
0001
0000
1000
0000
1000
,
0010
0000
0100
0000
0001
0000
0010
0100
,
0000
1000
0000
1000
0000
0001
0000
0001
,
0010
0010
0100
0100
,
1000
1000
0001
0001
,
1000
1000
0010
0010
,
0100
0100
0001
0001
,
2000
0000
3020
0000
,
0230
0000
0302
0000
,
0023
0000
0230
0000
,
2300
0000
3002
0000
,
2003
0000
3020
0000
,
0230
0000
0302
0000
,
0023
0000
0032
0000
,
0203
0000
0320
0000
,
2030
0000
3002
0000
,
0023
0000
0230
0000
,
2300
0000
3020
0000
,
2030
0000
3200
0000
,
0320
0000
0032
0000
,
0203
0000
0302
0000
,
0023
0000
0230
0000
,
2300
0000
3020
0000
,
0130
0100
0001
0001
,
0010
0010
0100
0100
,
1000
1000
0010
0010
,
0100
0100
0001
0001
,
0010
0010
0001
0001
,
0100
0100
0010
0010
,
1000
1000
0001
0001
,
0010
0010
0100
0100
,
1000
1000
0010
0010
,
0100
0000
0100
0000
0001
0010
0001
0000
,
0001
0100
0010
1000
,
0010
0000
0100
0000
0001
0010
0001
0000
,
0010
0100
1000
0100
,
0010
0000
0001
0000
0100
0001
0100
0000
,
0010
0100
0001
0100
,
0010
0000
1000
0000
0100
1000
0100
0000
,
1000
0010
0100
0001
,
0010
0000
0001
0000
0100
0010
0100
0000
,
0010
1000
0100
0010
,
0001
0000
0010
0000
0100
1000
0100
0000
,
1000
0010
0100
0001
,
0100
0000
0010
0000
1000
0100
0010
0000
,
0001
1000
0010
1000
,
0001
0000
0010
0000
0100
1000
0010
0000
,
1000
1000
0001
0011
,
0010
0000
0100
0000
1000
0010
1000
0000
,
1000
0010
0100
0101
,
0100
0000
0010
0000
1000
0010
1000
0000
,
1000
0010
0100
0101
,
0001
0000
0010
0000
0100
0010
0100
0000
,
1000
1000
0010
0110
,
0100
0000
0001
0000
0001
0010
0100
0000
,
0100
1000
0010
1010
,
1000
0000
0010
0000
1000
0010
0100
0000
,
0001
0010
0001
0011
,
0001
0000
0010
0000
0100
1000
0010
0000
,
1000
0100
0010
0011
,
0001
0000
0100
0000
0010
1000
0010
0000
,
0100
0001
0010
0100
,
1000
0000
0010
0000
0100
0001
1000
0001
,
0202
0000
0000
0000
0000
0000
0000
0303
;

//---------------dance-single - Jinxie----------------
#NOTES:
     dance-single:
     Jinxie:
     Easy:
     3:
     0.193,0.212,0.010,0.184,0.000:
0000
0000
0000
0000
,
0000
0000
0000
0000
,
0000
0000
0000
0000
,
0000
0000
0000
0000
,
1000
0000
0010
0000
,
0100
0000
0001
0000
,
0100
0000
0010
0000
,
1000
0000
0001
0000
,
0010
0000
0010
0000
,
0100
0000
1000
0000
,
0100
0000
0100
0000
,
0010
0000
0001
0000
,
0200
0000
0000
0000
,
0320
0000
0000
0000
,
2030
0000
0000
0000
,
3002
0000
0000
0000
,
0023
0000
0000
0000
,
0230
0000
0000
0000
,
2300
0000
0000
0000
,
3002
0000
0000
0000
,
2003
0000
0000
0000
,
3020
0000
0000
0000
,
0230
0000
0000
0000
,
0302
0000
0000
0000
,
0023
0000
0000
0000
,
0230
0000
0000
0000
,
2300
0000
0000
0000
,
3002
0000
0000
0000
,
1003
0000
0010
0000
,
0100
0000
0001
0000
,
0100
0000
0010
0000
,
1000
0000
0001
0000
,
1000
0000
0100
0000
,
0010
0000
0001
0000
,
0010
0000
0100
0000
,
1000
0000
0001
0000
,
1000
0000
0010
0000
,
0100
0000
0001
0000
,
0010
0000
0100
0000
,
1000
0000
0001
0000
,
1000
0000
0010
0000
,
0100
0000
0001
0000
,
0010
0000
0100
0000
,
0010
0000
0001
0000
,
1000
0000
0010
0000
,
1000
0000
0100
0000
,
0010
0000
0001
0000
,
0010
0000
0100
0000
,
1000
0000
0001
0000
,
1000
0000
0010
0000
,
0100
0000
0001
0000
,
0010
0000
0100
0000
,
1000
0000
0001
0000
,
1000
0000
0010
0000
,
0100
0000
0001
0000
,
0010
0000
0100
0000
,
1000
0000
0001
0000
,
1000
0000
0010
0000
,
0100
0000
0001
0000
,
0010
0000
0001
0000
,
0100
0000
0010
0000
,
1000
0000
0100
0000
,
1000
0000
0010
0000
,
0100
0000
0001
0000
,
0010
0000
0100
0000
,
1000
0000
0100
0000
,
0010
0000
0001
0000
,
0100
0000
0010
0000
,
2002
0000
0000
0000
,
3003
0000
0000
0000
;
