#TITLE:You Don't Know What;
#SUBTITLE:;
#ARTIST:DJ Sharpnel;
#TITLETRANSLIT:;
#SUBTITLETRANSLIT:;
#ARTISTTRANSLIT:;
#CREDIT:;
#BANNER:know.png;
#BACKGROUND:know-bg.png;
#LYRICSPATH:;
#CDTITLE:;
#MUSIC:know.ogg;
#OFFSET:0.000;
#SAMPLESTART:18.116;
#SAMPLELENGTH:12.000;
#SELECTABLE:YES;
#BPMS:0.000=211.500,315.000=423.000,317.000=211.500;
#STOPS:313.000=0.142
,314.500=0.142
,315.000=0.709
;
#BGCHANGES:;

//---------------dance-single - Renard----------------
#NOTES:
     dance-single:
     Renard:
     Challenge:
     11:
     0.910,1.000,0.425,0.085,0.340:
0000
0000
0000
0000
,
0000
0000
0000
0000
,
0000
0000
0000
0000
,
0000
0000
0000
0000
,
0000
0000
0000
0000
,
0000
0000
0000
0000
,
0000
0000
0000
0000
,
0000
0000
0000
0000
,
1001
0000
0000
0000
0101
0000
0000
0110
,
0110
0000
1100
1100
,
0011
0000
0110
0000
1100
0000
1000
0010
,
0100
0001
0100
0010
1000
0100
0010
0001
,
0010
0000
0110
0000
1100
0000
1000
0001
,
0100
0000
0110
0000
1010
0000
1000
0100
,
0010
0001
0010
0100
1000
0001
0100
0000
,
1M11
0000
0000
0000
0011
0101
1010
1100
,
0001
0100
0010
0000
1000
0000
0100
0000
0010
0000
0001
0010
0000
0000
0100
0000
,
1000
0001
0100
0000
0010
0000
1000
0000
0100
0000
0010
0001
0000
0000
0010
0000
,
0100
1000
0001
0000
0100
0000
0010
0000
1000
0000
0100
0010
0000
0000
0001
0000
,
0010
0100
1000
0000
0001
0000
0010
0000
0100
0000
1000
0001
0000
0000
0100
0000
,
0010
0000
1000
0010
1000
0000
0001
0000
0010
0000
0100
0000
1000
0000
0001
0000
,
0010
0001
0010
0000
0100
0000
1000
0000
0001
0000
0100
0010
0000
0000
1000
0000
,
0001
0100
0010
0000
1000
0000
0100
0000
0010
0000
0001
0000
0010
0000
0100
0000
,
1000
0001
0100
0010
1000
0100
0010
0001
0010
0100
1000
0000
0001
0000
0000
0000
,
0001
0100
0101
0000
1000
0100
1100
0000
,
1000
0000
0001
0000
0100
0000
0010
1000
0010
0000
1000
0000
0010
0000
0000
0000
,
1000
0100
1100
0000
0010
0001
0011
0000
,
0001
0000
0100
0000
0010
0000
1000
0100
1000
0000
0001
0000
0010
0000
0000
0000
,
0100
1000
0001
0100
0010
1000
0100
0010
,
0001
0010
0100
1000
0001
0100
0010
1000
,
0100
1000
0001
0010
0001
1000
0001
1000
,
1001
0110
0000
1001
0000
0000
1M11
0000
,
1001
0000
0101
0000
0110
0000
0010
1000
,
0100
0010
0001
0010
0000
0010
0100
1000
,
0001
0010
0001
0000
1000
0000
0001
0000
,
0100
0010
0000
1010
0000
1000
0100
0010
,
0001
0010
0100
1000
0001
0100
0001
1000
,
0010
1000
0000
1010
0000
1000
0100
0010
,
0001
0010
0100
1000
0001
0100
0010
1000
,
0001
1000
0000
1001
0000
0000
0000
0000
,
1000
0000
0001
0000
0100
0000
0001
0100
0001
0000
0100
0000
0010
0000
1000
0000
,
0100
0000
0010
0000
0001
0000
0010
0001
0010
0000
0100
0000
1000
0000
0001
0000
,
0100
0000
0010
0000
1000
0000
0100
1000
0100
0000
1000
0000
0010
0000
0100
0000
,
0001
0000
0010
0000
0100
0000
1000
0100
1000
0000
0001
0010
0001
0000
0010
0001
,
0010
0100
0010
0001
1000
0100
1000
0010
,
0100
0001
1000
0100
0010
0100
1000
0001
,
0100
0010
1000
0100
0010
0001
0010
0100
,
1000
0001
0100
0001
1000
0000
0001
0000
1000
0000
0001
0000
1000
0000
0001
0000
,
1000
0100
0001
0010
0000
0010
0001
0100
,
1000
0010
0001
1000
0010
1000
0001
1000
,
0001
0100
1000
0010
0000
1000
0001
0100
,
0010
1000
0100
0010
0001
1000
1000
0100
,
0010
1000
0001
0010
0000
0100
1000
0001
,
0010
1000
0001
0100
0010
0001
1000
0010
,
0100
1000
0001
0010
0000
0100
0010
1000
,
0010
0001
1000
0100
0000
0100
1000
0000
,
1000
0100
0001
0010
1000
0100
0001
0010
,
0100
0010
0001
1000
0100
0010
0100
0001
,
1000
0100
0010
0001
1000
0100
0010
0100
,
0010
0010
0100
1000
0010
0100
0010
0001
,
0010
0100
0100
1000
1000
0010
0100
0010
,
0001
0100
0010
1000
0001
0001
0100
0001
,
1001
0000
0000
0000
,
0000
0000
0000
0000
0000
0011
0101
1001
,
0001
0000
0100
0000
0010
0000
1000
0000
0100
0000
0010
0000
0001
0000
0010
0100
,
1000
0000
0001
0000
0100
0000
0010
0000
1000
0000
0100
0000
0010
0000
0001
0010
,
0100
1000
0001
0100
0010
1000
0100
0010
,
0001
0000
0010
0000
0100
0000
1000
0000
0001
0000
0100
0000
0010
0000
1000
0100
,
1000
0000
0100
0000
0010
0000
0001
0000
0010
0000
0100
0000
1000
0000
0001
0100
,
0001
0000
0100
0000
0010
0000
1000
0000
0100
0000
0010
0000
0001
0010
0100
1000
,
0001
0000
0010
0000
0100
0000
1000
0000
0001
0000
0100
0000
0010
1000
0001
0100
,
0010
1000
0001
1000
0100
0010
0001
0010
0100
1000
0001
0010
0100
1000
0001
0000
,
0010
0001
0010
0001
0010
0000
0000
0000
0100
0010
0100
0010
0100
0000
0000
0000
,
1000
0100
1000
0100
1000
0000
0000
0000
0010
0000
0100
0000
0001
0000
0000
0000
,
0001
0100
0001
0100
0001
0000
0000
0000
0100
0010
0100
0010
0100
0000
0000
0000
,
0010
1000
0010
1000
0010
0000
1000
0000
0100
0000
0010
0000
0001
0000
0000
0000
,
0010
0001
0010
0001
0010
0000
0000
0000
0100
0010
0100
0010
0100
0000
0000
0000
,
1000
0100
1000
0100
1000
0000
0010
0000
1000
0000
0001
0000
0100
0000
0001
0000
,
1000
0001
1000
0001
2002
3003
0001
0100
0001
0100
0202
0303
2002
0000
0000
0000
,
0220
3333
0000
0000
;

//---------------dance-single - Renard----------------
#NOTES:
     dance-single:
     Renard:
     Hard:
     9:
     0.667,0.713,0.106,0.021,0.000:
0000
0000
0000
0000
,
0000
0000
0000
0000
,
0000
0000
0000
0000
,
0000
0000
0000
0000
,
0000
0000
0000
0000
,
0000
0000
0000
0000
,
0000
0000
0000
0000
,
0000
0000
0000
0000
,
1000
0000
0000
0000
1001
0000
0000
0001
,
0100
0000
0000
0000
0110
0000
0000
0010
,
1000
0000
1000
0000
0100
0000
0010
0001
,
0010
0100
1000
0001
0100
0000
0100
0010
,
1000
0000
0010
0000
1000
0000
0010
0100
,
0001
0000
0100
0000
0010
0000
1000
0100
,
0010
0001
0010
0100
1000
0001
0100
0010
,
1000
0000
0000
0000
0010
1000
0010
0000
,
1000
0100
0010
0000
0001
0010
0100
0000
,
1000
0010
0100
0001
0010
0100
1000
0000
,
0001
0010
0100
0000
1000
0100
0010
0000
,
0001
0010
0100
1000
0010
0100
0001
0000
,
0010
0001
0010
0000
0100
1000
0100
0000
,
1000
0010
1000
0000
0001
0100
0001
0000
,
0100
0010
1000
0000
0100
0010
0001
0000
,
0001
0010
0100
1000
0001
0100
0010
0000
,
1000
0010
1000
0000
0001
0100
0001
0000
,
0100
0010
1000
0100
0010
0001
0010
0000
,
0001
0010
0001
0000
1000
0100
1000
0000
,
0001
0010
0100
1000
0001
0100
0010
0000
,
1000
0010
1000
0010
0100
0010
0100
0010
,
0100
0100
0001
0001
,
0010
0000
0010
0000
0100
1000
0010
0000
,
0100
0000
0000
1010
,
1001
0000
0101
0000
,
0001
0100
0000
0010
0000
0000
1000
0000
,
0100
1000
0100
0000
1000
0000
0001
0000
,
0010
0001
1000
0010
,
0100
0000
0010
0000
0100
0001
0100
0001
,
0100
0000
0010
1000
0000
0000
0010
0000
,
1000
0100
0010
0001
,
0010
0100
0000
1100
0000
0000
0000
0000
,
1000
0001
0100
0010
,
1000
0100
0010
0001
0010
0100
1000
0001
,
0100
0100
0010
0010
,
1000
0100
0010
0001
0010
0100
1000
0010
,
0100
0001
0100
0001
0100
0010
0100
0010
,
0100
0010
1000
0010
1000
0010
1000
0100
,
1000
0100
0010
0001
0010
0100
1000
0001
,
0100
0000
0000
0000
0010
1000
0010
1000
,
0010
1000
0100
0010
0000
0010
0001
0010
,
0100
1000
0001
0100
0010
1000
0100
0010
,
0001
0010
0001
1000
0000
1000
0001
0100
,
0010
1000
0100
0010
0001
0010
0100
1000
,
0010
0100
0001
0010
0000
0010
0001
0010
,
0100
1000
0001
0100
0010
0100
0010
1000
,
0100
0010
0001
0010
0000
0010
0100
1000
,
0001
1000
0010
0100
0000
0100
0010
0000
,
1000
0010
0100
0001
0000
0001
0010
0100
,
1000
0001
0100
0010
1000
0100
0010
0001
,
0010
0100
1000
0001
0000
0001
0010
0100
,
1000
0001
0100
0010
1000
0100
0010
0100
,
1000
0001
0010
0100
0000
0100
0010
0001
,
0100
0010
1000
0100
0010
0100
1000
0001
,
0010
0000
0000
0000
,
0000
0000
0000
0000
0000
0001
0001
0001
,
1000
0100
0100
0000
0010
0001
0001
0000
,
1000
0010
0100
0001
0010
0100
1000
0000
,
0010
0100
0100
0000
0001
0010
0010
0000
,
0100
1000
0001
0100
0010
1000
0100
0000
,
0010
0001
0010
0001
0010
0100
0010
0100
,
1000
1000
0010
0010
,
0100
0001
0100
0010
1000
0100
0010
0001
,
0010
0100
1000
0001
0100
0010
1000
0000
,
0010
1000
1000
0000
0001
0100
0100
0000
,
0001
0010
0100
1000
0010
0100
0100
0000
,
0001
0010
0010
0000
0100
1000
1000
0000
,
0001
0010
0100
1000
0010
0010
0010
0000
,
0100
0001
0010
0001
0010
0100
0010
0100
,
1000
0001
0100
0010
1000
0100
0100
0000
,
0100
0000
1001
0100
0000
1010
0202
0000
,
1313
0000
0000
0000
;

//---------------dance-single - Renard----------------
#NOTES:
     dance-single:
     Renard:
     Medium:
     6:
     0.455,0.461,0.074,0.021,0.000:
0000
0000
0000
0000
,
0000
0000
0000
0000
,
0000
0000
0000
0000
,
0000
0000
0000
0000
,
0000
0000
0000
0000
,
0000
0000
0000
0000
,
0000
0000
0000
0000
,
0000
0000
0000
0000
,
1000
0000
0000
0000
1001
0000
0000
0001
,
0100
0000
0010
1000
,
1000
0000
0010
0000
,
0000
0000
0000
0000
1000
0000
0100
1000
,
0100
0000
1000
0000
0001
0000
0010
0001
,
0010
0001
1000
0010
,
0100
0001
0010
0100
,
1000
0000
0000
0000
0100
1000
0100
0000
,
1000
0001
0100
0010
,
1000
0000
0010
0000
0100
0001
0100
0000
,
0010
1000
0100
0010
,
0001
0000
1000
0000
0100
1000
0100
0000
,
1000
0001
0010
0001
,
1000
0000
0010
0000
0100
0010
0100
0000
,
0010
0000
1000
0000
0001
1000
0001
0000
,
2000
0000
0000
3001
,
1000
0100
1000
0000
0001
0010
0001
0000
,
1000
0000
0001
0000
,
1000
0100
1000
0000
0001
0010
0001
0000
,
1000
0000
0001
0000
,
1000
0010
1000
0000
0001
0100
0001
0000
,
1000
0000
0001
0000
,
1000
0100
0010
0001
,
1001
0000
0000
0110
,
0010
0000
1000
0000
,
0010
1000
0000
0001
0000
0000
0100
0000
,
0010
1000
0100
0010
,
0001
0010
0000
0100
0000
0000
1000
0000
,
0100
0010
0001
1000
,
0010
0000
1000
0010
0000
0000
1000
0000
,
0010
0100
0001
0010
,
0001
1000
0000
1001
0000
0000
0000
0000
,
1000
1000
0001
0001
,
0100
0000
0010
0000
0100
0010
0100
0000
,
0010
0010
0100
0100
,
0001
0000
1000
0000
0001
1000
0001
0000
,
1000
0100
0010
0001
,
0010
0100
1000
0001
,
0010
0100
1000
0100
,
0010
0000
0010
0000
0001
1000
0001
0000
,
0100
0100
0010
1000
,
0100
0010
0000
0001
0000
0010
0000
0100
,
1000
0001
0100
0010
,
1000
0001
0000
0100
0000
0010
0000
1000
,
0001
0100
0010
1000
,
0100
0000
0010
0001
0000
0010
0000
0100
,
1000
0001
0100
0010
,
1000
0000
1000
0010
0000
0010
1000
0000
,
0001
0000
0100
0010
0000
1000
0000
0100
,
0000
0010
0000
0001
0000
0010
0000
0100
,
1000
0000
0001
0100
0000
0010
0000
1000
,
0000
0100
0000
0010
0000
0001
0000
0010
,
0100
0000
1000
0001
0000
0100
0000
0010
,
0000
1000
0000
0100
0000
0010
0000
0001
,
0020
0000
0000
0000
,
0000
0000
0000
0000
0000
0130
1000
0100
,
1000
1000
0001
0001
,
0100
0100
0010
0010
,
1000
1000
0100
0100
,
0010
0010
0001
0001
,
1000
0001
1000
0001
,
0100
0010
0100
0010
,
1000
0010
0100
0001
,
0010
0000
0010
0000
0001
0010
0001
0000
,
0010
0100
0010
0000
0100
0000
1000
0000
,
0010
0000
0100
0000
0001
1000
0001
0000
,
0100
0010
0100
0000
0010
0000
1000
0000
,
0100
0000
0010
0000
0001
0010
0001
0000
,
0010
0100
0010
0000
0100
0000
1000
0000
,
0010
0000
0100
0000
0001
1000
0001
0000
,
1000
0000
0100
0000
0000
0011
0110
0000
,
1001
0000
0000
0000
;

//---------------dance-single - Renard----------------
#NOTES:
     dance-single:
     Renard:
     Easy:
     3:
     0.346,0.377,0.042,0.085,0.000: // measure 1
0000
0000
0000
0000
,  // measure 2
0000
0000
0000
0000
,  // measure 3
0000
0000
0000
0000
,  // measure 4
0000
0000
0000
0000
,  // measure 5
0000
0000
0000
0000
,  // measure 6
0000
0000
0000
0000
,  // measure 7
0000
0000
0000
0000
,  // measure 8
0000
0000
0000
0000
,  // measure 9
1000
0000
0001
0000
,  // measure 10
0100
0100
0010
0000
,  // measure 11
1000
0100
1000
0001
,  // measure 12
0010
0001
1000
0000
,  // measure 13
0001
0100
0010
0100
,  // measure 14
0001
0100
0010
0100
,  // measure 15
0001
0100
0001
1000
,  // measure 16
0002
0000
0000
0000
,  // measure 17
1003
1000
0001
0001
,  // measure 18
1000
0100
0010
0000
,  // measure 19
0001
0001
1000
1000
,  // measure 20
0001
0010
0100
0000
,  // measure 21
1000
0000
0001
0000
,  // measure 22
0100
0010
0100
0010
,  // measure 23
1000
0010
1000
0001
,  // measure 24
0200
0000
0000
0301
,  // measure 25
0100
0000
0001
0000
,  // measure 26
1000
0100
0010
0001
,  // measure 27
1000
0000
0100
0000
,  // measure 28
0001
0010
0100
1000
,  // measure 29
0010
1000
0010
1000
,  // measure 30
0001
0100
0001
0100
,  // measure 31
0001
0001
1000
1000
,  // measure 32
0002
0000
0000
1003
,  // measure 33
1000
0000
0001
0000
,  // measure 34
0100
0000
0010
0000
,  // measure 35
1000
0010
1000
0000
,  // measure 36
0001
0100
0001
0000
,  // measure 37
1000
0000
1000
0000
,  // measure 38
0100
0000
0100
0000
,  // measure 39
0010
0001
0010
0100
,  // measure 40
1000
0001
1000
0000
,  // measure 41
0001
0000
0100
0000
,  // measure 42
0010
0010
1000
1000
,  // measure 43
0010
0000
1000
0000
,  // measure 44
0100
0100
0010
0010
,  // measure 45
0001
0010
0001
0010
,  // measure 46
0001
0010
0001
0010
,  // measure 47
0001
0010
0001
0010
,  // measure 48
0002
0000
0000
0013
,  // measure 49
0100
0000
1000
0000
,  // measure 50
0010
0100
0001
0100
,  // measure 51
0010
0000
1000
0000
,  // measure 52
0010
0100
0001
0000
,  // measure 53
0100
0000
0010
0000
,  // measure 54
1000
0010
0100
0001
,  // measure 55
0100
0010
1000
0001
,  // measure 56
0200
0000
0000
0310
,  // measure 57
0010
0000
0100
0000
,  // measure 58
0001
1000
0001
0000
,  // measure 59
2000
0000
3100
0000
,  // measure 60
0010
0001
0010
0000
,  // measure 61
0200
0000
0310
0000
,  // measure 62
0010
0001
1000
0010
,  // measure 63
0020
0000
0000
0000
,  // measure 64
0000
0000
0000
0000
,  // measure 65
0130
0100
0010
0010
,  // measure 66
0100
0010
0100
0000
,  // measure 67
0001
0001
1000
1000
,  // measure 68
0001
1000
0001
0000
,  // measure 69
1000
0000
0100
0000
,  // measure 70
0010
0000
0001
0000
,  // measure 71
0010
0100
1000
0001
,  // measure 72
0010
0010
0010
0000
,  // measure 73
0001
1000
0001
1000
,  // measure 74
0010
0100
0010
0000
,  // measure 75
1000
0001
1000
0001
,  // measure 76
0100
0010
0100
0000
,  // measure 77
0001
0100
0001
0100
,  // measure 78
0010
1000
0010
1000
,  // measure 79
0100
0000
1001
0000
0000
0110
1001
0000
,  // measure 80
0110
0000
0000
0000
;
