#TITLE:X-Ray;
#SUBTITLE:;
#ARTIST:Sub Focus;
#TITLETRANSLIT:;
#SUBTITLETRANSLIT:;
#ARTISTTRANSLIT:;
#CREDIT:;
#BANNER:x.png;
#BACKGROUND:x-bg.png;
#LYRICSPATH:;
#CDTITLE:;
#MUSIC:x.ogg;
#OFFSET:0.000;
#SAMPLESTART:32.980;
#SAMPLELENGTH:12.000;
#SELECTABLE:YES;
#BPMS:0.000=174.000,90.500=87.000,91.500=174.000,92.500=348.000,93.500=174.000;
#STOPS:30.500=0.345
,93.500=0.172
,156.500=0.345
;
#BGCHANGES:;

//---------------dance-single - Renard----------------
#NOTES:
     dance-single:
     Renard:
     Challenge:
     9:
     0.745,0.858,0.383,0.010,0.312:
0000
0000
0000
0000
,
0000
0000
0000
0000
,
0000
0000
0000
0000
,
0000
0000
0000
0000
,
1000
0000
0001
0000
0000
0100
0001
0000
,
1000
0100
0010
0000
0000
0001
0010
0000
,
0100
0000
1000
0000
0000
0010
0100
0000
,
0001
1000
0100
0000
0000
1000
0001
0000
,
0100
0000
0000
0000
0000
0000
0000
0000
0000
0010
0000
0000
1000
0000
0000
0100
1000
0100
1000
0000
0000
0010
0000
0000
,
0100
0000
0000
0001
1000
0000
0001
0000
,
0100
0000
0000
0000
0000
0000
0000
0000
0000
0001
0000
0000
0010
0000
0000
0100
1000
0100
1000
0000
0000
0010
0000
0000
,
0100
0000
0000
0001
0100
0000
0010
0000
,
1000
0000
0000
0000
0000
0000
0000
0000
0000
0100
0000
0000
1000
0000
0000
0001
0010
0001
0010
0000
0000
0100
0000
0000
,
1000
0000
0000
0001
0100
0000
0001
0000
,
1000
0000
0000
0000
0000
0000
0000
0000
0000
0010
0000
0000
1000
0000
0000
0100
1000
0100
1000
0000
0000
0001
0000
0000
,
0100
0000
0000
0001
0010
0000
0100
0000
,
1000
0000
0000
0000
0000
0000
0000
0000
0000
0001
0000
0000
0100
0000
0000
0001
0100
0001
0100
0000
0000
0010
0000
0000
,
1000
0000
0000
0001
0100
0000
0010
0000
,
1000
0000
0000
0000
0000
0000
0000
0000
0000
0100
0000
0000
1000
0000
0000
0001
1000
0001
1000
0000
0000
0010
0000
0000
,
0100
0000
0000
0001
0100
0000
0010
0000
,
1000
0000
0000
0000
0000
0000
0000
0000
0000
0100
0000
0000
1000
0000
0000
0001
1000
0001
1000
0000
0000
0100
0000
0000
,
0010
0000
0000
0001
0010
0000
0100
0000
,
1100
0000
1000
0000
1010
0020
0000
0000
,
0000
0030
0000
0010
0010
1000
0100
0010
,
0001
0000
0000
0010
0000
0000
0100
0000
0000
1000
0010
1000
0010
0000
0000
1000
0000
0000
0100
0000
0000
0010
0000
0000
,
0001
1000
0001
0100
0001
0000
0001
0000
0100
0000
0001
0000
0010
0000
0100
0000
,
1000
0000
0000
0100
0000
0000
0010
0000
0000
0001
0100
0001
0100
0000
0000
0001
0000
0000
0010
0000
0000
0100
0000
0000
,
1000
0001
1000
0010
1000
0000
1000
0000
1001
0000
0100
0000
1010
0000
0100
0000
,
1001
0000
0010
0100
1001
0010
0101
0010
,
1001
0000
0000
0010
0000
0000
0100
0000
0000
0001
0010
0001
1000
0000
0000
0000
0000
0000
0110
0000
0000
0000
0000
0000
,
0001
0000
0000
1000
0000
0000
0110
0000
0000
0001
1000
0001
1000
0000
0000
0001
0000
0000
0110
0000
0000
1000
0000
0000
,
0001
1000
0110
0000
0100
0001
0010
0100
,
1000
0000
0000
0100
0000
0000
0010
0000
0000
0001
0100
0001
0100
0000
0000
0001
0000
0000
0010
0000
0000
0100
0000
0000
,
1000
0001
1000
0010
1000
0000
1000
0000
0010
0000
1000
0000
0100
0000
0010
0000
,
0001
0000
0000
0010
0000
0000
0100
0000
0000
1000
0010
1000
0010
0000
0000
1000
0000
0000
0100
0000
0000
0010
0000
0000
,
0001
1000
0001
0100
0001
0000
0001
0000
1001
0000
0010
0000
0101
0000
0010
0000
,
1001
0000
0100
0010
1001
0100
1010
0100
,
1001
0000
0000
0100
0000
0000
0010
0000
0000
1000
0100
1000
0001
0000
0000
0000
0000
0000
0110
0000
0000
0000
0000
0000
,
1000
0000
0000
0001
0000
0000
0110
0000
0000
1000
0001
1000
0001
0000
0000
1000
0000
0000
0110
0000
0000
0001
0000
0000
,
1000
0001
1000
1000
0100
0001
0010
0010
,
1000
1000
0100
0100
0001
0010
1000
1000
,
0100
0100
0001
0001
0010
1000
0100
0100
,
0001
0001
0010
0010
1000
0100
0001
0001
,
0010
0010
0001
0001
0010
1000
0100
0100
,
0001
0001
0010
0010
1000
0100
0001
0001
,
0010
0010
1000
1000
0100
0001
0010
0010
,
1000
1000
0100
0100
0001
0010
1000
1000
,
0100
0100
1100
0000
0010
0000
0101
0010
,
1100
0000
0000
0001
0010
0001
1000
0000
0000
0010
0000
0000
1010
0000
0000
0100
0000
0000
0001
0000
0000
0010
0000
0000
,
1001
0000
0001
0100
0110
0010
1000
0100
,
0110
0100
1000
0010
0110
0100
0001
0100
,
0110
0000
0010
1000
0001
0100
0010
1000
,
0100
0010
0001
0010
0100
1000
0010
0100
,
0001
1000
0100
0001
0100
0001
0100
0010
,
0100
0000
0010
0000
0100
1000
0100
1000
0001
0100
0001
0100
0010
1000
0010
1000
,
0001
0010
0001
0010
0001
0000
0000
0000
1000
0000
0000
0000
0000
0000
0001
0000
,
0100
0000
0000
0001
0100
0001
0100
0000
0000
0001
0000
0000
1000
0000
0000
0000
0000
0000
0000
0000
0000
0100
0000
0000
,
1000
0000
0001
0000
0010
0000
0000
0001
,
1000
0000
0000
0010
1000
0010
1000
0000
0000
0001
0000
0000
0100
0000
0000
0000
0000
0000
0000
0000
0000
0001
0000
0000
,
0010
0000
0100
0000
1000
0000
0000
0010
,
0100
0000
0000
0001
0100
0001
0100
0000
0000
0001
0000
0000
1000
0000
0000
0000
0000
0000
0000
0000
0000
0001
0000
0000
,
0010
0000
0001
0000
1000
0000
0000
0001
,
0100
0000
0000
0001
0100
0001
0100
0000
0000
0001
0000
0000
1000
0000
0000
0000
0000
0000
0000
0000
0000
0100
0000
0000
,
1000
0000
0001
0000
0010
0000
0000
0001
,
1000
0000
0000
0010
1000
0010
1000
0000
0000
0001
0000
0000
0100
0000
0000
0000
0000
0000
0000
0000
0000
0001
0000
0000
,
0010
0000
0100
0000
1000
0000
0000
0010
,
0100
0000
0000
0001
0100
0001
0100
0000
0000
0001
0000
0000
1000
0000
0000
0000
0000
0000
0000
0000
0000
0001
0000
0000
,
0010
0000
0100
0000
1000
0000
0000
0001
,
0100
0000
0000
0001
1000
0001
1000
0000
0000
0100
0000
0000
0010
0000
0000
0000
0000
0000
0000
0000
0000
0001
0000
0000
,
0010
0000
0100
0000
1100
0000
1000
0010
,
1001
0000
0110
0110
1001
1001
0110
0000
,
1001
0000
0000
0000
;

//---------------dance-single - Renard----------------
#NOTES:
     dance-single:
     Renard:
     Hard:
     7:
     0.486,0.536,0.081,0.000,0.000:
0000
0000
0000
0000
,
0000
0000
0000
0000
,
0000
0000
0000
0000
,
0000
0000
0000
0000
,
1000
0000
0100
0000
0000
0010
0001
0000
,
1000
0001
0100
0000
0000
0100
0010
0000
,
1000
0000
0100
0000
0000
0010
0001
0010
,
0100
1000
0001
0000
0000
0100
0010
0000
,
0000
0000
1000
0100
0010
0001
0010
0000
,
0010
0000
0100
1000
0010
0000
0100
0000
,
0101
0000
0100
0010
1000
0000
0100
0000
,
0000
0100
0000
0010
,
0001
0000
0010
0000
0100
1000
0001
0000
,
0001
0000
0100
0010
0100
0000
0000
0000
,
1010
0000
0000
0000
1001
0000
1000
0100
,
1000
0000
0000
0001
0010
0000
0001
0000
,
1000
0000
0000
0000
0010
0100
0010
0000
,
0100
0000
0001
1000
0001
0000
1000
0000
,
0100
0000
0000
1000
0100
0000
1000
0000
,
0100
0000
0010
0001
0010
0000
0001
0000
,
0010
0000
0100
0000
1000
0001
0100
0001
,
0100
0000
0010
0100
0001
0000
0100
0010
,
1000
0001
0100
0001
0100
0001
0000
0000
,
0000
0000
0000
1001
1000
0000
0100
0000
,
0010
0001
0010
0000
0100
0000
1000
0000
,
0001
1000
0001
0000
1000
0000
1010
0000
,
1000
0001
0100
0001
0010
0000
0011
0000
,
0010
0100
1000
0001
0100
0000
0010
0000
,
0010
1000
0100
0100
,
0010
0100
0010
0000
0001
0000
1000
0000
,
0001
1000
0010
0100
,
0010
0100
1001
0000
,
0000
0000
0000
1000
0100
0000
0100
0000
,
0010
0001
0010
0000
0100
0000
1000
0000
,
0001
0010
0001
0000
1000
0000
0010
0000
,
0100
0001
0100
0000
0010
0000
1000
0000
,
0100
0000
0010
0001
0010
0100
1000
0000
,
0001
0010
0100
0000
1000
0100
0010
0001
,
1000
0100
0010
0001
0010
0100
1000
0001
,
0010
0100
1000
0000
0100
0000
1000
0100
,
1000
0000
0001
0000
0010
0000
0001
0010
,
0001
0000
1000
0000
0010
0000
1000
0010
,
1000
0000
0001
0000
0100
0000
0001
0100
,
0001
0000
1000
0000
0100
0000
0010
0001
,
0010
0000
0100
0000
1000
0000
0001
0100
,
0001
0000
0100
0000
0010
0000
1000
0010
,
1000
0000
0100
1000
0100
1000
0001
0010
,
0001
0000
1000
0000
0010
0000
0100
0001
,
0100
0000
0010
0000
1000
0000
0010
1000
,
0010
1000
0100
1000
,
0001
0000
0010
0000
0001
0000
1000
0001
,
1000
0001
0100
0010
,
1000
0000
0010
1000
0010
0000
1000
0001
,
0100
0000
0001
0100
0010
1000
0100
0010
,
0001
0100
0010
1000
0100
0010
0001
1000
,
0001
0000
1000
0000
0001
0000
0000
0100
,
0010
0000
1000
0100
1000
0000
0000
0001
,
0010
0000
0001
0000
1000
0000
0000
0010
,
0100
0000
0001
1000
0001
0000
0000
1000
,
0100
0000
1000
0000
0001
0000
0000
0010
,
0001
0000
1000
0010
1000
0000
0000
0001
,
0100
0000
0010
0000
1000
0000
0000
0100
,
0010
0000
0001
1000
0001
0000
0000
0100
,
0010
0000
1000
0000
0010
0000
0000
0100
,
0001
0000
1000
0100
1000
0000
0000
0001
,
0010
0000
0001
0000
1000
0000
0000
0010
,
1000
0000
0001
0100
0001
0000
0000
1000
,
0100
0000
0010
0000
0001
0000
0000
1000
,
0010
0000
0100
0001
0100
0000
0000
0001
,
0010
0000
0100
0000
1000
0000
0000
0001
,
0100
0000
0010
1000
0100
0010
0001
0000
,
1001
0000
0000
0000
;

//---------------dance-single - Renard----------------
#NOTES:
     dance-single:
     Renard:
     Medium:
     5:
     0.337,0.429,0.020,0.000,0.000:
0000
0000
0000
0000
,
0000
0000
0000
0000
,
0000
0000
0000
0000
,
0000
0000
0000
0000
,
0000
0000
0000
0000
,
0000
0000
0000
0000
,
0000
0000
0000
0000
,
0000
0000
0000
1000
,
0000
0000
0001
0000
0000
0100
0001
0000
,
0100
0000
0010
1000
0010
0000
1000
0000
,
0000
0100
0000
0010
,
0001
1000
0000
0001
,
0000
0100
0000
0010
,
1000
0000
0001
0100
0001
0000
0100
0000
,
0000
0001
0000
1000
,
0100
0010
0001
0011
,
0000
0000
0000
0000
0000
0010
0100
0000
,
1000
0000
0001
1000
0001
0000
1000
0000
,
0000
0001
0000
0100
,
0010
0100
0000
0010
,
0000
0000
1000
0000
0000
0000
0001
0100
,
0001
0000
0100
0001
0100
0000
0001
0000
,
0100
0010
1000
0000
,
0000
0000
0000
1000
0001
0000
0000
0000
,
0100
0000
0010
1000
0010
0000
1000
0000
,
0100
1000
0100
0000
1000
0000
1000
0000
,
0001
0001
0010
0010
,
0100
0100
1000
0000
,
0001
0000
0100
0010
,
1000
0010
1000
0000
0001
0000
0000
0000
,
0100
0000
0001
0010
,
0100
0000
1000
0000
,
0100
0000
0010
0010
,
0001
0010
0001
0000
0010
0000
0000
0000
,
0100
0000
1000
1000
,
0010
0100
0001
0000
,
1000
0000
0000
0000
0001
0100
0001
0000
,
1000
0010
1000
0000
0001
0000
0100
0000
,
0010
1000
0100
0010
,
0001
0001
0000
0010
,
0100
0000
1000
0100
0000
0000
1000
0000
,
0010
0100
0000
0001
,
0100
0000
0010
1000
0000
0000
0010
0000
,
1000
0010
0000
0001
,
0100
0000
0010
1000
0000
0000
0001
0000
,
0100
0010
0010
1000
,
0001
0000
0100
0001
0000
0001
0100
0000
,
0010
1000
0010
1000
,
0010
0000
0100
0000
0100
0000
0010
1000
,
0010
1000
0010
0100
,
0001
0010
0100
1000
,
0001
0010
0010
0010
,
0010
0000
0001
0000
1000
0000
0001
0100
,
0001
0100
0010
1000
,
0100
0000
0010
0001
0010
0100
1000
0001
,
0010
0100
1000
0000
0001
0000
0000
0000
,
0010
0001
0010
0000
,
0001
1000
0010
0000
,
0010
0000
0100
0000
0001
0000
0000
1000
,
0100
0000
1000
0000
0001
0000
0000
0010
,
0001
0000
1000
0010
1000
0000
0000
0001
,
0100
0000
0001
0000
1000
0000
0000
0100
,
0010
0000
0001
0010
0001
0000
1000
0000
,
0001
0100
0010
0000
,
0010
1000
0010
0000
,
0100
0000
0001
0000
,
0010
0100
1000
0000
,
0001
0010
0001
0000
,
0001
1000
0010
0000
,
0001
0010
1000
0100
,
0010
0001
1000
0010
,
1001
0000
0000
0000
;

//---------------dance-single - Renard----------------
#NOTES:
     dance-single:
     Renard:
     Easy:
     2:
     0.232,0.250,0.010,0.000,0.000: // measure 1
0000
0000
0000
0000
,  // measure 2
0000
0000
0000
0000
,  // measure 3
0000
0000
0000
0000
,  // measure 4
0000
0000
0000
0000
,  // measure 5
1000
0000
1000
0000
,  // measure 6
0001
0000
0100
0000
,  // measure 7
0001
0000
0001
0000
,  // measure 8
1000
0100
1000
0001
,  // measure 9
0000
0000
0000
1000
,  // measure 10
1000
0100
0010
0001
,  // measure 11
0000
0001
0000
0010
,  // measure 12
0000
0010
0000
0100
,  // measure 13
0000
0000
0000
1000
,  // measure 14
1000
0001
0001
0010
,  // measure 15
0000
0010
0000
0100
,  // measure 16
0000
0100
0000
1000
,  // measure 17
0000
0001
0000
0100
,  // measure 18
0010
0100
0000
0010
,  // measure 19
0000
0010
0000
1000
,  // measure 20
0000
1000
0000
0010
,  // measure 21
0000
0100
0000
0001
,  // measure 22
1000
0001
0000
0010
,  // measure 23
0000
0100
0000
1000
,  // measure 24
0000
0000
0001
0000
,  // measure 25
0000
0000
1000
0000
,  // measure 26
0001
0100
0010
0000
,  // measure 27
0010
0000
1000
0000
,  // measure 28
1000
0000
0010
0000
,  // measure 29
0000
0000
1000
0001
,  // measure 30
1000
0001
1000
0000
,  // measure 31
0001
0000
0010
0000
,  // measure 32
0100
0000
1000
0000
,  // measure 33
0010
0000
1000
0001
,  // measure 34
0100
0001
1000
0000
,  // measure 35
0001
0000
0010
0000
,  // measure 36
0001
0000
1000
0000
,  // measure 37
0100
0000
1000
1000
,  // measure 38
0001
0001
1000
0000
,  // measure 39
0001
0000
1000
0001
,  // measure 40
1000
0001
0000
0001
,  // measure 41
0000
0100
0000
0100
,  // measure 42
0000
0001
0000
0001
,  // measure 43
0000
0001
0000
0001
,  // measure 44
0000
1000
0000
1000
,  // measure 45
0000
0100
0000
0100
,  // measure 46
0000
1000
0000
0001
,  // measure 47
0000
1000
0001
1000
,  // measure 48
0000
0001
0000
0001
,  // measure 49
0000
0010
0010
0010
,  // measure 50
0010
0100
0000
0100
,  // measure 51
0000
0010
0000
0100
,  // measure 52
0000
0010
0000
0010
,  // measure 53
0000
0100
0100
0100
,  // measure 54
0100
1000
0000
1000
,  // measure 55
0000
0010
0000
0100
,  // measure 56
0000
0001
0000
0000
,  // measure 57
0100
0000
0010
0000
,  // measure 58
1000
0100
0010
0000
,  // measure 59
0001
0000
1000
0000
,  // measure 60
0010
0100
0000
0000
,  // measure 61
0001
1000
0100
0000
,  // measure 62
0010
0001
0010
0000
,  // measure 63
0100
0000
1000
0000
,  // measure 64
0001
0100
0000
0000
,  // measure 65
0010
0000
1000
0000
,  // measure 66
0100
0010
0001
0000
,  // measure 67
0010
0000
0100
0000
,  // measure 68
1000
0000
0001
0100
,  // measure 69
0001
0000
1000
0000
,  // measure 70
0100
0010
0001
0010
,  // measure 71
0100
1000
0001
1000
,  // measure 72
1001
0000
0000
0000
;
