#TITLE:World of Unknown;
#SUBTITLE:;
#ARTIST:Vagabond;
#TITLETRANSLIT:;
#SUBTITLETRANSLIT:;
#ARTISTTRANSLIT:;
#CREDIT:;
#BANNER:world.png;
#BACKGROUND:world-bg.png;
#LYRICSPATH:;
#CDTITLE:;
#MUSIC:world.ogg;
#OFFSET:0.000;
#SAMPLESTART:58.665;
#SAMPLELENGTH:12.000;
#SELECTABLE:YES;
#BPMS:0.000=180.000;
#STOPS:;
#BGCHANGES:;

//---------------dance-single - Renard----------------
#NOTES:
     dance-single:
     Renard:
     Hard:
     8:
     0.623,0.638,0.526,0.071,0.010:
0000
0000
0000
0000
,
0000
0000
0000
0000
,
0000
0000
0000
0000
,
0000
0000
0000
0000
,
1001
0000
0001
0100
0010
1000
0100
0010
,
0001
0010
0100
1000
0010
0100
0110
0000
,
1001
0000
1000
0010
0100
0001
0010
0100
,
1000
0000
0001
0100
0000
0000
0010
0000
1000
0000
0010
0000
0100
0000
0000
0000
,
2002
0000
0000
0000
,
0000
0000
0000
0000
,
0000
0000
0000
0000
,
0000
0000
0000
3003
,
0101
0000
0110
0000
0010
1000
0100
0000
,
0010
0001
0010
0100
0000
0100
1000
0000
,
1010
0000
0000
0000
0101
0000
0000
1001
,
0000
0001
0100
0010
1000
0000
0001
0000
,
1100
0000
0011
0000
1000
0000
0100
0010
,
0000
0001
0000
0100
0000
0010
1000
0000
,
1001
0000
0101
0000
1010
0000
0001
0101
,
0000
0110
0000
1001
0000
0000
0000
0000
,
1001
0000
1100
0000
0010
0001
0010
0011
,
0000
0000
0001
0010
0100
1000
0010
0000
,
0101
0000
0010
0000
1010
0000
0001
1001
,
0000
0000
0001
0100
0010
1000
0100
0000
,
1100
0000
0100
0010
0011
0000
0000
1001
,
0000
0001
0100
0010
1000
0000
0001
0000
,
0101
0000
0010
1000
0110
0000
0010
1010
,
0000
0000
0001
0100
0010
1000
0001
0000
,
0001
0100
0001
0100
0001
0100
0001
0100
,
0001
0100
0001
0100
0001
0100
0001
0100
,
0001
1000
0100
0010
,
0001
0000
0010
0000
0100
0000
1000
0010
,
0000
0100
0001
1000
0100
0010
0001
0010
,
0100
1000
0001
0100
,
0010
0000
1010
0000
0001
0101
0000
0000
,
1001
0000
0000
1100
0000
0010
0011
0000
,
1001
0000
0000
1010
0000
0001
0101
0000
,
0210
0301
1100
0101
,
2002
0000
0000
3003
,
0001
0000
0001
0100
0010
0000
0010
1000
,
0100
0000
0100
0010
0001
0000
0001
1000
,
0010
0000
0010
0100
0001
0100
0010
1000
,
0100
0000
0100
0010
0001
1000
0001
0100
,
0110
1001
0110
1001
,
0001
0010
0100
1000
0100
0010
0001
0010
,
0100
1000
0010
0001
0010
1000
0010
0001
,
0010
1000
0100
0010
0001
0010
0100
1000
,
0100
0001
0100
1000
0100
0001
0100
1000
,
0010
0100
0001
0100
0010
1000
0001
0100
,
1000
0100
0001
0100
1000
0100
0001
0100
,
0010
1000
0010
0100
0001
0100
0010
0100
,
0001
0010
1000
0010
0001
0010
1000
0010
,
0001
0010
0100
1000
0100
0010
0001
0010
,
0001
0100
0010
1000
0001
0100
0010
1000
,
0010
1000
0100
0010
0100
1000
0001
0010
,
0100
0010
0001
1000
0010
0100
0001
0100
,
0010
1000
0010
1000
0001
0100
0001
0100
,
0001
0010
0001
0010
0100
1000
0100
1000
,
0100
1000
0001
0010
0100
0010
0001
1000
,
0001
0100
0010
1000
0010
0100
0001
0100
,
0010
0010
1000
0000
0001
0001
0100
0000
,
0010
1000
0010
1000
0001
0100
0001
0000
,
1000
1000
0100
0000
0010
0010
0001
0000
,
1000
0101
0010
1001
,
1000
1000
0100
0000
0010
0010
0001
0000
,
1001
1010
0101
1001
,
1000
1000
0100
0000
0010
0010
0001
0000
,
0001
1000
0010
0100
0001
1000
0010
0100
,
0001
0000
1000
0010
0000
0000
0001
0000
0100
0000
0010
0000
1000
0000
0000
0000
,
2002
0000
0000
0000
,
3003
0000
0000
0000
;

//---------------dance-single - Renard----------------
#NOTES:
     dance-single:
     Renard:
     Medium:
     5:
     0.334,0.594,0.223,0.020,0.000:
0000
0000
0000
0000
,
0000
0000
0000
0000
,
0000
0000
0000
0000
,
0000
0000
0000
0000
,
0000
0000
0000
0000
,
0000
0000
0000
0000
,
0000
0000
0000
0000
,
1000
1000
0001
0001
,
1000
0000
0000
0000
,
0000
0000
0000
0000
,
0000
0000
0000
0000
,
0000
0000
0000
0000
,
1000
0100
0000
0000
,
0000
0000
0000
0000
,
0011
0000
0000
0000
0110
0000
0000
1100
,
0000
0000
0000
0000
,
1001
1001
0000
0000
,
0000
0000
0000
0000
,
0110
0000
0000
0000
0110
0000
0000
1001
,
0000
0110
0000
1001
0000
0000
0000
0000
,
1000
0000
0100
0000
1000
0000
0000
0001
,
0000
0010
0000
0001
0000
0000
0000
0000
,
1000
0000
0010
0000
0100
0000
0000
0001
,
0000
0100
0000
0010
0000
1000
0000
0010
,
0100
0000
0001
0000
0100
0000
0000
0010
,
0000
1000
0000
0100
0000
0000
0010
0000
,
0001
0000
0010
0000
0100
0000
0000
1000
,
0000
0001
0000
0100
0000
0010
1000
0000
,
0001
1000
0001
1000
0001
1000
0001
1000
,
0001
1000
0001
1000
0001
1000
0001
1000
,
0001
0001
1000
1000
,
0001
0000
0001
0000
0100
0000
0010
1000
,
0000
0010
0100
0001
,
0010
0100
1000
0001
,
0010
0000
0110
0000
0000
1100
0000
0000
,
0011
0000
0000
0110
0000
0000
1100
0000
,
1100
0000
0000
0011
0000
0000
0110
0000
,
1100
0000
1001
0000
,
0220
0000
0000
0000
,
0330
0000
0000
0000
,
0000
0000
0000
0000
,
0010
1000
0010
1000
0010
1000
0010
1000
,
0010
1000
0010
1000
0010
1000
0010
1000
,
0010
0010
0010
0000
,
1000
0000
0001
0000
0100
0000
0000
0001
,
0000
1000
0000
0100
0000
0010
0000
0001
,
0010
0000
0000
0000
0100
0000
0000
1000
,
0000
0001
0000
0100
0000
0000
0010
0000
,
1000
0000
0010
0000
0100
0000
0000
0001
,
0000
1000
0000
0100
0000
1000
0000
0000
,
0001
0000
0010
0000
0001
0000
0000
1000
,
0000
0001
0000
0010
0000
0000
0000
0000
,
0100
0000
1000
0000
0001
0000
0010
0001
,
0000
1000
0000
0001
0000
0000
0100
0000
,
0010
0000
1000
0000
0010
0000
0100
0001
,
0000
0100
0000
0010
0000
0000
1000
0010
,
1000
0000
0000
0000
0010
0000
0100
0001
,
0000
0010
0000
0100
0000
1000
0000
0001
,
0010
0000
0001
0000
1000
0000
0001
0100
,
0000
0100
0000
0100
0000
0000
0010
0000
,
1000
1000
0010
0010
,
0100
0000
0001
0000
0100
0001
0100
0000
,
0001
0001
0010
0010
,
0100
0000
0100
0000
1000
0100
1000
0000
,
0010
1000
0001
0100
,
0001
0010
0001
0000
0010
0000
0100
0000
,
1000
0010
1000
0001
,
0100
0000
0001
0000
1000
0100
1000
0000
,
0001
0000
0000
0000
,
1001
0000
0000
0000
;

//---------------dance-single - Renard----------------
#NOTES:
     dance-single:
     Renard:
     Easy:
     2:
     0.213,0.314,0.010,0.263,0.000: // measure 1
0000
0000
0000
0000
,  // measure 2
0000
0000
0000
0000
,  // measure 3
0000
0000
0000
0000
,  // measure 4
0000
0000
0000
0000
,  // measure 5
0000
0000
0000
0000
,  // measure 6
0000
0000
0000
0000
,  // measure 7
0000
0000
0000
0000
,  // measure 8
0000
0000
0000
0000
,  // measure 9
2000
0000
0000
0000
,  // measure 10
0000
0000
0000
0000
,  // measure 11
0000
0000
0000
0000
,  // measure 12
0000
0000
0000
0000
,  // measure 13
3001
0001
0000
0000
,  // measure 14
0000
0000
0000
0000
,  // measure 15
0200
0000
0320
0000
,  // measure 16
1030
0000
0000
0000
,  // measure 17
0100
1000
0000
0000
,  // measure 18
0000
0000
0000
0000
,  // measure 19
0002
0000
0023
0000
,  // measure 20
0230
0000
0000
0000
,  // measure 21
1300
1000
0000
0000
,  // measure 22
0000
0000
0000
0000
,  // measure 23
0002
0000
0203
0000
,  // measure 24
0320
0000
0000
0000
,  // measure 25
2030
0000
3200
0000
,  // measure 26
0320
0000
0000
0000
,  // measure 27
0032
0000
0023
0000
,  // measure 28
0230
0000
0000
0000
,  // measure 29
2300
0000
0000
0000
,  // measure 30
0000
0000
0000
0000
,  // measure 31
3001
0001
1000
1000
,  // measure 32
0001
0100
0010
1000
,  // measure 33
0001
0000
1000
0100
,  // measure 34
0010
0001
1000
0001
,  // measure 35
0200
0000
0320
0000
,  // measure 36
2030
0000
3200
0000
,  // measure 37
0320
0000
0031
0010
,  // measure 38
0200
0000
2300
0000
,  // measure 39
0002
0000
0000
0000
,  // measure 40
3003
0000
0000
0000
,  // measure 41
0000
0000
0000
0000
,  // measure 42
1000
0100
0010
0001
,  // measure 43
1000
0100
0010
0001
,  // measure 44
1000
1000
1000
0000
,  // measure 45
0001
0000
0001
0000
,  // measure 46
0010
0010
0010
0000
,  // measure 47
0100
0000
0100
0000
,  // measure 48
1000
1000
1000
0000
,  // measure 49
0010
0000
0010
0000
,  // measure 50
0010
0000
0010
0000
,  // measure 51
0100
0000
0100
0000
,  // measure 52
0100
0000
0001
1000
,  // measure 53
0001
0001
0001
0000
,  // measure 54
1000
0000
1000
0000
,  // measure 55
0010
1000
0001
0000
,  // measure 56
1000
0000
0100
0000
,  // measure 57
0010
0001
0010
0000
,  // measure 58
0100
0000
1000
0000
,  // measure 59
0100
1000
0001
0000
,  // measure 60
0010
0000
0010
0000
,  // measure 61
0001
0000
0001
0000
,  // measure 62
1000
0100
0010
0000
,  // measure 63
1000
0000
1000
0000
,  // measure 64
0001
0010
0100
0000
,  // measure 65
0001
0000
0001
0000
,  // measure 66
1000
0100
0010
0000
,  // measure 67
1000
0000
1000
0000
,  // measure 68
0001
0010
0100
0000
,  // measure 69
2002
0000
0000
0000
,  // measure 70
3013
0000
0000
0000
;
